  0
SECTION
  2
HEADER
  9
$ACADVER
  1
AC1009
  9
$DWGCODEPAGE
  3
dos932
  9
$INSBASE
 10
0.0
 20
0.0
 30
0.0
  9
$EXTMIN
 10
0.0
 20
0.0
 30
0.0
  9
$EXTMAX
 10
2100.0
 20
1485.0
 30
0.0
  9
$LIMMIN
 10
0.0
 20
0.0
  9
$LIMMAX
 10
2100.0
 20
1485.0
  9
$ORTHOMODE
 70
     0
  9
$REGENMODE
 70
     1
  9
$FILLMODE
 70
     1
  9
$QTEXTMODE
 70
     0
  9
$MIRRTEXT
 70
     1
  9
$DRAGMODE
 70
     2
  9
$LTSCALE
 40
5.0
  9
$OSMODE
 70
    37
  9
$ATTMODE
 70
     1
  9
$TEXTSIZE
 40
17.5
  9
$TRACEWID
 40
1.0
  9
$TEXTSTYLE
  7
STANDARD
  9
$CLAYER
  8
0
  9
$CELTYPE
  6
BYLAYER
  9
$CECOLOR
 62
   256
  9
$DIMSCALE
 40
1.0
  9
$DIMASZ
 40
15.0
  9
$DIMEXO
 40
5.0
  9
$DIMDLI
 40
3.75
  9
$DIMRND
 40
0.0
  9
$DIMDLE
 40
0.0
  9
$DIMEXE
 40
5.0
  9
$DIMTP
 40
0.0
  9
$DIMTM
 40
0.0
  9
$DIMTXT
 40
17.5
  9
$DIMCEN
 40
2.5
  9
$DIMTSZ
 40
0.0
  9
$DIMTOL
 70
     0
  9
$DIMLIM
 70
     0
  9
$DIMTIH
 70
     1
  9
$DIMTOH
 70
     1
  9
$DIMSE1
 70
     0
  9
$DIMSE2
 70
     0
  9
$DIMTAD
 70
     1
  9
$DIMZIN
 70
     0
  9
$DIMBLK
  1

  9
$DIMASO
 70
     1
  9
$DIMSHO
 70
     1
  9
$DIMPOST
  1

  9
$DIMAPOST
  1

  9
$DIMALT
 70
     0
  9
$DIMALTD
 70
     3
  9
$DIMALTF
 40
0.0393700787
  9
$DIMLFAC
 40
1.0
  9
$DIMTOFL
 70
     1
  9
$DIMTVP
 40
0.0
  9
$DIMTIX
 70
     0
  9
$DIMSOXD
 70
     0
  9
$DIMSAH
 70
     0
  9
$DIMBLK1
  1

  9
$DIMBLK2
  1

  9
$DIMSTYLE
  2
ISO-25
  9
$DIMCLRD
 70
     0
  9
$DIMCLRE
 70
     0
  9
$DIMCLRT
 70
     0
  9
$DIMTFAC
 40
1.0
  9
$DIMGAP
 40
7.62
  9
$LUNITS
 70
     2
  9
$LUPREC
 70
     1
  9
$SKETCHINC
 40
1.0
  9
$FILLETRAD
 40
10.0
  9
$AUNITS
 70
     0
  9
$AUPREC
 70
     1
  9
$MENU
  1
.
  9
$ELEVATION
 40
0.0
  9
$PELEVATION
 40
0.0
  9
$THICKNESS
 40
0.0
  9
$LIMCHECK
 70
     0
  9
$CHAMFERA
 40
0.0
  9
$CHAMFERB
 40
0.0
  9
$SKPOLY
 70
     0
  9
$TDCREATE
 40
2459331.392108495
  9
$TDUPDATE
 40
2459331.392111042
  9
$TDINDWG
 40
0.0000000116
  9
$TDUSRTIMER
 40
0.0000000116
  9
$USRTIMER
 70
     1
  9
$ANGBASE
 50
0.0
  9
$ANGDIR
 70
     0
  9
$PDMODE
 70
     0
  9
$PDSIZE
 40
-1.0
  9
$PLINEWID
 40
0.0
  9
$COORDS
 70
     1
  9
$SPLFRAME
 70
     0
  9
$SPLINETYPE
 70
     6
  9
$SPLINESEGS
 70
     8
  9
$ATTDIA
 70
     0
  9
$ATTREQ
 70
     1
  9
$HANDLING
 70
     1
  9
$HANDSEED
  5
C79
  9
$SURFTAB1
 70
     6
  9
$SURFTAB2
 70
     6
  9
$SURFTYPE
 70
     6
  9
$SURFU
 70
     6
  9
$SURFV
 70
     6
  9
$UCSNAME
  2

  9
$UCSORG
 10
0.0
 20
0.0
 30
0.0
  9
$UCSXDIR
 10
1.0
 20
0.0
 30
0.0
  9
$UCSYDIR
 10
0.0
 20
1.0
 30
0.0
  9
$PUCSNAME
  2

  9
$PUCSORG
 10
0.0
 20
0.0
 30
0.0
  9
$PUCSXDIR
 10
1.0
 20
0.0
 30
0.0
  9
$PUCSYDIR
 10
0.0
 20
1.0
 30
0.0
  9
$USERI1
 70
     0
  9
$USERI2
 70
     0
  9
$USERI3
 70
     0
  9
$USERI4
 70
     0
  9
$USERI5
 70
     0
  9
$USERR1
 40
0.0
  9
$USERR2
 40
0.0
  9
$USERR3
 40
0.0
  9
$USERR4
 40
0.0
  9
$USERR5
 40
0.0
  9
$WORLDVIEW
 70
     1
  9
$SHADEDGE
 70
     3
  9
$SHADEDIF
 70
    70
  9
$TILEMODE
 70
     1
  9
$MAXACTVP
 70
    64
  9
$PLIMCHECK
 70
     0
  9
$PEXTMIN
 10
1.0000000000E+20
 20
1.0000000000E+20
 30
1.0000000000E+20
  9
$PEXTMAX
 10
-1.0000000000E+20
 20
-1.0000000000E+20
 30
-1.0000000000E+20
  9
$PLIMMIN
 10
0.0
 20
0.0
  9
$PLIMMAX
 10
420.0
 20
297.0
  9
$UNITMODE
 70
     0
  9
$VISRETAIN
 70
     1
  9
$PLINEGEN
 70
     0
  9
$PSLTSCALE
 70
     1
  0
ENDSEC
  0
SECTION
  2
TABLES
  0
TABLE
  2
VPORT
 70
     1
  0
VPORT
  2
*ACTIVE
 70
     0
 10
0.0
 20
0.0
 11
1.0
 21
1.0
 12
1050.0
 22
742.5
 13
0.0
 23
0.0
 14
10.0
 24
10.0
 15
10.0
 25
10.0
 16
0.0
 26
0.0
 36
1.0
 17
0.0
 27
0.0
 37
0.0
 40
1485.0
 41
1.4141414141
 42
50.0
 43
0.0
 44
0.0
 50
0.0
 51
0.0
 71
     0
 72
  2000
 73
     1
 74
     3
 75
     0
 76
     0
 77
     0
 78
     0
  0
ENDTAB
  0
TABLE
  2
LTYPE
 70
     6
  0
LTYPE
  2
CONTINUOUS
 70
     0
  3
Solid line
 72
    65
 73
     0
 40
0.0
  0
LTYPE
  2
HIDDEN
 70
     0
  3
Hidden __ __ __ __ __ __ __ __ __ __ __ __ __ __
 72
    65
 73
     2
 40
1.905
 49
1.27
 49
-0.635
  0
LTYPE
  2
PHANTOM
 70
     0
  3
Phantom ______  __  __  ______  __  __  ______
 72
    65
 73
     6
 40
12.7
 49
6.35
 49
-1.27
 49
1.27
 49
-1.27
 49
1.27
 49
-1.27
  0
LTYPE
  2
CENTER
 70
     0
  3
Center ____ _ ____ _ ____ _ ____ _ ____ _ ____
 72
    65
 73
     4
 40
10.16
 49
6.35
 49
-1.27
 49
1.27
 49
-1.27
  0
LTYPE
  2
CENTERX2
 70
     0
  3
Center (2x) ________  __  ________  __  _____
 72
    65
 73
     4
 40
20.32
 49
12.7
 49
-2.54
 49
2.54
 49
-2.54
  0
LTYPE
  2
DOT2
 70
     0
  3
Dot (.5x) ........................................
 72
    65
 73
     2
 40
0.635
 49
0.0
 49
-0.635
  0
ENDTAB
  0
TABLE
  2
LAYER
 70
     4
  0
LAYER
  2
0
 70
     0
 62
     7
  6
CONTINUOUS
  0
LAYER
  2
太線
 70
     0
 62
     7
  6
CONTINUOUS
  0
LAYER
  2
中太線
 70
     0
 62
     7
  6
CONTINUOUS
  0
LAYER
  2
細線
 70
     0
 62
     7
  6
CONTINUOUS
  0
ENDTAB
  0
TABLE
  2
STYLE
 70
     1
  0
STYLE
  2
STANDARD
 70
     0
 40
0.0
 41
1.0
 50
0.0
 71
     0
 42
17.5
  3
txt
  4
bigfont
  0
ENDTAB
  0
TABLE
  2
VIEW
 70
     0
  0
ENDTAB
  0
TABLE
  2
UCS
 70
     0
  0
ENDTAB
  0
TABLE
  2
APPID
 70
     1
  0
APPID
  2
ACAD
 70
     0
  0
ENDTAB
  0
TABLE
  2
DIMSTYLE
 70
     4
  0
DIMSTYLE
  2
ISO-25
 70
     0
  3

  4

  5

  6

  7

 40
1.0
 41
2.5
 42
0.625
 43
3.75
 44
1.25
 45
0.0
 46
0.0
 47
0.0
 48
0.0
140
2.5
141
2.5
142
0.0
143
0.0393700787
144
1.0
145
0.0
146
1.0
147
0.625
 71
     0
 72
     0
 73
     0
 74
     0
 75
     0
 76
     0
 77
     1
 78
     8
170
     0
171
     3
172
     1
173
     0
174
     0
175
     0
176
     0
177
     0
178
     0
  0
DIMSTYLE
  2
SLDDIMSTYLE0
 70
     0
  3

  4

  5

  6
OPEN30
  7
OPEN30
 40
1.0
 41
15.0
 42
0.0625
 43
0.38
 44
0.0
 45
0.000000001
 46
0.0
 47
0.0
 48
0.0
140
17.5
141
0.09
142
0.0
143
25.4
144
1.0
145
0.0
146
1.0
147
4.375
 71
     0
 72
     0
 73
     0
 74
     0
 75
     0
 76
     0
 77
     3
 78
    12
170
     0
171
     2
172
     0
173
     1
174
     0
175
     0
176
     0
177
     0
178
     0
  0
DIMSTYLE
  2
SLDDIMSTYLE1
 70
     0
  3

  4

  5

  6
OPEN30
  7
OPEN30
 40
1.0
 41
15.0
 42
0.0625
 43
0.38
 44
0.0
 45
0.000000001
 46
0.0
 47
0.0
 48
0.0
140
17.5
141
0.09
142
0.0
143
25.4
144
1.0
145
0.0
146
1.0
147
4.375
 71
     0
 72
     0
 73
     0
 74
     0
 75
     0
 76
     0
 77
     3
 78
    12
170
     0
171
     2
172
     1
173
     1
174
     0
175
     0
176
     0
177
     0
178
     0
  0
DIMSTYLE
  2
SLDDIMSTYLE2
 70
     0
  3

  4

  5

  6
NONE
  7
OPEN30
 40
1.0
 41
15.0
 42
0.0625
 43
0.38
 44
0.0
 45
0.000000001
 46
0.0
 47
0.0
 48
0.0
140
17.5
141
0.0
142
0.0
143
25.4
144
1.0
145
0.0
146
1.0
147
4.375
 71
     0
 72
     0
 73
     0
 74
     0
 75
     0
 76
     0
 77
     3
 78
    12
170
     0
171
     2
172
     1
173
     1
174
     0
175
     0
176
     0
177
     0
178
     0
  0
ENDTAB
  0
ENDSEC
  0
SECTION
  2
BLOCKS
  0
BLOCK
  8
0
  2
$MODEL_SPACE
 70
     0
 10
0.0
 20
0.0
 30
0.0
  3
$MODEL_SPACE
  1

  0
ENDBLK
  5
21
  8
0
  0
BLOCK
 67
     1
  8
0
  2
$PAPER_SPACE
 70
     0
 10
0.0
 20
0.0
 30
0.0
  3
$PAPER_SPACE
  1

  0
ENDBLK
  5
1D
 67
     1
  8
0
  0
BLOCK
  8
0
  2
SW_NOTE_0
 70
     0
 10
0.0
 20
0.0
 30
0.0
  3
SW_NOTE_0
  1

  0
TEXT
  5
8B
  8
細線
 62
     0
 10
0.0
 20
6.1820510836
 30
0.0
 40
17.5
  1
尺
 41
0.7
 11
0.0
 21
0.0
 31
0.0
 73
     1
  0
TEXT
  5
8C
  8
細線
 62
     0
 10
0.0
 20
-18.8179483576
 30
0.0
 40
17.5
  1
度
 41
0.7
 11
0.0
 21
-24.9999994412
 31
0.0
 73
     1
  0
ENDBLK
  5
8A
  8
0
  0
BLOCK
  8
0
  2
SW_NOTE_1
 70
     0
 10
0.0
 20
0.0
 30
0.0
  3
SW_NOTE_1
  1

  0
TEXT
  5
91
  8
細線
 62
     0
 10
0.0
 20
6.1820510836
 30
0.0
 40
17.5
  1
製
 41
0.7
 11
0.0
 21
0.0
 31
0.0
 73
     1
  0
TEXT
  5
92
  8
細線
 62
     0
 10
0.0
 20
-18.8179483576
 30
0.0
 40
17.5
  1
図
 41
0.7
 11
0.0
 21
-24.9999994412
 31
0.0
 73
     1
  0
ENDBLK
  5
90
  8
0
  0
BLOCK
  8
0
  2
SW_NOTE_2
 70
     0
 10
0.0
 20
0.0
 30
0.0
  3
SW_NOTE_2
  1

  0
TEXT
  5
97
  8
細線
 62
     0
 10
0.0
 20
6.1820510836
 30
0.0
 40
17.5
  1
検
 41
0.7
 11
0.0
 21
0.0
 31
0.0
 73
     1
  0
TEXT
  5
98
  8
細線
 62
     0
 10
0.0
 20
-18.8179483576
 30
0.0
 40
17.5
  1
図
 41
0.7
 11
0.0
 21
-24.9999994412
 31
0.0
 73
     1
  0
ENDBLK
  5
96
  8
0
  0
BLOCK
  8
0
  2
SW_NOTE_3
 70
     0
 10
0.0
 20
0.0
 30
0.0
  3
SW_NOTE_3
  1

  0
TEXT
  5
9D
  8
細線
 62
     0
 10
0.0
 20
6.1820510836
 30
0.0
 40
17.5
  1
単
 41
0.7
 11
0.0
 21
0.0
 31
0.0
 73
     1
  0
TEXT
  5
9E
  8
細線
 62
     0
 10
0.0
 20
-18.8179483576
 30
0.0
 40
17.5
  1
位
 41
0.7
 11
0.0
 21
-24.9999994412
 31
0.0
 73
     1
  0
ENDBLK
  5
9C
  8
0
  0
BLOCK
  8
0
  2
SW_NOTE_4
 70
     0
 10
0.0
 20
0.0
 30
0.0
  3
SW_NOTE_4
  1

  0
TEXT
  5
A3
  8
細線
 62
     0
 10
0.0
 20
6.1820510836
 30
0.0
 40
17.5
  1
日
 41
0.7
 11
0.0
 21
0.0
 31
0.0
 73
     1
  0
TEXT
  5
A4
  8
細線
 62
     0
 10
0.0
 20
-18.8179483576
 30
0.0
 40
17.5
  1
付
 41
0.7
 11
0.0
 21
-24.9999994412
 31
0.0
 73
     1
  0
ENDBLK
  5
A2
  8
0
  0
BLOCK
  8
0
  2
SW_NOTE_5
 70
     0
 10
0.0
 20
0.0
 30
0.0
  3
SW_NOTE_5
  1

  0
LINE
  5
AE
  8
細線
 62
     0
 10
-0.4239886157
 20
0.3825698758
 30
0.0
 11
-0.4239886157
 21
32.3775510553
 31
0.0
  0
LINE
  5
AF
  8
細線
 62
     0
 10
-0.4239886157
 20
32.3775510553
 30
0.0
 11
94.9336023504
 21
32.3775510553
 31
0.0
  0
LINE
  5
B0
  8
細線
 62
     0
 10
94.9336023504
 20
32.3775510553
 30
0.0
 11
94.9336023504
 21
0.3825698758
 31
0.0
  0
LINE
  5
B1
  8
細線
 62
     0
 10
94.9336023504
 20
0.3825698758
 30
0.0
 11
-0.4239886157
 21
0.3825698758
 31
0.0
  0
TEXT
  5
B2
  8
細線
 62
     0
 10
0.0
 20
8.4120052245
 30
0.0
 40
23.8125
  1
承認図
 41
0.7
 11
0.0
 21
0.0
 31
0.0
 73
     1
  0
ENDBLK
  5
AD
  8
0
  0
BLOCK
  8
0
  2
SW_NOTE_6
 70
     0
 10
0.0
 20
0.0
 30
0.0
  3
SW_NOTE_6
  1

  0
TEXT
  5
B7
  8
細線
 62
     0
 10
0.0
 20
6.1820510836
 30
0.0
 40
17.5
  1
図
 41
0.7
 11
0.0
 21
0.0
 31
0.0
 73
     1
  0
TEXT
  5
B8
  8
細線
 62
     0
 10
0.0
 20
-18.8179483576
 30
0.0
 40
17.5
  1
名
 41
0.7
 11
0.0
 21
-24.9999994412
 31
0.0
 73
     1
  0
ENDBLK
  5
B6
  8
0
  0
BLOCK
  8
0
  2
SW_NOTE_7
 70
     0
 10
0.0
 20
0.0
 30
0.0
  3
SW_NOTE_7
  1

  0
TEXT
  5
BD
  8
細線
 62
     0
 10
0.0
 20
5.608003483
 30
0.0
 40
15.875
  1
表面
 41
0.7
 11
0.0
 21
0.0
 31
0.0
 73
     1
  0
TEXT
  5
BE
  8
細線
 62
     0
 10
0.0
 20
-15.5586629279
 30
0.0
 40
15.875
  1
処理
 41
0.7
 11
0.0
 21
-21.1666664109
 31
0.0
 73
     1
  0
ENDBLK
  5
BC
  8
0
  0
BLOCK
  8
0
  2
SW_NOTE_8
 70
     0
 10
0.0
 20
0.0
 30
0.0
  3
SW_NOTE_8
  1

  0
TEXT
  5
C3
  8
細線
 62
     0
 10
0.0
 20
6.1820510836
 30
0.0
 40
17.5
  1
図
 41
0.7
 11
0.0
 21
0.0
 31
0.0
 73
     1
  0
TEXT
  5
C4
  8
細線
 62
     0
 10
0.0
 20
-18.8179483576
 30
0.0
 40
17.5
  1
番
 41
0.7
 11
0.0
 21
-24.9999994412
 31
0.0
 73
     1
  0
ENDBLK
  5
C2
  8
0
  0
BLOCK
  8
0
  2
SW_TABLEANNOTATION_0
 70
     0
 10
0.0
 20
0.0
 30
0.0
  3
SW_TABLEANNOTATION_0
  1

  0
LINE
  5
CE
  8
細線
 62
     0
 10
0.0
 20
0.0
 30
0.0
 11
0.0
 21
-55.0
 31
0.0
  0
LINE
  5
CF
  8
細線
 62
     0
 10
0.0
 20
-55.0
 30
0.0
 11
406.6346613899
 21
-55.0
 31
0.0
  0
LINE
  5
D0
  8
細線
 62
     0
 10
406.6346613899
 20
-55.0
 30
0.0
 11
406.6346613899
 21
0.0
 31
0.0
  0
LINE
  5
D1
  8
細線
 62
     0
 10
406.6346613899
 20
0.0
 30
0.0
 11
0.0
 21
0.0
 31
0.0
  0
LINE
  5
D2
  8
細線
 62
     0
 10
90.3543479399
 20
-27.5
 30
0.0
 11
90.3543479399
 21
-55.0
 31
0.0
  0
LINE
  5
D3
  8
細線
 62
     0
 10
209.6367247773
 20
-27.5
 30
0.0
 11
209.6367247773
 21
-55.0
 31
0.0
  0
LINE
  5
D4
  8
細線
 62
     0
 10
266.3505718966
 20
-27.5
 30
0.0
 11
266.3505718966
 21
-55.0
 31
0.0
  0
LINE
  5
D5
  8
細線
 62
     0
 10
349.9208142706
 20
-27.5
 30
0.0
 11
349.9208142706
 21
-55.0
 31
0.0
  0
LINE
  5
D6
  8
細線
 62
     0
 10
90.3543479399
 20
0.0
 30
0.0
 11
90.3543479399
 21
-27.5
 31
0.0
  0
LINE
  5
D7
  8
細線
 62
     0
 10
209.6367247773
 20
0.0
 30
0.0
 11
209.6367247773
 21
-27.5
 31
0.0
  0
LINE
  5
D8
  8
細線
 62
     0
 10
266.3505718966
 20
0.0
 30
0.0
 11
266.3505718966
 21
-27.5
 31
0.0
  0
LINE
  5
D9
  8
細線
 62
     0
 10
349.9208142706
 20
0.0
 30
0.0
 11
349.9208142706
 21
-27.5
 31
0.0
  0
LINE
  5
DA
  8
細線
 62
     0
 10
0.0
 20
-27.5
 30
0.0
 11
406.6346613899
 21
-27.5
 31
0.0
  0
TEXT
  5
DB
  8
細線
 62
     0
 10
4.4410640203
 20
-46.509662637
 30
0.0
 40
17.5
  1
部品番号
 41
0.7
 11
4.4410640203
 21
-52.6917137206
 31
0.0
 73
     1
  0
TEXT
  5
DC
  8
細線
 62
     0
 10
129.6274813838
 20
-46.509662637
 30
0.0
 40
17.5
  1
品名
 41
0.7
 11
129.6274813838
 21
-52.6917137206
 31
0.0
 73
     1
  0
TEXT
  5
DD
  8
細線
 62
     0
 10
217.6255933621
 20
-46.509662637
 30
0.0
 40
17.5
  1
個数
 41
0.7
 11
217.6255933621
 21
-52.6917137206
 31
0.0
 73
     1
  0
TEXT
  5
DE
  8
細線
 62
     0
 10
287.7676381088
 20
-46.509662637
 30
0.0
 40
17.5
  1
材質
 41
0.7
 11
287.7676381088
 21
-52.6917137206
 31
0.0
 73
     1
  0
TEXT
  5
DF
  8
細線
 62
     0
 10
357.9096828554
 20
-46.509662637
 30
0.0
 40
17.5
  1
板厚
 41
0.7
 11
357.9096828554
 21
-52.6917137206
 31
0.0
 73
     1
  0
TEXT
  5
E0
  8
細線
 62
     0
 10
40.0851602263
 20
-19.009662637
 30
0.0
 40
17.5
  1
1
 41
0.7
 11
40.0851602263
 21
-25.1917137206
 31
0.0
 73
     1
  0
TEXT
  5
E1
  8
細線
 62
     0
 10
129.6274813838
 20
-19.009662637
 30
0.0
 40
17.5
  1
本体
 41
0.7
 11
129.6274813838
 21
-25.1917137206
 31
0.0
 73
     1
  0
TEXT
  5
E2
  8
細線
 62
     0
 10
232.9016345932
 20
-19.009662637
 30
0.0
 40
17.5
  1
1
 41
0.7
 11
232.9016345932
 21
-25.1917137206
 31
0.0
 73
     1
  0
TEXT
  5
E3
  8
細線
 62
     0
 10
282.6756249471
 20
-19.009662637
 30
0.0
 40
17.5
  1
SGMHC
 41
0.7
 11
282.6756249471
 21
-25.1917137206
 31
0.0
 73
     1
  0
TEXT
  5
E4
  8
細線
 62
     0
 10
363.0016960171
 20
-19.009662637
 30
0.0
 40
17.5
  1
1.6
 41
0.7
 11
363.0016960171
 21
-25.1917137206
 31
0.0
 73
     1
  0
ENDBLK
  5
CD
  8
0
  0
BLOCK
  8
0
  2
_OPEN30
 70
     0
 10
0.0
 20
0.0
 30
0.0
  3
_OPEN30
  1

  0
LINE
  5
21B
  8
0
  6
BYBLOCK
 62
     0
 10
-1.0
 20
0.267949
 30
0.0
 11
0.0
 21
0.0
 31
0.0
  0
LINE
  5
21C
  8
0
  6
BYBLOCK
 62
     0
 10
0.0
 20
0.0
 30
0.0
 11
-1.0
 21
-0.267949
 31
0.0
  0
LINE
  5
21D
  8
0
  6
BYBLOCK
 62
     0
 10
0.0
 20
0.0
 30
0.0
 11
-1.0
 21
0.0
 31
0.0
  0
ENDBLK
  5
21A
  8
0
  0
BLOCK
  8
0
  2
_D
 70
     0
 10
0.0
 20
0.0
 30
0.0
  3
_D
  1

  0
INSERT
  5
221
  8
細線
  2
_OPEN30
 10
463.3626219704
 20
1223.2276532146
 30
-34.9971125
 41
15.0
 42
15.0
 50
180.0
  0
INSERT
  5
222
  8
細線
  2
_OPEN30
 10
742.4022322771
 20
1223.2276532146
 30
-34.9971125
 41
15.0
 42
15.0
 50
0.0
  0
LINE
  5
223
  8
細線
 10
463.3626219704
 20
1175.8511675365
 30
0.0
 11
463.3626219704
 21
1228.2276532146
 31
0.0
  0
LINE
  5
224
  8
細線
 10
742.4022322771
 20
1175.8511675365
 30
0.0
 11
742.4022322771
 21
1228.2276532146
 31
0.0
  0
LINE
  5
225
  8
細線
 10
463.3626219704
 20
1223.2276532146
 30
0.0
 11
742.4022322771
 21
1223.2276532146
 31
0.0
  0
TEXT
  5
226
  8
細線
 10
594.3443136925
 20
1229.409703134
 30
-34.9971125
 40
17.5
  1
279
 50
360.0
 41
0.7
 11
594.3443136925
 21
1223.2276520504
 31
-34.9971125
 73
     1
  0
ENDBLK
  5
220
  8
0
  0
BLOCK
  8
0
  2
_D_1
 70
     0
 10
0.0
 20
0.0
 30
0.0
  3
_D_1
  1

  0
INSERT
  5
22B
  8
細線
  2
_OPEN30
 10
522.8824271238
 20
207.0171556561
 30
-34.9971125
 41
15.0
 42
15.0
 50
180.0
  0
INSERT
  5
22C
  8
細線
  2
_OPEN30
 10
682.8824271238
 20
207.0171556561
 30
-34.9971125
 41
15.0
 42
15.0
 50
0.0
  0
LINE
  5
22D
  8
細線
 10
522.8824271238
 20
253.9218782146
 30
0.0
 11
522.8824271238
 21
202.0171556561
 31
0.0
  0
LINE
  5
22E
  8
細線
 10
682.8824271238
 20
253.9218782146
 30
0.0
 11
682.8824271238
 21
202.0171556561
 31
0.0
  0
LINE
  5
22F
  8
細線
 10
522.8824271238
 20
207.0171556561
 30
0.0
 11
682.8824271238
 21
207.0171556561
 31
0.0
  0
TEXT
  5
230
  8
細線
 10
585.4784865336
 20
213.1992055755
 30
-34.9971125
 40
17.5
  1
160
 41
0.7
 11
585.4784865336
 21
207.0171544919
 31
-34.9971125
 73
     1
  0
ENDBLK
  5
22A
  8
0
  0
BLOCK
  8
0
  2
_D_2
 70
     0
 10
0.0
 20
0.0
 30
0.0
  3
_D_2
  1

  0
INSERT
  5
235
  8
細線
  2
_OPEN30
 10
507.8824271238
 20
173.8482242105
 30
-34.9971125
 41
15.0
 42
15.0
 50
180.0
  0
INSERT
  5
236
  8
細線
  2
_OPEN30
 10
697.8824271238
 20
173.8482242105
 30
-34.9971125
 41
15.0
 42
15.0
 50
0.0
  0
LINE
  5
237
  8
細線
 10
507.8824271238
 20
253.9218782146
 30
0.0
 11
507.8824271238
 21
168.8482242105
 31
0.0
  0
LINE
  5
238
  8
細線
 10
697.8824271238
 20
253.9218782146
 30
0.0
 11
697.8824271238
 21
168.8482242105
 31
0.0
  0
LINE
  5
239
  8
細線
 10
507.8824271238
 20
173.8482242105
 30
0.0
 11
697.8824271238
 21
173.8482242105
 31
0.0
  0
TEXT
  5
23A
  8
細線
 10
585.4784865336
 20
180.0302741299
 30
-34.9971125
 40
17.5
  1
190
 41
0.7
 11
585.4784865336
 21
173.8482230463
 31
-34.9971125
 73
     1
  0
ENDBLK
  5
234
  8
0
  0
BLOCK
  8
0
  2
_D_3
 70
     0
 10
0.0
 20
0.0
 30
0.0
  3
_D_3
  1

  0
INSERT
  5
240
  8
細線
  2
_OPEN30
 10
781.9490859968
 20
238.9218782146
 30
-34.9971125
 41
15.0
 42
15.0
 50
90.0
  0
INSERT
  5
241
  8
細線
  2
_OPEN30
 10
781.9490859968
 20
258.9218782146
 30
-34.9971125
 41
15.0
 42
15.0
 50
270.0
  0
LINE
  5
242
  8
細線
 10
742.7353275213
 20
238.9218782146
 30
0.0
 11
786.9490859968
 21
238.9218782146
 31
0.0
  0
LINE
  5
243
  8
細線
 10
702.8824271238
 20
258.9218782146
 30
0.0
 11
786.9490859968
 21
258.9218782146
 31
0.0
  0
LINE
  5
244
  8
細線
 10
781.9490859968
 20
238.9218782146
 30
0.0
 11
781.9490859968
 21
196.8331281687
 31
0.0
  0
LINE
  5
245
  8
細線
 10
781.9490859968
 20
238.9218782146
 30
0.0
 11
781.9490859968
 21
258.9218782146
 31
0.0
  0
LINE
  5
246
  8
細線
 10
781.9490859968
 20
258.9218782146
 30
0.0
 11
781.9490859968
 21
288.9218782146
 31
0.0
  0
TEXT
  5
247
  8
細線
 10
775.7670360773
 20
196.8331281687
 30
-34.9971125
 40
17.5
  1
20
 50
90.0
 41
0.7
 11
781.9490871609
 21
196.8331281687
 31
-34.9971125
 73
     1
  0
ENDBLK
  5
23F
  8
0
  0
BLOCK
  8
0
  2
_D_4
 70
     0
 10
0.0
 20
0.0
 30
0.0
  3
_D_4
  1

  0
INSERT
  5
24C
  8
細線
  2
_OPEN30
 10
781.4541112499
 20
258.9218782146
 30
-34.9971125
 41
15.0
 42
15.0
 50
90.0
  0
INSERT
  5
24D
  8
細線
  2
_OPEN30
 10
781.4541112499
 20
338.9218782146
 30
-34.9971125
 41
15.0
 42
15.0
 50
270.0
  0
LINE
  5
24E
  8
細線
 10
702.8824271238
 20
258.9218782146
 30
0.0
 11
786.4541112499
 21
258.9218782146
 31
0.0
  0
LINE
  5
24F
  8
細線
 10
702.8824271238
 20
338.9218782146
 30
0.0
 11
786.4541112499
 21
338.9218782146
 31
0.0
  0
LINE
  5
250
  8
細線
 10
781.4541112499
 20
258.9218782146
 30
0.0
 11
781.4541112499
 21
228.9218782146
 31
0.0
  0
LINE
  5
251
  8
細線
 10
781.4541112499
 20
258.9218782146
 30
0.0
 11
781.4541112499
 21
338.9218782146
 31
0.0
  0
LINE
  5
252
  8
細線
 10
781.4541112499
 20
338.9218782146
 30
0.0
 11
781.4541112499
 21
368.9218782146
 31
0.0
  0
TEXT
  5
253
  8
細線
 10
775.2720613305
 20
287.694194438
 30
-34.9971125
 40
17.5
  1
80
 50
90.0
 41
0.7
 11
781.4541124141
 21
287.694194438
 31
-34.9971125
 73
     1
  0
ENDBLK
  5
24B
  8
0
  0
BLOCK
  8
0
  2
_D_5
 70
     0
 10
0.0
 20
0.0
 30
0.0
  3
_D_5
  1

  0
INSERT
  5
258
  8
細線
  2
_OPEN30
 10
416.2103396713
 20
238.9218782146
 30
-34.9971125
 41
15.0
 42
15.0
 50
90.0
  0
INSERT
  5
259
  8
細線
  2
_OPEN30
 10
416.2103396713
 20
283.9218782146
 30
-34.9971125
 41
15.0
 42
15.0
 50
270.0
  0
LINE
  5
25A
  8
細線
 10
463.0295267262
 20
238.9218782146
 30
0.0
 11
411.2103396713
 21
238.9218782146
 31
0.0
  0
LINE
  5
25B
  8
細線
 10
467.2721674133
 20
283.9218782146
 30
0.0
 11
411.2103396713
 21
283.9218782146
 31
0.0
  0
LINE
  5
25C
  8
細線
 10
416.2103396713
 20
238.9218782146
 30
0.0
 11
416.2103396713
 21
201.9324536732
 31
0.0
  0
LINE
  5
25D
  8
細線
 10
416.2103396713
 20
238.9218782146
 30
0.0
 11
416.2103396713
 21
283.9218782146
 31
0.0
  0
LINE
  5
25E
  8
細線
 10
416.2103396713
 20
283.9218782146
 30
0.0
 11
416.2103396713
 21
313.9218782146
 31
0.0
  0
TEXT
  5
25F
  8
細線
 10
410.0282897519
 20
201.9324536732
 30
-34.9971125
 40
17.5
  1
45
 50
90.0
 41
0.7
 11
416.2103408355
 21
201.9324536732
 31
-34.9971125
 73
     1
  0
ENDBLK
  5
257
  8
0
  0
BLOCK
  8
0
  2
_D_6
 70
     0
 10
0.0
 20
0.0
 30
0.0
  3
_D_6
  1

  0
INSERT
  5
264
  8
細線
  2
_OPEN30
 10
416.2103396713
 20
283.9218782146
 30
-34.9971125
 41
15.0
 42
15.0
 50
270.0
  0
INSERT
  5
265
  8
細線
  2
_OPEN30
 10
416.2103396713
 20
463.9218782146
 30
-34.9971125
 41
15.0
 42
15.0
 50
90.0
  0
LINE
  5
266
  8
細線
 10
467.2721674133
 20
283.9218782146
 30
0.0
 11
411.2103396713
 21
283.9218782146
 31
0.0
  0
LINE
  5
267
  8
細線
 10
467.2721674133
 20
463.9218782146
 30
0.0
 11
411.2103396713
 21
463.9218782146
 31
0.0
  0
LINE
  5
268
  8
細線
 10
416.2103396713
 20
283.9218782146
 30
0.0
 11
416.2103396713
 21
463.9218782146
 31
0.0
  0
TEXT
  5
269
  8
細線
 10
410.0282897519
 20
368.4072678877
 30
-34.9971125
 40
17.5
  1
180
 50
90.0
 41
0.7
 11
416.2103408355
 21
368.4072678877
 31
-34.9971125
 73
     1
  0
ENDBLK
  5
263
  8
0
  0
BLOCK
  8
0
  2
_NONE
 70
     0
 10
0.0
 20
0.0
 30
0.0
  3
_NONE
  1

  0
ENDBLK
  5
26E
  8
0
  0
BLOCK
  8
0
  2
_D_7
 70
     0
 10
0.0
 20
0.0
 30
0.0
  3
_D_7
  1

  0
INSERT
  5
272
  8
細線
  2
_OPEN30
 10
681.1146601708
 20
260.6896451676
 30
-34.9971125
 41
15.0
 42
15.0
 50
315.0
  0
LINE
  5
273
  8
細線
 10
681.1146601708
 20
260.6896451676
 30
0.0
 11
623.675713102
 21
318.1285922363
 31
0.0
  0
LINE
  5
274
  8
細線
 10
681.1146601708
 20
260.6896451676
 30
0.0
 11
684.6501940767
 21
257.1541112616
 31
0.0
  0
TEXT
  5
275
  8
細線
 10
627.8184291439
 20
322.2713082781
 30
-34.9971125
 40
17.5
  1
24-
 50
-45.0
 41
0.7
 11
623.447058901
 21
317.8999380353
 31
-34.9971125
 73
     1
  0
TEXT
  5
276
  8
細線
 10
649.4220146555
 20
300.6677227665
 30
-34.9971125
 40
17.5
  1
%%c
 50
-45.0
 41
0.7
 11
645.0506444126
 21
296.2963525237
 31
-34.9971125
 73
     1
  0
TEXT
  5
277
  8
細線
 10
663.1042843819
 20
286.9854530401
 30
-34.9971125
 40
17.5
  1
5
 50
-45.0
 41
0.7
 11
658.732914139
 21
282.6140827973
 31
-34.9971125
 73
     1
  0
ENDBLK
  5
271
  8
0
  0
BLOCK
  8
0
  2
_D_8
 70
     0
 10
0.0
 20
0.0
 30
0.0
  3
_D_8
  1

  0
INSERT
  5
27C
  8
細線
  2
_OPEN30
 10
695.053999999
 20
341.7503053394
 30
-34.9971125
 41
15.0
 42
15.0
 50
315.0
  0
LINE
  5
27D
  8
細線
 10
695.053999999
 20
341.7503053394
 30
0.0
 11
638.9777635919
 21
397.8265417464
 31
0.0
  0
LINE
  5
27E
  8
細線
 10
695.053999999
 20
341.7503053394
 30
0.0
 11
700.7108542485
 21
336.0934510899
 31
0.0
  0
TEXT
  5
27F
  8
細線
 10
643.1171110384
 20
401.9658891929
 30
-34.9971125
 40
17.5
  1
24-
 50
-45.0
 41
0.7
 11
638.7457407956
 21
397.5945189501
 31
-34.9971125
 73
     1
  0
TEXT
  5
280
  8
細線
 10
664.72069655
 20
380.3623036813
 30
-34.9971125
 40
17.5
  1
%%c
 50
-45.0
 41
0.7
 11
660.3493263072
 21
375.9909334385
 31
-34.9971125
 73
     1
  0
TEXT
  5
281
  8
細線
 10
678.4029662765
 20
366.6800339549
 30
-34.9971125
 40
17.5
  1
8
 50
-45.0
 41
0.7
 11
674.0315960336
 21
362.308663712
 31
-34.9971125
 73
     1
  0
ENDBLK
  5
27B
  8
0
  0
BLOCK
  8
0
  2
_D_9
 70
     0
 10
0.0
 20
0.0
 30
0.0
  3
_D_9
  1

  0
INSERT
  5
30B
  8
細線
  2
_OPEN30
 10
967.3673560947
 20
188.9218532146
 30
0.0
 41
15.0
 42
15.0
 50
0.0
  0
INSERT
  5
30C
  8
細線
  2
_OPEN30
 10
1000.318532098
 20
188.9218532146
 30
0.0
 41
15.0
 42
15.0
 50
180.0
  0
LINE
  5
30D
  8
細線
 10
967.3673560947
 20
238.9218782146
 30
0.0
 11
967.3673560947
 21
183.9218532146
 31
0.0
  0
LINE
  5
30E
  8
細線
 10
1000.318532098
 20
233.9218782146
 30
0.0
 11
1000.318532098
 21
183.9218532146
 31
0.0
  0
LINE
  5
30F
  8
細線
 10
967.3673560947
 20
188.9218532146
 30
0.0
 11
937.3673560947
 21
188.9218532146
 31
0.0
  0
LINE
  5
310
  8
細線
 10
967.3673560947
 20
188.9218532146
 30
0.0
 11
1000.318532098
 21
188.9218532146
 31
0.0
  0
LINE
  5
311
  8
細線
 10
1000.318532098
 20
188.9218532146
 30
0.0
 11
1059.7682914036
 21
188.9218532146
 31
0.0
  0
TEXT
  5
312
  8
細線
 10
1039.4002364288
 20
195.103903134
 30
0.0
 40
17.5
  1
33
 41
0.7
 11
1039.4002364288
 21
188.9218520505
 31
0.0
 73
     1
  0
ENDBLK
  5
30A
  8
0
  0
BLOCK
  8
0
  2
_D_10
 70
     0
 10
0.0
 20
0.0
 30
0.0
  3
_D_10
  1

  0
INSERT
  5
317
  8
細線
  2
_OPEN30
 10
1081.824307098
 20
1172.5218782146
 30
0.0
 41
15.0
 42
15.0
 50
90.0
  0
INSERT
  5
318
  8
細線
  2
_OPEN30
 10
1081.824307098
 20
238.9218782146
 30
0.0
 41
15.0
 42
15.0
 50
270.0
  0
LINE
  5
319
  8
細線
 10
1001.718532098
 20
1172.5218782146
 30
0.0
 11
1086.824307098
 21
1172.5218782146
 31
0.0
  0
LINE
  5
31A
  8
細線
 10
1005.318532098
 20
238.9218782146
 30
0.0
 11
1086.824307098
 21
238.9218782146
 31
0.0
  0
LINE
  5
31B
  8
細線
 10
1081.824307098
 20
1172.5218782146
 30
0.0
 11
1081.824307098
 21
238.9218782146
 31
0.0
  0
TEXT
  5
31C
  8
細線
 10
1075.6422571786
 20
698.4774673544
 30
0.0
 40
17.5
  1
933.6
 50
90.0
 41
0.7
 11
1081.8243082621
 21
698.4774673544
 31
0.0
 73
     1
  0
ENDBLK
  5
316
  8
0
  0
BLOCK
  8
0
  2
_D_11
 70
     0
 10
0.0
 20
0.0
 30
0.0
  3
_D_11
  1

  0
INSERT
  5
340
  8
細線
  2
_OPEN30
 10
799.4704216321
 20
1354.5871709028
 30
-467.552875
 41
15.0
 42
15.0
 50
270.0
  0
INSERT
  5
341
  8
細線
  2
_OPEN30
 10
799.4704216321
 20
1284.5871709028
 30
-467.552875
 41
15.0
 42
15.0
 50
90.0
  0
LINE
  5
342
  8
細線
 10
714.0912582992
 20
1354.5871709028
 30
0.0
 11
804.4704216321
 21
1354.5871709028
 31
0.0
  0
LINE
  5
343
  8
細線
 10
726.2708614272
 20
1284.5871709028
 30
0.0
 11
804.4704216321
 21
1284.5871709028
 31
0.0
  0
LINE
  5
344
  8
細線
 10
799.4704216321
 20
1354.5871709028
 30
0.0
 11
799.4704216321
 21
1384.5871709028
 31
0.0
  0
LINE
  5
345
  8
細線
 10
799.4704216321
 20
1354.5871709028
 30
0.0
 11
799.4704216321
 21
1284.5871709028
 31
0.0
  0
LINE
  5
346
  8
細線
 10
799.4704216321
 20
1284.5871709028
 30
0.0
 11
799.4704216321
 21
1254.5871709028
 31
0.0
  0
TEXT
  5
347
  8
細線
 10
793.2883717127
 20
1303.2170985477
 30
-467.552875
 40
17.5
  1
70
 50
90.0
 41
0.7
 11
799.4704227963
 21
1303.2170985477
 31
-467.552875
 73
     1
  0
ENDBLK
  5
33F
  8
0
  0
BLOCK
  8
0
  2
SW_NOTE_9
 70
     0
 10
0.0
 20
0.0
 30
0.0
  3
SW_NOTE_9
  1

  0
CIRCLE
  5
4B5
  8
細線
 62
     0
 10
36.5017608755
 20
25.3455542404
 30
0.0
 40
13.97532585316539
  0
TEXT
  5
4B6
  8
細線
 62
     0
 10
31.4097471318
 20
19.909549185
 30
0.0
 40
17.5
  1
1
 41
0.7
 11
31.4097471318
 21
13.7274981014
 31
0.0
 73
     1
  0
LINE
  5
4B7
  8
細線
 62
     0
 10
26.4641197212
 20
14.6476245039
 30
0.0
 11
0.0
 21
0.0
 31
0.0
  0
SOLID
  5
4B8
  8
細線
 62
     0
 10
0.0
 20
0.0
 30
0.0
 11
14.9398311004
 21
3.9829570287
 31
0.0
 12
11.3078711927
 22
10.544882602
 32
0.0
 13
11.3078711927
 23
10.544882602
 33
0.0
  0
ENDBLK
  5
4B4
  8
0
  0
ENDSEC
  0
SECTION
  2
ENTITIES
  0
LINE
  5
76
  8
太線
 10
100.0
 20
1445.0
 30
0.0
 11
2060.0
 21
1445.0
 31
0.0
  0
LINE
  5
77
  8
太線
 10
100.0
 20
1445.0
 30
0.0
 11
100.0
 21
40.0
 31
0.0
  0
LINE
  5
78
  8
太線
 10
100.0
 20
40.0
 30
0.0
 11
2060.0
 21
40.0
 31
0.0
  0
LINE
  5
79
  8
太線
 10
2060.0
 20
1445.0
 30
0.0
 11
2060.0
 21
40.0
 31
0.0
  0
LINE
  5
7A
  8
中太線
 10
1310.0
 20
240.0
 30
0.0
 11
1310.0
 21
40.0
 31
0.0
  0
LINE
  5
7B
  8
中太線
 10
2060.0
 20
240.0
 30
0.0
 11
1310.0
 21
240.0
 31
0.0
  0
LINE
  5
7C
  8
細線
 10
1370.0
 20
110.0
 30
0.0
 11
1370.0
 21
40.0
 31
0.0
  0
LINE
  5
7D
  8
細線
 10
1310.0
 20
110.0
 30
0.0
 11
2060.0
 21
110.0
 31
0.0
  0
LINE
  5
7E
  8
細線
 10
1345.0
 20
240.0
 30
0.0
 11
1345.0
 21
110.0
 31
0.0
  0
LINE
  5
7F
  8
細線
 10
1650.0
 20
160.0
 30
0.0
 11
1650.0
 21
40.0
 31
0.0
  0
LINE
  5
80
  8
細線
 10
1520.0
 20
160.0
 30
0.0
 11
1520.0
 21
110.0
 31
0.0
  0
LINE
  5
81
  8
細線
 10
1555.0
 20
160.0
 30
0.0
 11
1555.0
 21
110.0
 31
0.0
  0
LINE
  5
82
  8
細線
 10
1615.0
 20
160.0
 30
0.0
 11
1615.0
 21
110.0
 31
0.0
  0
LINE
  5
83
  8
細線
 10
1710.0
 20
160.0
 30
0.0
 11
1710.0
 21
110.0
 31
0.0
  0
LINE
  5
84
  8
細線
 10
1745.0
 20
160.0
 30
0.0
 11
1745.0
 21
110.0
 31
0.0
  0
LINE
  5
85
  8
細線
 10
1805.0
 20
240.0
 30
0.0
 11
1805.0
 21
110.0
 31
0.0
  0
LINE
  5
86
  8
細線
 10
1840.0
 20
240.0
 30
0.0
 11
1840.0
 21
110.0
 31
0.0
  0
LINE
  5
87
  8
中太線
 10
2060.0
 20
160.0
 30
0.0
 11
1310.0
 21
160.0
 31
0.0
  0
INSERT
  5
8D
  8
細線
  2
SW_NOTE_0
 10
1317.8525585107
 20
137.7398918642
 30
0.0
  0
INSERT
  5
93
  8
細線
  2
SW_NOTE_1
 10
1526.7068255012
 20
136.4284963273
 30
0.0
  0
INSERT
  5
99
  8
細線
  2
SW_NOTE_2
 10
1621.1940265013
 20
136.4598813654
 30
0.0
  0
INSERT
  5
9F
  8
細線
  2
SW_NOTE_3
 10
1716.7563934493
 20
136.9003193017
 30
0.0
  0
INSERT
  5
A5
  8
細線
  2
SW_NOTE_4
 10
1812.6200791272
 20
136.3672981852
 30
0.0
  0
TEXT
  5
A6
  8
細線
 10
1375.3331850924
 20
68.5084531479
 30
0.0
 40
25.0
  1
アイボリー色
 41
0.7
 11
1375.3331850924
 21
59.6769515999
 31
0.0
 73
     1
  0
TEXT
  5
A7
  8
細線
 10
1349.9796050515
 20
128.879237486
 30
0.0
 40
25.0
  1
-
 41
0.7
 11
1349.9796050515
 21
120.047735938
 31
0.0
 73
     1
  0
TEXT
  5
A8
  8
細線
 10
1559.1593597641
 20
132.9381185532
 30
0.0
 40
20.0
  1
山田
 41
0.7
 11
1559.1593597641
 21
125.8729173148
 31
0.0
 73
     1
  0
TEXT
  5
A9
  8
細線
 10
1749.1151324357
 20
133.0763540913
 30
0.0
 40
20.0
  1
ｍｍ
 41
0.7
 11
1749.1151324357
 21
126.0111528529
 31
0.0
 73
     1
  0
TEXT
  5
AA
  8
細線
 10
1849.0807122114
 20
132.9908754095
 30
0.0
 40
20.0
  1
2021/4/26
 41
0.7
 11
1849.0807122114
 21
125.9256741711
 31
0.0
 73
     1
  0
INSERT
  5
B3
  8
細線
  2
SW_NOTE_5
 10
715.6059208617
 20
93.4066396599
 30
0.0
  0
INSERT
  5
B9
  8
細線
  2
SW_NOTE_6
 10
1317.3030365708
 20
202.1092613363
 30
0.0
  0
INSERT
  5
BF
  8
細線
  2
SW_NOTE_7
 10
1317.4497460681
 20
78.1665563311
 30
0.0
  0
INSERT
  5
C5
  8
細線
  2
SW_NOTE_8
 10
1812.6820202504
 20
204.7667660507
 30
0.0
  0
TEXT
  5
C6
  8
細線
 10
1356.5107401041
 20
208.9355024488
 30
0.0
 40
23.8125
  1
容器ホルダー(簡易型)
 41
0.7
 11
1356.5107401041
 21
200.5234972243
 31
0.0
 73
     1
  0
TEXT
  5
C7
  8
細線
 10
1849.566891271
 20
198.392187061
 30
0.0
 40
18.5208333333
  1
HYH-AA21-01-00
 41
0.7
 11
1849.566891271
 21
191.8495163309
 31
0.0
 73
     1
  0
TEXT
  5
C8
  8
細線
 10
1656.3888544946
 20
130.6088703822
 30
0.0
 40
20.0
  1
木下
 41
0.7
 11
1656.3888544946
 21
123.5436691438
 31
0.0
 73
     1
  0
TEXT
  5
C9
  8
細線
 10
2068.9065105106
 20
53.5272659201
 30
0.0
 40
18.5208333333
  1
E
 41
0.7
 11
2068.9065105106
 21
46.9845951899
 31
0.0
 73
     1
  0
TEXT
  5
CA
  8
細線
 10
1356.5107401041
 20
173.4565233704
 30
0.0
 40
23.8125
  1
HYH-E50S
 41
0.7
 11
1356.5107401041
 21
165.044518146
 31
0.0
 73
     1
  0
INSERT
  5
E5
  8
細線
  2
SW_TABLEANNOTATION_0
 10
1653.6290656105
 20
295.218
 30
0.0
  0
LINE
  5
E6
  8
0
  6
CONTINUOUS
 62
     7
 10
709.6503406321
 20
1170.0403155202
 30
0.0
 11
709.6503411287
 21
1170.3454924957
 31
0.0
  0
LINE
  5
E7
  8
0
  6
CONTINUOUS
 62
     7
 10
496.1145131188
 20
1170.3454924957
 30
0.0
 11
496.1145136154
 21
1170.0403155202
 31
0.0
  0
LINE
  5
E8
  8
0
  6
CONTINUOUS
 62
     7
 10
464.4939928203
 20
1170.9218782146
 30
0.0
 11
464.4939928203
 21
1172.5218782146
 31
0.0
  0
LINE
  5
E9
  8
0
  6
CONTINUOUS
 62
     7
 10
484.4939928203
 20
1172.5218782146
 30
0.0
 11
464.4939928203
 21
1172.5218782146
 31
0.0
  0
LINE
  5
EA
  8
0
  6
CONTINUOUS
 62
     7
 10
484.4939928203
 20
1170.9218782146
 30
0.0
 11
484.4939928203
 21
1172.5218782146
 31
0.0
  0
LINE
  5
EB
  8
0
  6
CONTINUOUS
 62
     7
 10
484.4939928203
 20
1170.9218782146
 30
0.0
 11
464.4939928203
 21
1170.9218782146
 31
0.0
  0
LINE
  5
EC
  8
0
  6
CONTINUOUS
 62
     7
 10
721.2708614272
 20
1170.9218782146
 30
0.0
 11
721.2708614272
 21
1172.5218782146
 31
0.0
  0
LINE
  5
ED
  8
0
  6
CONTINUOUS
 62
     7
 10
721.2708614272
 20
1172.5218782146
 30
0.0
 11
484.4939928203
 21
1172.5218782146
 31
0.0
  0
LINE
  5
EE
  8
0
  6
CONTINUOUS
 62
     7
 10
721.2708614272
 20
1170.9218782146
 30
0.0
 11
484.4939928203
 21
1170.9218782146
 31
0.0
  0
LINE
  5
EF
  8
0
  6
CONTINUOUS
 62
     7
 10
741.2708614272
 20
1170.9218782146
 30
0.0
 11
741.2708614272
 21
1172.5218782146
 31
0.0
  0
LINE
  5
F0
  8
0
  6
CONTINUOUS
 62
     7
 10
721.2708614272
 20
1172.5218782146
 30
0.0
 11
741.2708614272
 21
1172.5218782146
 31
0.0
  0
LINE
  5
F1
  8
0
  6
CONTINUOUS
 62
     7
 10
721.2708614272
 20
1170.9218782146
 30
0.0
 11
741.2708614272
 21
1170.9218782146
 31
0.0
  0
LINE
  5
F2
  8
0
  6
CONTINUOUS
 62
     7
 10
463.3626219704
 20
847.9218782146
 30
0.0
 11
464.4939928203
 21
847.9218782146
 31
0.0
  0
LINE
  5
F3
  8
0
  6
CONTINUOUS
 62
     7
 10
463.3626219704
 20
1018.9218782146
 30
0.0
 11
463.3626219704
 21
847.9218782146
 31
0.0
  0
LINE
  5
F4
  8
0
  6
CONTINUOUS
 62
     7
 10
464.4939928203
 20
1018.9218782146
 30
0.0
 11
463.3626219704
 21
1018.9218782146
 31
0.0
  0
LINE
  5
F5
  8
0
  6
CONTINUOUS
 62
     7
 10
464.4939928203
 20
1018.9218782146
 30
0.0
 11
464.4939928203
 21
847.9218782146
 31
0.0
  0
LINE
  5
F6
  8
0
  6
CONTINUOUS
 62
     7
 10
742.4022322771
 20
487.9218782146
 30
0.0
 11
741.2708614272
 21
487.9218782146
 31
0.0
  0
LINE
  5
F7
  8
0
  6
CONTINUOUS
 62
     7
 10
740.9880187148
 20
485.9218782146
 30
0.0
 11
742.4022322771
 21
487.9218782146
 31
0.0
  0
LINE
  5
F8
  8
0
  6
CONTINUOUS
 62
     7
 10
739.8566478649
 20
485.9218782146
 30
0.0
 11
740.9880187148
 21
485.9218782146
 31
0.0
  0
LINE
  5
F9
  8
0
  6
CONTINUOUS
 62
     7
 10
741.2708614272
 20
487.9218782146
 30
0.0
 11
739.8566478649
 21
485.9218782146
 31
0.0
  0
LINE
  5
FA
  8
0
  6
CONTINUOUS
 62
     7
 10
463.3626219704
 20
667.9218782146
 30
0.0
 11
464.4939928203
 21
667.9218782146
 31
0.0
  0
LINE
  5
FB
  8
0
  6
CONTINUOUS
 62
     7
 10
463.3626219704
 20
838.9218782146
 30
0.0
 11
463.3626219704
 21
667.9218782146
 31
0.0
  0
LINE
  5
FC
  8
0
  6
CONTINUOUS
 62
     7
 10
464.4939928203
 20
838.9218782146
 30
0.0
 11
463.3626219704
 21
838.9218782146
 31
0.0
  0
LINE
  5
FD
  8
0
  6
CONTINUOUS
 62
     7
 10
464.4939928203
 20
838.9218782146
 30
0.0
 11
464.4939928203
 21
667.9218782146
 31
0.0
  0
LINE
  5
FE
  8
0
  6
CONTINUOUS
 62
     7
 10
741.2708614272
 20
1018.9218782146
 30
0.0
 11
742.4022322771
 21
1018.9218782146
 31
0.0
  0
LINE
  5
FF
  8
0
  6
CONTINUOUS
 62
     7
 10
742.4022322771
 20
1018.9218782146
 30
0.0
 11
742.4022322771
 21
847.9218782146
 31
0.0
  0
LINE
  5
100
  8
0
  6
CONTINUOUS
 62
     7
 10
742.4022322771
 20
847.9218782146
 30
0.0
 11
741.2708614272
 21
847.9218782146
 31
0.0
  0
LINE
  5
101
  8
0
  6
CONTINUOUS
 62
     7
 10
741.2708614272
 20
1018.9218782146
 30
0.0
 11
741.2708614272
 21
847.9218782146
 31
0.0
  0
LINE
  5
102
  8
0
  6
CONTINUOUS
 62
     7
 10
741.2708614272
 20
243.9218782146
 30
0.0
 11
737.7353275213
 21
238.9218782146
 31
0.0
  0
LINE
  5
103
  8
0
  6
CONTINUOUS
 62
     7
 10
710.5054718616
 20
238.9218782146
 30
0.0
 11
737.7353275213
 21
238.9218782146
 31
0.0
  0
POLYLINE
  5
104
  8
0
  6
CONTINUOUS
 62
     7
 66
     1
 10
0.0
 20
0.0
 30
0.0
 70
   128
  0
VERTEX
  5
4BA
  8
0
  6
CONTINUOUS
 62
     7
 10
710.5054718616
 20
1170.2341881199
 30
0.0
  0
VERTEX
  5
4BB
  8
0
  6
CONTINUOUS
 62
     7
 10
711.2698758969
 20
1170.7151917229
 30
0.0
  0
VERTEX
  5
4BC
  8
0
  6
CONTINUOUS
 62
     7
 10
711.919685424
 20
1170.8511675365
 30
0.0
  0
SEQEND
  5
BFD
  8
0
  6
CONTINUOUS
 62
     7
  0
LINE
  5
105
  8
0
  6
CONTINUOUS
 62
     7
 10
741.2708614272
 20
1170.8511675365
 30
0.0
 11
741.2708614272
 21
1027.9218782146
 31
0.0
  0
LINE
  5
106
  8
0
  6
CONTINUOUS
 62
     7
 10
741.2708614272
 20
1027.9218782146
 30
0.0
 11
739.8566478649
 21
1025.9218782146
 31
0.0
  0
LINE
  5
107
  8
0
  6
CONTINUOUS
 62
     7
 10
739.8566478649
 20
1025.9218782146
 30
0.0
 11
729.9571529283
 21
1025.9218782146
 31
0.0
  0
LINE
  5
108
  8
0
  6
CONTINUOUS
 62
     7
 10
729.9571529283
 20
1025.9218782146
 30
0.0
 11
729.9571529283
 21
1008.9218782146
 31
0.0
  0
POLYLINE
  5
109
  8
0
  6
CONTINUOUS
 62
     7
 66
     1
 10
0.0
 20
0.0
 30
0.0
 70
   128
  0
VERTEX
  5
4BD
  8
0
  6
CONTINUOUS
 62
     7
 10
729.9571529283
 20
1008.9218782146
 30
0.0
  0
VERTEX
  5
4BE
  8
0
  6
CONTINUOUS
 62
     7
 10
730.1003668935
 20
1007.5132154304
 30
0.0
  0
VERTEX
  5
4BF
  8
0
  6
CONTINUOUS
 62
     7
 10
730.5184064454
 20
1006.2186741273
 30
0.0
  0
VERTEX
  5
4C0
  8
0
  6
CONTINUOUS
 62
     7
 10
731.1774045057
 20
1005.1431303428
 30
0.0
  0
VERTEX
  5
4C1
  8
0
  6
CONTINUOUS
 62
     7
 10
732.0239729707
 20
1004.3737182378
 30
0.0
  0
VERTEX
  5
4C2
  8
0
  6
CONTINUOUS
 62
     7
 10
732.9895278982
 20
1003.9727710052
 30
0.0
  0
VERTEX
  5
4C3
  8
0
  6
CONTINUOUS
 62
     7
 10
733.9958457702
 20
1003.9727710052
 30
0.0
  0
VERTEX
  5
4C4
  8
0
  6
CONTINUOUS
 62
     7
 10
734.9614006977
 20
1004.3737182378
 30
0.0
  0
VERTEX
  5
4C5
  8
0
  6
CONTINUOUS
 62
     7
 10
735.8079691627
 20
1005.1431303428
 30
0.0
  0
VERTEX
  5
4C6
  8
0
  6
CONTINUOUS
 62
     7
 10
736.466967223
 20
1006.2186741273
 30
0.0
  0
VERTEX
  5
4C7
  8
0
  6
CONTINUOUS
 62
     7
 10
736.8850067749
 20
1007.5132154304
 30
0.0
  0
VERTEX
  5
4C8
  8
0
  6
CONTINUOUS
 62
     7
 10
737.0282207401
 20
1008.9218782146
 30
0.0
  0
SEQEND
  5
BFE
  8
0
  6
CONTINUOUS
 62
     7
  0
LINE
  5
10A
  8
0
  6
CONTINUOUS
 62
     7
 10
737.0282207401
 20
1008.9218782146
 30
0.0
 11
737.0282207401
 21
1015.9218782146
 31
0.0
  0
LINE
  5
10B
  8
0
  6
CONTINUOUS
 62
     7
 10
737.0282207401
 20
1015.9218782146
 30
0.0
 11
734.1997936154
 21
1015.9218782146
 31
0.0
  0
LINE
  5
10C
  8
0
  6
CONTINUOUS
 62
     7
 10
734.1997936154
 20
1015.9218782146
 30
0.0
 11
734.1997936154
 21
1018.9218782146
 31
0.0
  0
LINE
  5
10D
  8
0
  6
CONTINUOUS
 62
     7
 10
734.1997936154
 20
1018.9218782146
 30
0.0
 11
735.6140071778
 21
1020.9218782146
 31
0.0
  0
LINE
  5
10E
  8
0
  6
CONTINUOUS
 62
     7
 10
735.6140071778
 20
1020.9218782146
 30
0.0
 11
739.8566478649
 21
1020.9218782146
 31
0.0
  0
LINE
  5
10F
  8
0
  6
CONTINUOUS
 62
     7
 10
739.8566478649
 20
1020.9218782146
 30
0.0
 11
741.2708614272
 21
1018.9218782146
 31
0.0
  0
LINE
  5
110
  8
0
  6
CONTINUOUS
 62
     7
 10
741.2708614272
 20
847.9218782146
 30
0.0
 11
739.8566478649
 21
845.9218782146
 31
0.0
  0
LINE
  5
111
  8
0
  6
CONTINUOUS
 62
     7
 10
739.8566478649
 20
845.9218782146
 30
0.0
 11
729.9571529283
 21
845.9218782146
 31
0.0
  0
LINE
  5
112
  8
0
  6
CONTINUOUS
 62
     7
 10
729.9571529283
 20
845.9218782146
 30
0.0
 11
729.9571529283
 21
828.9218782146
 31
0.0
  0
POLYLINE
  5
113
  8
0
  6
CONTINUOUS
 62
     7
 66
     1
 10
0.0
 20
0.0
 30
0.0
 70
   128
  0
VERTEX
  5
4C9
  8
0
  6
CONTINUOUS
 62
     7
 10
729.9571529283
 20
828.9218782146
 30
0.0
  0
VERTEX
  5
4CA
  8
0
  6
CONTINUOUS
 62
     7
 10
730.1003668935
 20
827.5132154304
 30
0.0
  0
VERTEX
  5
4CB
  8
0
  6
CONTINUOUS
 62
     7
 10
730.5184064454
 20
826.2186741273
 30
0.0
  0
VERTEX
  5
4CC
  8
0
  6
CONTINUOUS
 62
     7
 10
731.1774045057
 20
825.1431303428
 30
0.0
  0
VERTEX
  5
4CD
  8
0
  6
CONTINUOUS
 62
     7
 10
732.0239729707
 20
824.3737182378
 30
0.0
  0
VERTEX
  5
4CE
  8
0
  6
CONTINUOUS
 62
     7
 10
732.9895278982
 20
823.9727710052
 30
0.0
  0
VERTEX
  5
4CF
  8
0
  6
CONTINUOUS
 62
     7
 10
733.9958457702
 20
823.9727710052
 30
0.0
  0
VERTEX
  5
4D0
  8
0
  6
CONTINUOUS
 62
     7
 10
734.9614006977
 20
824.3737182378
 30
0.0
  0
VERTEX
  5
4D1
  8
0
  6
CONTINUOUS
 62
     7
 10
735.8079691627
 20
825.1431303428
 30
0.0
  0
VERTEX
  5
4D2
  8
0
  6
CONTINUOUS
 62
     7
 10
736.466967223
 20
826.2186741273
 30
0.0
  0
VERTEX
  5
4D3
  8
0
  6
CONTINUOUS
 62
     7
 10
736.8850067749
 20
827.5132154304
 30
0.0
  0
VERTEX
  5
4D4
  8
0
  6
CONTINUOUS
 62
     7
 10
737.0282207401
 20
828.9218782146
 30
0.0
  0
SEQEND
  5
BFF
  8
0
  6
CONTINUOUS
 62
     7
  0
LINE
  5
114
  8
0
  6
CONTINUOUS
 62
     7
 10
737.0282207401
 20
828.9218782146
 30
0.0
 11
737.0282207401
 21
835.9218782146
 31
0.0
  0
LINE
  5
115
  8
0
  6
CONTINUOUS
 62
     7
 10
737.0282207401
 20
835.9218782146
 30
0.0
 11
734.1997936154
 21
835.9218782146
 31
0.0
  0
LINE
  5
116
  8
0
  6
CONTINUOUS
 62
     7
 10
734.1997936154
 20
835.9218782146
 30
0.0
 11
734.1997936154
 21
838.9218782146
 31
0.0
  0
LINE
  5
117
  8
0
  6
CONTINUOUS
 62
     7
 10
734.1997936154
 20
838.9218782146
 30
0.0
 11
735.6140071778
 21
840.9218782146
 31
0.0
  0
LINE
  5
118
  8
0
  6
CONTINUOUS
 62
     7
 10
735.6140071778
 20
840.9218782146
 30
0.0
 11
739.8566478649
 21
840.9218782146
 31
0.0
  0
LINE
  5
119
  8
0
  6
CONTINUOUS
 62
     7
 10
739.8566478649
 20
840.9218782146
 30
0.0
 11
741.2708614272
 21
838.9218782146
 31
0.0
  0
LINE
  5
11A
  8
0
  6
CONTINUOUS
 62
     7
 10
741.2708614272
 20
838.9218782146
 30
0.0
 11
741.2708614272
 21
667.9218782146
 31
0.0
  0
LINE
  5
11B
  8
0
  6
CONTINUOUS
 62
     7
 10
741.2708614272
 20
667.9218782146
 30
0.0
 11
739.8566478649
 21
665.9218782146
 31
0.0
  0
LINE
  5
11C
  8
0
  6
CONTINUOUS
 62
     7
 10
739.8566478649
 20
665.9218782146
 30
0.0
 11
729.9571529283
 21
665.9218782146
 31
0.0
  0
LINE
  5
11D
  8
0
  6
CONTINUOUS
 62
     7
 10
729.9571529283
 20
665.9218782146
 30
0.0
 11
729.9571529283
 21
648.9218782146
 31
0.0
  0
POLYLINE
  5
11E
  8
0
  6
CONTINUOUS
 62
     7
 66
     1
 10
0.0
 20
0.0
 30
0.0
 70
   128
  0
VERTEX
  5
4D5
  8
0
  6
CONTINUOUS
 62
     7
 10
729.9571529283
 20
648.9218782146
 30
0.0
  0
VERTEX
  5
4D6
  8
0
  6
CONTINUOUS
 62
     7
 10
730.1003668935
 20
647.5132154304
 30
0.0
  0
VERTEX
  5
4D7
  8
0
  6
CONTINUOUS
 62
     7
 10
730.5184064454
 20
646.2186741273
 30
0.0
  0
VERTEX
  5
4D8
  8
0
  6
CONTINUOUS
 62
     7
 10
731.1774045057
 20
645.1431303428
 30
0.0
  0
VERTEX
  5
4D9
  8
0
  6
CONTINUOUS
 62
     7
 10
732.0239729707
 20
644.3737182378
 30
0.0
  0
VERTEX
  5
4DA
  8
0
  6
CONTINUOUS
 62
     7
 10
732.9895278982
 20
643.9727710052
 30
0.0
  0
VERTEX
  5
4DB
  8
0
  6
CONTINUOUS
 62
     7
 10
733.9958457702
 20
643.9727710052
 30
0.0
  0
VERTEX
  5
4DC
  8
0
  6
CONTINUOUS
 62
     7
 10
734.9614006977
 20
644.3737182378
 30
0.0
  0
VERTEX
  5
4DD
  8
0
  6
CONTINUOUS
 62
     7
 10
735.8079691627
 20
645.1431303428
 30
0.0
  0
VERTEX
  5
4DE
  8
0
  6
CONTINUOUS
 62
     7
 10
736.466967223
 20
646.2186741273
 30
0.0
  0
VERTEX
  5
4DF
  8
0
  6
CONTINUOUS
 62
     7
 10
736.8850067749
 20
647.5132154304
 30
0.0
  0
VERTEX
  5
4E0
  8
0
  6
CONTINUOUS
 62
     7
 10
737.0282207401
 20
648.9218782146
 30
0.0
  0
SEQEND
  5
C00
  8
0
  6
CONTINUOUS
 62
     7
  0
LINE
  5
11F
  8
0
  6
CONTINUOUS
 62
     7
 10
737.0282207401
 20
648.9218782146
 30
0.0
 11
737.0282207401
 21
655.9218782146
 31
0.0
  0
LINE
  5
120
  8
0
  6
CONTINUOUS
 62
     7
 10
737.0282207401
 20
655.9218782146
 30
0.0
 11
734.1997936154
 21
655.9218782146
 31
0.0
  0
LINE
  5
121
  8
0
  6
CONTINUOUS
 62
     7
 10
734.1997936154
 20
655.9218782146
 30
0.0
 11
734.1997936154
 21
658.9218782146
 31
0.0
  0
LINE
  5
122
  8
0
  6
CONTINUOUS
 62
     7
 10
734.1997936154
 20
658.9218782146
 30
0.0
 11
735.6140071778
 21
660.9218782146
 31
0.0
  0
LINE
  5
123
  8
0
  6
CONTINUOUS
 62
     7
 10
735.6140071778
 20
660.9218782146
 30
0.0
 11
739.8566478649
 21
660.9218782146
 31
0.0
  0
LINE
  5
124
  8
0
  6
CONTINUOUS
 62
     7
 10
739.8566478649
 20
660.9218782146
 30
0.0
 11
741.2708614272
 21
658.9218782146
 31
0.0
  0
LINE
  5
125
  8
0
  6
CONTINUOUS
 62
     7
 10
741.2708614272
 20
658.9218782146
 30
0.0
 11
741.2708614272
 21
487.9218782146
 31
0.0
  0
LINE
  5
126
  8
0
  6
CONTINUOUS
 62
     7
 10
739.8566478649
 20
485.9218782146
 30
0.0
 11
729.9571529283
 21
485.9218782146
 31
0.0
  0
LINE
  5
127
  8
0
  6
CONTINUOUS
 62
     7
 10
729.9571529283
 20
485.9218782146
 30
0.0
 11
729.9571529283
 21
468.9218782146
 31
0.0
  0
POLYLINE
  5
128
  8
0
  6
CONTINUOUS
 62
     7
 66
     1
 10
0.0
 20
0.0
 30
0.0
 70
   128
  0
VERTEX
  5
4E1
  8
0
  6
CONTINUOUS
 62
     7
 10
729.9571529283
 20
468.9218782146
 30
0.0
  0
VERTEX
  5
4E2
  8
0
  6
CONTINUOUS
 62
     7
 10
730.1003668935
 20
467.5132154304
 30
0.0
  0
VERTEX
  5
4E3
  8
0
  6
CONTINUOUS
 62
     7
 10
730.5184064454
 20
466.2186741273
 30
0.0
  0
VERTEX
  5
4E4
  8
0
  6
CONTINUOUS
 62
     7
 10
731.1774045057
 20
465.1431303428
 30
0.0
  0
VERTEX
  5
4E5
  8
0
  6
CONTINUOUS
 62
     7
 10
732.0239729707
 20
464.3737182378
 30
0.0
  0
VERTEX
  5
4E6
  8
0
  6
CONTINUOUS
 62
     7
 10
732.9895278982
 20
463.9727710052
 30
0.0
  0
VERTEX
  5
4E7
  8
0
  6
CONTINUOUS
 62
     7
 10
733.9958457702
 20
463.9727710052
 30
0.0
  0
VERTEX
  5
4E8
  8
0
  6
CONTINUOUS
 62
     7
 10
734.9614006977
 20
464.3737182378
 30
0.0
  0
VERTEX
  5
4E9
  8
0
  6
CONTINUOUS
 62
     7
 10
735.8079691627
 20
465.1431303428
 30
0.0
  0
VERTEX
  5
4EA
  8
0
  6
CONTINUOUS
 62
     7
 10
736.466967223
 20
466.2186741273
 30
0.0
  0
VERTEX
  5
4EB
  8
0
  6
CONTINUOUS
 62
     7
 10
736.8850067749
 20
467.5132154304
 30
0.0
  0
VERTEX
  5
4EC
  8
0
  6
CONTINUOUS
 62
     7
 10
737.0282207401
 20
468.9218782146
 30
0.0
  0
SEQEND
  5
C01
  8
0
  6
CONTINUOUS
 62
     7
  0
LINE
  5
129
  8
0
  6
CONTINUOUS
 62
     7
 10
737.0282207401
 20
468.9218782146
 30
0.0
 11
737.0282207401
 21
475.9218782146
 31
0.0
  0
LINE
  5
12A
  8
0
  6
CONTINUOUS
 62
     7
 10
737.0282207401
 20
475.9218782146
 30
0.0
 11
734.1997936154
 21
475.9218782146
 31
0.0
  0
LINE
  5
12B
  8
0
  6
CONTINUOUS
 62
     7
 10
734.1997936154
 20
475.9218782146
 30
0.0
 11
734.1997936154
 21
478.9218782146
 31
0.0
  0
LINE
  5
12C
  8
0
  6
CONTINUOUS
 62
     7
 10
734.1997936154
 20
478.9218782146
 30
0.0
 11
735.6140071778
 21
480.9218782146
 31
0.0
  0
LINE
  5
12D
  8
0
  6
CONTINUOUS
 62
     7
 10
735.6140071778
 20
480.9218782146
 30
0.0
 11
739.8566478649
 21
480.9218782146
 31
0.0
  0
LINE
  5
12E
  8
0
  6
CONTINUOUS
 62
     7
 10
739.8566478649
 20
480.9218782146
 30
0.0
 11
741.2708614272
 21
478.9218782146
 31
0.0
  0
LINE
  5
12F
  8
0
  6
CONTINUOUS
 62
     7
 10
741.2708614272
 20
478.9218782146
 30
0.0
 11
741.2708614272
 21
307.9218782146
 31
0.0
  0
LINE
  5
130
  8
0
  6
CONTINUOUS
 62
     7
 10
741.2708614272
 20
307.9218782146
 30
0.0
 11
739.8566478649
 21
305.9218782146
 31
0.0
  0
LINE
  5
131
  8
0
  6
CONTINUOUS
 62
     7
 10
739.8566478649
 20
305.9218782146
 30
0.0
 11
729.9571529283
 21
305.9218782146
 31
0.0
  0
LINE
  5
132
  8
0
  6
CONTINUOUS
 62
     7
 10
729.9571529283
 20
305.9218782146
 30
0.0
 11
729.9571529283
 21
288.9218782146
 31
0.0
  0
POLYLINE
  5
133
  8
0
  6
CONTINUOUS
 62
     7
 66
     1
 10
0.0
 20
0.0
 30
0.0
 70
   128
  0
VERTEX
  5
4ED
  8
0
  6
CONTINUOUS
 62
     7
 10
729.9571529283
 20
288.9218782146
 30
0.0
  0
VERTEX
  5
4EE
  8
0
  6
CONTINUOUS
 62
     7
 10
730.1003668935
 20
287.5132154304
 30
0.0
  0
VERTEX
  5
4EF
  8
0
  6
CONTINUOUS
 62
     7
 10
730.5184064454
 20
286.2186741273
 30
0.0
  0
VERTEX
  5
4F0
  8
0
  6
CONTINUOUS
 62
     7
 10
731.1774045057
 20
285.1431303428
 30
0.0
  0
VERTEX
  5
4F1
  8
0
  6
CONTINUOUS
 62
     7
 10
732.0239729707
 20
284.3737182378
 30
0.0
  0
VERTEX
  5
4F2
  8
0
  6
CONTINUOUS
 62
     7
 10
732.9895278982
 20
283.9727710052
 30
0.0
  0
VERTEX
  5
4F3
  8
0
  6
CONTINUOUS
 62
     7
 10
733.9958457702
 20
283.9727710052
 30
0.0
  0
VERTEX
  5
4F4
  8
0
  6
CONTINUOUS
 62
     7
 10
734.9614006977
 20
284.3737182378
 30
0.0
  0
VERTEX
  5
4F5
  8
0
  6
CONTINUOUS
 62
     7
 10
735.8079691627
 20
285.1431303428
 30
0.0
  0
VERTEX
  5
4F6
  8
0
  6
CONTINUOUS
 62
     7
 10
736.466967223
 20
286.2186741273
 30
0.0
  0
VERTEX
  5
4F7
  8
0
  6
CONTINUOUS
 62
     7
 10
736.8850067749
 20
287.5132154304
 30
0.0
  0
VERTEX
  5
4F8
  8
0
  6
CONTINUOUS
 62
     7
 10
737.0282207401
 20
288.9218782146
 30
0.0
  0
SEQEND
  5
C02
  8
0
  6
CONTINUOUS
 62
     7
  0
LINE
  5
134
  8
0
  6
CONTINUOUS
 62
     7
 10
737.0282207401
 20
288.9218782146
 30
0.0
 11
737.0282207401
 21
295.9218782146
 31
0.0
  0
LINE
  5
135
  8
0
  6
CONTINUOUS
 62
     7
 10
737.0282207401
 20
295.9218782146
 30
0.0
 11
734.1997936154
 21
295.9218782146
 31
0.0
  0
LINE
  5
136
  8
0
  6
CONTINUOUS
 62
     7
 10
734.1997936154
 20
295.9218782146
 30
0.0
 11
734.1997936154
 21
298.9218782146
 31
0.0
  0
LINE
  5
137
  8
0
  6
CONTINUOUS
 62
     7
 10
734.1997936154
 20
298.9218782146
 30
0.0
 11
735.6140071778
 21
300.9218782146
 31
0.0
  0
LINE
  5
138
  8
0
  6
CONTINUOUS
 62
     7
 10
735.6140071778
 20
300.9218782146
 30
0.0
 11
739.8566478649
 21
300.9218782146
 31
0.0
  0
LINE
  5
139
  8
0
  6
CONTINUOUS
 62
     7
 10
739.8566478649
 20
300.9218782146
 30
0.0
 11
741.2708614272
 21
298.9218782146
 31
0.0
  0
LINE
  5
13A
  8
0
  6
CONTINUOUS
 62
     7
 10
741.2708614272
 20
298.9218782146
 30
0.0
 11
741.2708614272
 21
243.9218782146
 31
0.0
  0
LINE
  5
13B
  8
0
  6
CONTINUOUS
 62
     7
 10
711.919685424
 20
1170.8511675365
 30
0.0
 11
741.2708614272
 21
1170.8511675365
 31
0.0
  0
LINE
  5
13C
  8
0
  6
CONTINUOUS
 62
     7
 10
464.4939928203
 20
658.9218782146
 30
0.0
 11
463.3626219704
 21
658.9218782146
 31
0.0
  0
LINE
  5
13D
  8
0
  6
CONTINUOUS
 62
     7
 10
463.3626219704
 20
658.9218782146
 30
0.0
 11
464.7768355327
 21
660.9218782146
 31
0.0
  0
LINE
  5
13E
  8
0
  6
CONTINUOUS
 62
     7
 10
464.7768355327
 20
660.9218782146
 30
0.0
 11
465.9082063826
 21
660.9218782146
 31
0.0
  0
LINE
  5
13F
  8
0
  6
CONTINUOUS
 62
     7
 10
465.9082063826
 20
660.9218782146
 30
0.0
 11
464.4939928203
 21
658.9218782146
 31
0.0
  0
LINE
  5
140
  8
0
  6
CONTINUOUS
 62
     7
 10
465.9082063826
 20
305.9218782146
 30
0.0
 11
464.7768355327
 21
305.9218782146
 31
0.0
  0
LINE
  5
141
  8
0
  6
CONTINUOUS
 62
     7
 10
464.7768355327
 20
305.9218782146
 30
0.0
 11
463.3626219704
 21
307.9218782146
 31
0.0
  0
LINE
  5
142
  8
0
  6
CONTINUOUS
 62
     7
 10
463.3626219704
 20
307.9218782146
 30
0.0
 11
464.4939928203
 21
307.9218782146
 31
0.0
  0
LINE
  5
143
  8
0
  6
CONTINUOUS
 62
     7
 10
464.4939928203
 20
307.9218782146
 30
0.0
 11
465.9082063826
 21
305.9218782146
 31
0.0
  0
LINE
  5
144
  8
0
  6
CONTINUOUS
 62
     7
 10
464.4939928203
 20
298.9218782146
 30
0.0
 11
463.3626219704
 21
298.9218782146
 31
0.0
  0
LINE
  5
145
  8
0
  6
CONTINUOUS
 62
     7
 10
463.3626219704
 20
298.9218782146
 30
0.0
 11
464.7768355327
 21
300.9218782146
 31
0.0
  0
LINE
  5
146
  8
0
  6
CONTINUOUS
 62
     7
 10
464.7768355327
 20
300.9218782146
 30
0.0
 11
465.9082063826
 21
300.9218782146
 31
0.0
  0
LINE
  5
147
  8
0
  6
CONTINUOUS
 62
     7
 10
465.9082063826
 20
300.9218782146
 30
0.0
 11
464.4939928203
 21
298.9218782146
 31
0.0
  0
LINE
  5
148
  8
0
  6
CONTINUOUS
 62
     7
 10
470.1508470697
 20
300.9218782146
 30
0.0
 11
465.9082063826
 21
300.9218782146
 31
0.0
  0
LINE
  5
149
  8
0
  6
CONTINUOUS
 62
     7
 10
471.5650606321
 20
298.9218782146
 30
0.0
 11
470.1508470697
 21
300.9218782146
 31
0.0
  0
LINE
  5
14A
  8
0
  6
CONTINUOUS
 62
     7
 10
471.5650606321
 20
295.9218782146
 30
0.0
 11
471.5650606321
 21
298.9218782146
 31
0.0
  0
LINE
  5
14B
  8
0
  6
CONTINUOUS
 62
     7
 10
468.7366335074
 20
295.9218782146
 30
0.0
 11
471.5650606321
 21
295.9218782146
 31
0.0
  0
LINE
  5
14C
  8
0
  6
CONTINUOUS
 62
     7
 10
468.7366335074
 20
288.9218782146
 30
0.0
 11
468.7366335074
 21
295.9218782146
 31
0.0
  0
POLYLINE
  5
14D
  8
0
  6
CONTINUOUS
 62
     7
 66
     1
 10
0.0
 20
0.0
 30
0.0
 70
   128
  0
VERTEX
  5
4F9
  8
0
  6
CONTINUOUS
 62
     7
 10
475.8077013192
 20
288.9218782146
 30
0.0
  0
VERTEX
  5
4FA
  8
0
  6
CONTINUOUS
 62
     7
 10
475.664487354
 20
287.5132154304
 30
0.0
  0
VERTEX
  5
4FB
  8
0
  6
CONTINUOUS
 62
     7
 10
475.2464478021
 20
286.2186741273
 30
0.0
  0
VERTEX
  5
4FC
  8
0
  6
CONTINUOUS
 62
     7
 10
474.5874497418
 20
285.1431303428
 30
0.0
  0
VERTEX
  5
4FD
  8
0
  6
CONTINUOUS
 62
     7
 10
473.7408812768
 20
284.3737182378
 30
0.0
  0
VERTEX
  5
4FE
  8
0
  6
CONTINUOUS
 62
     7
 10
472.7753263493
 20
283.9727710052
 30
0.0
  0
VERTEX
  5
4FF
  8
0
  6
CONTINUOUS
 62
     7
 10
471.7690084773
 20
283.9727710052
 30
0.0
  0
VERTEX
  5
500
  8
0
  6
CONTINUOUS
 62
     7
 10
470.8034535498
 20
284.3737182378
 30
0.0
  0
VERTEX
  5
501
  8
0
  6
CONTINUOUS
 62
     7
 10
469.9568850848
 20
285.1431303428
 30
0.0
  0
VERTEX
  5
502
  8
0
  6
CONTINUOUS
 62
     7
 10
469.2978870245
 20
286.2186741273
 30
0.0
  0
VERTEX
  5
503
  8
0
  6
CONTINUOUS
 62
     7
 10
468.8798474726
 20
287.5132154304
 30
0.0
  0
VERTEX
  5
504
  8
0
  6
CONTINUOUS
 62
     7
 10
468.7366335074
 20
288.9218782146
 30
0.0
  0
SEQEND
  5
C03
  8
0
  6
CONTINUOUS
 62
     7
  0
LINE
  5
14E
  8
0
  6
CONTINUOUS
 62
     7
 10
475.8077013192
 20
305.9218782146
 30
0.0
 11
475.8077013192
 21
288.9218782146
 31
0.0
  0
LINE
  5
14F
  8
0
  6
CONTINUOUS
 62
     7
 10
465.9082063826
 20
305.9218782146
 30
0.0
 11
475.8077013192
 21
305.9218782146
 31
0.0
  0
LINE
  5
150
  8
0
  6
CONTINUOUS
 62
     7
 10
464.4939928203
 20
478.9218782146
 30
0.0
 11
464.4939928203
 21
307.9218782146
 31
0.0
  0
LINE
  5
151
  8
0
  6
CONTINUOUS
 62
     7
 10
465.9082063826
 20
480.9218782146
 30
0.0
 11
464.4939928203
 21
478.9218782146
 31
0.0
  0
LINE
  5
152
  8
0
  6
CONTINUOUS
 62
     7
 10
470.1508470697
 20
480.9218782146
 30
0.0
 11
465.9082063826
 21
480.9218782146
 31
0.0
  0
LINE
  5
153
  8
0
  6
CONTINUOUS
 62
     7
 10
471.5650606321
 20
478.9218782146
 30
0.0
 11
470.1508470697
 21
480.9218782146
 31
0.0
  0
LINE
  5
154
  8
0
  6
CONTINUOUS
 62
     7
 10
471.5650606321
 20
475.9218782146
 30
0.0
 11
471.5650606321
 21
478.9218782146
 31
0.0
  0
LINE
  5
155
  8
0
  6
CONTINUOUS
 62
     7
 10
468.7366335074
 20
475.9218782146
 30
0.0
 11
471.5650606321
 21
475.9218782146
 31
0.0
  0
LINE
  5
156
  8
0
  6
CONTINUOUS
 62
     7
 10
468.7366335074
 20
468.9218782146
 30
0.0
 11
468.7366335074
 21
475.9218782146
 31
0.0
  0
POLYLINE
  5
157
  8
0
  6
CONTINUOUS
 62
     7
 66
     1
 10
0.0
 20
0.0
 30
0.0
 70
   128
  0
VERTEX
  5
505
  8
0
  6
CONTINUOUS
 62
     7
 10
475.8077013192
 20
468.9218782146
 30
0.0
  0
VERTEX
  5
506
  8
0
  6
CONTINUOUS
 62
     7
 10
475.664487354
 20
467.5132154304
 30
0.0
  0
VERTEX
  5
507
  8
0
  6
CONTINUOUS
 62
     7
 10
475.2464478021
 20
466.2186741273
 30
0.0
  0
VERTEX
  5
508
  8
0
  6
CONTINUOUS
 62
     7
 10
474.5874497418
 20
465.1431303428
 30
0.0
  0
VERTEX
  5
509
  8
0
  6
CONTINUOUS
 62
     7
 10
473.7408812768
 20
464.3737182378
 30
0.0
  0
VERTEX
  5
50A
  8
0
  6
CONTINUOUS
 62
     7
 10
472.7753263493
 20
463.9727710052
 30
0.0
  0
VERTEX
  5
50B
  8
0
  6
CONTINUOUS
 62
     7
 10
471.7690084773
 20
463.9727710052
 30
0.0
  0
VERTEX
  5
50C
  8
0
  6
CONTINUOUS
 62
     7
 10
470.8034535498
 20
464.3737182378
 30
0.0
  0
VERTEX
  5
50D
  8
0
  6
CONTINUOUS
 62
     7
 10
469.9568850848
 20
465.1431303428
 30
0.0
  0
VERTEX
  5
50E
  8
0
  6
CONTINUOUS
 62
     7
 10
469.2978870245
 20
466.2186741273
 30
0.0
  0
VERTEX
  5
50F
  8
0
  6
CONTINUOUS
 62
     7
 10
468.8798474726
 20
467.5132154304
 30
0.0
  0
VERTEX
  5
510
  8
0
  6
CONTINUOUS
 62
     7
 10
468.7366335074
 20
468.9218782146
 30
0.0
  0
SEQEND
  5
C04
  8
0
  6
CONTINUOUS
 62
     7
  0
LINE
  5
158
  8
0
  6
CONTINUOUS
 62
     7
 10
475.8077013192
 20
485.9218782146
 30
0.0
 11
475.8077013192
 21
468.9218782146
 31
0.0
  0
LINE
  5
159
  8
0
  6
CONTINUOUS
 62
     7
 10
465.9082063826
 20
485.9218782146
 30
0.0
 11
475.8077013192
 21
485.9218782146
 31
0.0
  0
LINE
  5
15A
  8
0
  6
CONTINUOUS
 62
     7
 10
464.4939928203
 20
487.9218782146
 30
0.0
 11
465.9082063826
 21
485.9218782146
 31
0.0
  0
LINE
  5
15B
  8
0
  6
CONTINUOUS
 62
     7
 10
464.4939928203
 20
658.9218782146
 30
0.0
 11
464.4939928203
 21
487.9218782146
 31
0.0
  0
LINE
  5
15C
  8
0
  6
CONTINUOUS
 62
     7
 10
470.1508470697
 20
660.9218782146
 30
0.0
 11
465.9082063826
 21
660.9218782146
 31
0.0
  0
LINE
  5
15D
  8
0
  6
CONTINUOUS
 62
     7
 10
471.5650606321
 20
658.9218782146
 30
0.0
 11
470.1508470697
 21
660.9218782146
 31
0.0
  0
LINE
  5
15E
  8
0
  6
CONTINUOUS
 62
     7
 10
471.5650606321
 20
655.9218782146
 30
0.0
 11
471.5650606321
 21
658.9218782146
 31
0.0
  0
LINE
  5
15F
  8
0
  6
CONTINUOUS
 62
     7
 10
468.7366335074
 20
655.9218782146
 30
0.0
 11
471.5650606321
 21
655.9218782146
 31
0.0
  0
LINE
  5
160
  8
0
  6
CONTINUOUS
 62
     7
 10
468.7366335074
 20
648.9218782146
 30
0.0
 11
468.7366335074
 21
655.9218782146
 31
0.0
  0
POLYLINE
  5
161
  8
0
  6
CONTINUOUS
 62
     7
 66
     1
 10
0.0
 20
0.0
 30
0.0
 70
   128
  0
VERTEX
  5
511
  8
0
  6
CONTINUOUS
 62
     7
 10
475.8077013192
 20
648.9218782146
 30
0.0
  0
VERTEX
  5
512
  8
0
  6
CONTINUOUS
 62
     7
 10
475.664487354
 20
647.5132154304
 30
0.0
  0
VERTEX
  5
513
  8
0
  6
CONTINUOUS
 62
     7
 10
475.2464478021
 20
646.2186741273
 30
0.0
  0
VERTEX
  5
514
  8
0
  6
CONTINUOUS
 62
     7
 10
474.5874497418
 20
645.1431303428
 30
0.0
  0
VERTEX
  5
515
  8
0
  6
CONTINUOUS
 62
     7
 10
473.7408812768
 20
644.3737182378
 30
0.0
  0
VERTEX
  5
516
  8
0
  6
CONTINUOUS
 62
     7
 10
472.7753263493
 20
643.9727710052
 30
0.0
  0
VERTEX
  5
517
  8
0
  6
CONTINUOUS
 62
     7
 10
471.7690084773
 20
643.9727710052
 30
0.0
  0
VERTEX
  5
518
  8
0
  6
CONTINUOUS
 62
     7
 10
470.8034535498
 20
644.3737182378
 30
0.0
  0
VERTEX
  5
519
  8
0
  6
CONTINUOUS
 62
     7
 10
469.9568850848
 20
645.1431303428
 30
0.0
  0
VERTEX
  5
51A
  8
0
  6
CONTINUOUS
 62
     7
 10
469.2978870245
 20
646.2186741273
 30
0.0
  0
VERTEX
  5
51B
  8
0
  6
CONTINUOUS
 62
     7
 10
468.8798474726
 20
647.5132154304
 30
0.0
  0
VERTEX
  5
51C
  8
0
  6
CONTINUOUS
 62
     7
 10
468.7366335074
 20
648.9218782146
 30
0.0
  0
SEQEND
  5
C05
  8
0
  6
CONTINUOUS
 62
     7
  0
LINE
  5
162
  8
0
  6
CONTINUOUS
 62
     7
 10
475.8077013192
 20
665.9218782146
 30
0.0
 11
475.8077013192
 21
648.9218782146
 31
0.0
  0
LINE
  5
163
  8
0
  6
CONTINUOUS
 62
     7
 10
465.9082063826
 20
665.9218782146
 30
0.0
 11
475.8077013192
 21
665.9218782146
 31
0.0
  0
LINE
  5
164
  8
0
  6
CONTINUOUS
 62
     7
 10
464.4939928203
 20
667.9218782146
 30
0.0
 11
465.9082063826
 21
665.9218782146
 31
0.0
  0
LINE
  5
165
  8
0
  6
CONTINUOUS
 62
     7
 10
465.9082063826
 20
840.9218782146
 30
0.0
 11
464.4939928203
 21
838.9218782146
 31
0.0
  0
LINE
  5
166
  8
0
  6
CONTINUOUS
 62
     7
 10
470.1508470697
 20
840.9218782146
 30
0.0
 11
465.9082063826
 21
840.9218782146
 31
0.0
  0
LINE
  5
167
  8
0
  6
CONTINUOUS
 62
     7
 10
471.5650606321
 20
838.9218782146
 30
0.0
 11
470.1508470697
 21
840.9218782146
 31
0.0
  0
LINE
  5
168
  8
0
  6
CONTINUOUS
 62
     7
 10
471.5650606321
 20
835.9218782146
 30
0.0
 11
471.5650606321
 21
838.9218782146
 31
0.0
  0
LINE
  5
169
  8
0
  6
CONTINUOUS
 62
     7
 10
468.7366335074
 20
835.9218782146
 30
0.0
 11
471.5650606321
 21
835.9218782146
 31
0.0
  0
LINE
  5
16A
  8
0
  6
CONTINUOUS
 62
     7
 10
468.7366335074
 20
828.9218782146
 30
0.0
 11
468.7366335074
 21
835.9218782146
 31
0.0
  0
POLYLINE
  5
16B
  8
0
  6
CONTINUOUS
 62
     7
 66
     1
 10
0.0
 20
0.0
 30
0.0
 70
   128
  0
VERTEX
  5
51D
  8
0
  6
CONTINUOUS
 62
     7
 10
475.8077013192
 20
828.9218782146
 30
0.0
  0
VERTEX
  5
51E
  8
0
  6
CONTINUOUS
 62
     7
 10
475.664487354
 20
827.5132154304
 30
0.0
  0
VERTEX
  5
51F
  8
0
  6
CONTINUOUS
 62
     7
 10
475.2464478021
 20
826.2186741273
 30
0.0
  0
VERTEX
  5
520
  8
0
  6
CONTINUOUS
 62
     7
 10
474.5874497418
 20
825.1431303428
 30
0.0
  0
VERTEX
  5
521
  8
0
  6
CONTINUOUS
 62
     7
 10
473.7408812768
 20
824.3737182378
 30
0.0
  0
VERTEX
  5
522
  8
0
  6
CONTINUOUS
 62
     7
 10
472.7753263493
 20
823.9727710052
 30
0.0
  0
VERTEX
  5
523
  8
0
  6
CONTINUOUS
 62
     7
 10
471.7690084773
 20
823.9727710052
 30
0.0
  0
VERTEX
  5
524
  8
0
  6
CONTINUOUS
 62
     7
 10
470.8034535498
 20
824.3737182378
 30
0.0
  0
VERTEX
  5
525
  8
0
  6
CONTINUOUS
 62
     7
 10
469.9568850848
 20
825.1431303428
 30
0.0
  0
VERTEX
  5
526
  8
0
  6
CONTINUOUS
 62
     7
 10
469.2978870245
 20
826.2186741273
 30
0.0
  0
VERTEX
  5
527
  8
0
  6
CONTINUOUS
 62
     7
 10
468.8798474726
 20
827.5132154304
 30
0.0
  0
VERTEX
  5
528
  8
0
  6
CONTINUOUS
 62
     7
 10
468.7366335074
 20
828.9218782146
 30
0.0
  0
SEQEND
  5
C06
  8
0
  6
CONTINUOUS
 62
     7
  0
LINE
  5
16C
  8
0
  6
CONTINUOUS
 62
     7
 10
475.8077013192
 20
845.9218782146
 30
0.0
 11
475.8077013192
 21
828.9218782146
 31
0.0
  0
LINE
  5
16D
  8
0
  6
CONTINUOUS
 62
     7
 10
465.9082063826
 20
845.9218782146
 30
0.0
 11
475.8077013192
 21
845.9218782146
 31
0.0
  0
LINE
  5
16E
  8
0
  6
CONTINUOUS
 62
     7
 10
464.4939928203
 20
847.9218782146
 30
0.0
 11
465.9082063826
 21
845.9218782146
 31
0.0
  0
LINE
  5
16F
  8
0
  6
CONTINUOUS
 62
     7
 10
465.9082063826
 20
1020.9218782146
 30
0.0
 11
464.4939928203
 21
1018.9218782146
 31
0.0
  0
LINE
  5
170
  8
0
  6
CONTINUOUS
 62
     7
 10
470.1508470697
 20
1020.9218782146
 30
0.0
 11
465.9082063826
 21
1020.9218782146
 31
0.0
  0
LINE
  5
171
  8
0
  6
CONTINUOUS
 62
     7
 10
471.5650606321
 20
1018.9218782146
 30
0.0
 11
470.1508470697
 21
1020.9218782146
 31
0.0
  0
LINE
  5
172
  8
0
  6
CONTINUOUS
 62
     7
 10
471.5650606321
 20
1015.9218782146
 30
0.0
 11
471.5650606321
 21
1018.9218782146
 31
0.0
  0
LINE
  5
173
  8
0
  6
CONTINUOUS
 62
     7
 10
468.7366335074
 20
1015.9218782146
 30
0.0
 11
471.5650606321
 21
1015.9218782146
 31
0.0
  0
LINE
  5
174
  8
0
  6
CONTINUOUS
 62
     7
 10
468.7366335074
 20
1008.9218782146
 30
0.0
 11
468.7366335074
 21
1015.9218782146
 31
0.0
  0
POLYLINE
  5
175
  8
0
  6
CONTINUOUS
 62
     7
 66
     1
 10
0.0
 20
0.0
 30
0.0
 70
   128
  0
VERTEX
  5
529
  8
0
  6
CONTINUOUS
 62
     7
 10
475.8077013192
 20
1008.9218782146
 30
0.0
  0
VERTEX
  5
52A
  8
0
  6
CONTINUOUS
 62
     7
 10
475.664487354
 20
1007.5132154304
 30
0.0
  0
VERTEX
  5
52B
  8
0
  6
CONTINUOUS
 62
     7
 10
475.2464478021
 20
1006.2186741273
 30
0.0
  0
VERTEX
  5
52C
  8
0
  6
CONTINUOUS
 62
     7
 10
474.5874497418
 20
1005.1431303428
 30
0.0
  0
VERTEX
  5
52D
  8
0
  6
CONTINUOUS
 62
     7
 10
473.7408812768
 20
1004.3737182378
 30
0.0
  0
VERTEX
  5
52E
  8
0
  6
CONTINUOUS
 62
     7
 10
472.7753263493
 20
1003.9727710052
 30
0.0
  0
VERTEX
  5
52F
  8
0
  6
CONTINUOUS
 62
     7
 10
471.7690084773
 20
1003.9727710052
 30
0.0
  0
VERTEX
  5
530
  8
0
  6
CONTINUOUS
 62
     7
 10
470.8034535498
 20
1004.3737182378
 30
0.0
  0
VERTEX
  5
531
  8
0
  6
CONTINUOUS
 62
     7
 10
469.9568850848
 20
1005.1431303428
 30
0.0
  0
VERTEX
  5
532
  8
0
  6
CONTINUOUS
 62
     7
 10
469.2978870245
 20
1006.2186741273
 30
0.0
  0
VERTEX
  5
533
  8
0
  6
CONTINUOUS
 62
     7
 10
468.8798474726
 20
1007.5132154304
 30
0.0
  0
VERTEX
  5
534
  8
0
  6
CONTINUOUS
 62
     7
 10
468.7366335074
 20
1008.9218782146
 30
0.0
  0
SEQEND
  5
C07
  8
0
  6
CONTINUOUS
 62
     7
  0
LINE
  5
176
  8
0
  6
CONTINUOUS
 62
     7
 10
475.8077013192
 20
1025.9218782146
 30
0.0
 11
475.8077013192
 21
1008.9218782146
 31
0.0
  0
LINE
  5
177
  8
0
  6
CONTINUOUS
 62
     7
 10
465.9082063826
 20
1025.9218782146
 30
0.0
 11
475.8077013192
 21
1025.9218782146
 31
0.0
  0
LINE
  5
178
  8
0
  6
CONTINUOUS
 62
     7
 10
464.4939928203
 20
1027.9218782146
 30
0.0
 11
465.9082063826
 21
1025.9218782146
 31
0.0
  0
LINE
  5
179
  8
0
  6
CONTINUOUS
 62
     7
 10
464.4939928203
 20
1170.8511675365
 30
0.0
 11
464.4939928203
 21
1027.9218782146
 31
0.0
  0
LINE
  5
17A
  8
0
  6
CONTINUOUS
 62
     7
 10
493.8451688236
 20
1170.8511675365
 30
0.0
 11
464.4939928203
 21
1170.8511675365
 31
0.0
  0
POLYLINE
  5
17B
  8
0
  6
CONTINUOUS
 62
     7
 66
     1
 10
0.0
 20
0.0
 30
0.0
 70
   128
  0
VERTEX
  5
535
  8
0
  6
CONTINUOUS
 62
     7
 10
495.2593823859
 20
1170.2341881199
 30
0.0
  0
VERTEX
  5
536
  8
0
  6
CONTINUOUS
 62
     7
 10
494.4949783506
 20
1170.7151917229
 30
0.0
  0
VERTEX
  5
537
  8
0
  6
CONTINUOUS
 62
     7
 10
493.8451688236
 20
1170.8511675365
 30
0.0
  0
SEQEND
  5
C08
  8
0
  6
CONTINUOUS
 62
     7
  0
LINE
  5
17C
  8
0
  6
CONTINUOUS
 62
     7
 10
495.2593823859
 20
238.9218782146
 30
0.0
 11
468.0295267262
 21
238.9218782146
 31
0.0
  0
LINE
  5
17D
  8
0
  6
CONTINUOUS
 62
     7
 10
464.4939928203
 20
243.9218782146
 30
0.0
 11
468.0295267262
 21
238.9218782146
 31
0.0
  0
LINE
  5
17E
  8
0
  6
CONTINUOUS
 62
     7
 10
464.4939928203
 20
298.9218782146
 30
0.0
 11
464.4939928203
 21
243.9218782146
 31
0.0
  0
LINE
  5
17F
  8
0
  6
CONTINUOUS
 62
     7
 10
742.4022322771
 20
243.9218782146
 30
0.0
 11
741.2708614272
 21
243.9218782146
 31
0.0
  0
LINE
  5
180
  8
0
  6
CONTINUOUS
 62
     7
 10
738.8666983712
 20
238.9218782146
 30
0.0
 11
742.4022322771
 21
243.9218782146
 31
0.0
  0
LINE
  5
181
  8
0
  6
CONTINUOUS
 62
     7
 10
737.7353275213
 20
238.9218782146
 30
0.0
 11
738.8666983712
 21
238.9218782146
 31
0.0
  0
LINE
  5
182
  8
0
  6
CONTINUOUS
 62
     7
 10
740.9880187148
 20
480.9218782146
 30
0.0
 11
739.8566478649
 21
480.9218782146
 31
0.0
  0
LINE
  5
183
  8
0
  6
CONTINUOUS
 62
     7
 10
742.4022322771
 20
478.9218782146
 30
0.0
 11
740.9880187148
 21
480.9218782146
 31
0.0
  0
LINE
  5
184
  8
0
  6
CONTINUOUS
 62
     7
 10
741.2708614272
 20
478.9218782146
 30
0.0
 11
742.4022322771
 21
478.9218782146
 31
0.0
  0
LINE
  5
185
  8
0
  6
CONTINUOUS
 62
     7
 10
463.3626219704
 20
1018.9218782146
 30
0.0
 11
464.7768355327
 21
1020.9218782146
 31
0.0
  0
LINE
  5
186
  8
0
  6
CONTINUOUS
 62
     7
 10
464.7768355327
 20
1020.9218782146
 30
0.0
 11
465.9082063826
 21
1020.9218782146
 31
0.0
  0
LINE
  5
187
  8
0
  6
CONTINUOUS
 62
     7
 10
463.3626219704
 20
1170.8511675365
 30
0.0
 11
464.4939928203
 21
1170.8511675365
 31
0.0
  0
LINE
  5
188
  8
0
  6
CONTINUOUS
 62
     7
 10
463.3626219704
 20
1027.9218782146
 30
0.0
 11
464.4939928203
 21
1027.9218782146
 31
0.0
  0
LINE
  5
189
  8
0
  6
CONTINUOUS
 62
     7
 10
463.3626219704
 20
1170.8511675365
 30
0.0
 11
463.3626219704
 21
1027.9218782146
 31
0.0
  0
LINE
  5
18A
  8
0
  6
CONTINUOUS
 62
     7
 10
742.4022322771
 20
1027.9218782146
 30
0.0
 11
741.2708614272
 21
1027.9218782146
 31
0.0
  0
LINE
  5
18B
  8
0
  6
CONTINUOUS
 62
     7
 10
742.4022322771
 20
1170.8511675365
 30
0.0
 11
742.4022322771
 21
1027.9218782146
 31
0.0
  0
LINE
  5
18C
  8
0
  6
CONTINUOUS
 62
     7
 10
742.4022322771
 20
1170.8511675365
 30
0.0
 11
741.2708614272
 21
1170.8511675365
 31
0.0
  0
LINE
  5
18D
  8
0
  6
CONTINUOUS
 62
     7
 10
463.3626219704
 20
487.9218782146
 30
0.0
 11
464.4939928203
 21
487.9218782146
 31
0.0
  0
LINE
  5
18E
  8
0
  6
CONTINUOUS
 62
     7
 10
463.3626219704
 20
658.9218782146
 30
0.0
 11
463.3626219704
 21
487.9218782146
 31
0.0
  0
LINE
  5
18F
  8
0
  6
CONTINUOUS
 62
     7
 10
740.9880187148
 20
300.9218782146
 30
0.0
 11
739.8566478649
 21
300.9218782146
 31
0.0
  0
LINE
  5
190
  8
0
  6
CONTINUOUS
 62
     7
 10
742.4022322771
 20
298.9218782146
 30
0.0
 11
740.9880187148
 21
300.9218782146
 31
0.0
  0
LINE
  5
191
  8
0
  6
CONTINUOUS
 62
     7
 10
741.2708614272
 20
298.9218782146
 30
0.0
 11
742.4022322771
 21
298.9218782146
 31
0.0
  0
LINE
  5
192
  8
0
  6
CONTINUOUS
 62
     7
 10
742.4022322771
 20
478.9218782146
 30
0.0
 11
742.4022322771
 21
307.9218782146
 31
0.0
  0
LINE
  5
193
  8
0
  6
CONTINUOUS
 62
     7
 10
742.4022322771
 20
307.9218782146
 30
0.0
 11
741.2708614272
 21
307.9218782146
 31
0.0
  0
LINE
  5
194
  8
0
  6
CONTINUOUS
 62
     7
 10
463.3626219704
 20
243.9218782146
 30
0.0
 11
464.4939928203
 21
243.9218782146
 31
0.0
  0
LINE
  5
195
  8
0
  6
CONTINUOUS
 62
     7
 10
463.3626219704
 20
298.9218782146
 30
0.0
 11
463.3626219704
 21
243.9218782146
 31
0.0
  0
LINE
  5
196
  8
0
  6
CONTINUOUS
 62
     7
 10
742.4022322771
 20
298.9218782146
 30
0.0
 11
742.4022322771
 21
243.9218782146
 31
0.0
  0
LINE
  5
197
  8
0
  6
CONTINUOUS
 62
     7
 10
465.9082063826
 20
845.9218782146
 30
0.0
 11
464.7768355327
 21
845.9218782146
 31
0.0
  0
LINE
  5
198
  8
0
  6
CONTINUOUS
 62
     7
 10
464.7768355327
 20
845.9218782146
 30
0.0
 11
463.3626219704
 21
847.9218782146
 31
0.0
  0
LINE
  5
199
  8
0
  6
CONTINUOUS
 62
     7
 10
463.3626219704
 20
838.9218782146
 30
0.0
 11
464.7768355327
 21
840.9218782146
 31
0.0
  0
LINE
  5
19A
  8
0
  6
CONTINUOUS
 62
     7
 10
464.7768355327
 20
840.9218782146
 30
0.0
 11
465.9082063826
 21
840.9218782146
 31
0.0
  0
LINE
  5
19B
  8
0
  6
CONTINUOUS
 62
     7
 10
465.9082063826
 20
1025.9218782146
 30
0.0
 11
464.7768355327
 21
1025.9218782146
 31
0.0
  0
LINE
  5
19C
  8
0
  6
CONTINUOUS
 62
     7
 10
464.7768355327
 20
1025.9218782146
 30
0.0
 11
463.3626219704
 21
1027.9218782146
 31
0.0
  0
LINE
  5
19D
  8
0
  6
CONTINUOUS
 62
     7
 10
465.9082063826
 20
665.9218782146
 30
0.0
 11
464.7768355327
 21
665.9218782146
 31
0.0
  0
LINE
  5
19E
  8
0
  6
CONTINUOUS
 62
     7
 10
464.7768355327
 20
665.9218782146
 30
0.0
 11
463.3626219704
 21
667.9218782146
 31
0.0
  0
LINE
  5
19F
  8
0
  6
CONTINUOUS
 62
     7
 10
742.4022322771
 20
667.9218782146
 30
0.0
 11
741.2708614272
 21
667.9218782146
 31
0.0
  0
LINE
  5
1A0
  8
0
  6
CONTINUOUS
 62
     7
 10
740.9880187148
 20
665.9218782146
 30
0.0
 11
742.4022322771
 21
667.9218782146
 31
0.0
  0
LINE
  5
1A1
  8
0
  6
CONTINUOUS
 62
     7
 10
739.8566478649
 20
665.9218782146
 30
0.0
 11
740.9880187148
 21
665.9218782146
 31
0.0
  0
LINE
  5
1A2
  8
0
  6
CONTINUOUS
 62
     7
 10
465.9082063826
 20
485.9218782146
 30
0.0
 11
464.7768355327
 21
485.9218782146
 31
0.0
  0
LINE
  5
1A3
  8
0
  6
CONTINUOUS
 62
     7
 10
464.7768355327
 20
485.9218782146
 30
0.0
 11
463.3626219704
 21
487.9218782146
 31
0.0
  0
LINE
  5
1A4
  8
0
  6
CONTINUOUS
 62
     7
 10
468.0295267262
 20
238.9218782146
 30
0.0
 11
466.8981558763
 21
238.9218782146
 31
0.0
  0
LINE
  5
1A5
  8
0
  6
CONTINUOUS
 62
     7
 10
466.8981558763
 20
238.9218782146
 30
0.0
 11
463.3626219704
 21
243.9218782146
 31
0.0
  0
LINE
  5
1A6
  8
0
  6
CONTINUOUS
 62
     7
 10
464.4939928203
 20
478.9218782146
 30
0.0
 11
463.3626219704
 21
478.9218782146
 31
0.0
  0
LINE
  5
1A7
  8
0
  6
CONTINUOUS
 62
     7
 10
463.3626219704
 20
478.9218782146
 30
0.0
 11
464.7768355327
 21
480.9218782146
 31
0.0
  0
LINE
  5
1A8
  8
0
  6
CONTINUOUS
 62
     7
 10
464.7768355327
 20
480.9218782146
 30
0.0
 11
465.9082063826
 21
480.9218782146
 31
0.0
  0
LINE
  5
1A9
  8
0
  6
CONTINUOUS
 62
     7
 10
740.9880187148
 20
845.9218782146
 30
0.0
 11
742.4022322771
 21
847.9218782146
 31
0.0
  0
LINE
  5
1AA
  8
0
  6
CONTINUOUS
 62
     7
 10
739.8566478649
 20
845.9218782146
 30
0.0
 11
740.9880187148
 21
845.9218782146
 31
0.0
  0
LINE
  5
1AB
  8
0
  6
CONTINUOUS
 62
     7
 10
740.9880187148
 20
840.9218782146
 30
0.0
 11
739.8566478649
 21
840.9218782146
 31
0.0
  0
LINE
  5
1AC
  8
0
  6
CONTINUOUS
 62
     7
 10
742.4022322771
 20
838.9218782146
 30
0.0
 11
740.9880187148
 21
840.9218782146
 31
0.0
  0
LINE
  5
1AD
  8
0
  6
CONTINUOUS
 62
     7
 10
741.2708614272
 20
838.9218782146
 30
0.0
 11
742.4022322771
 21
838.9218782146
 31
0.0
  0
LINE
  5
1AE
  8
0
  6
CONTINUOUS
 62
     7
 10
740.9880187148
 20
1025.9218782146
 30
0.0
 11
742.4022322771
 21
1027.9218782146
 31
0.0
  0
LINE
  5
1AF
  8
0
  6
CONTINUOUS
 62
     7
 10
739.8566478649
 20
1025.9218782146
 30
0.0
 11
740.9880187148
 21
1025.9218782146
 31
0.0
  0
LINE
  5
1B0
  8
0
  6
CONTINUOUS
 62
     7
 10
740.9880187148
 20
305.9218782146
 30
0.0
 11
742.4022322771
 21
307.9218782146
 31
0.0
  0
LINE
  5
1B1
  8
0
  6
CONTINUOUS
 62
     7
 10
739.8566478649
 20
305.9218782146
 30
0.0
 11
740.9880187148
 21
305.9218782146
 31
0.0
  0
LINE
  5
1B2
  8
0
  6
CONTINUOUS
 62
     7
 10
740.9880187148
 20
1020.9218782146
 30
0.0
 11
739.8566478649
 21
1020.9218782146
 31
0.0
  0
LINE
  5
1B3
  8
0
  6
CONTINUOUS
 62
     7
 10
742.4022322771
 20
1018.9218782146
 30
0.0
 11
740.9880187148
 21
1020.9218782146
 31
0.0
  0
LINE
  5
1B4
  8
0
  6
CONTINUOUS
 62
     7
 10
741.2708614272
 20
658.9218782146
 30
0.0
 11
742.4022322771
 21
658.9218782146
 31
0.0
  0
LINE
  5
1B5
  8
0
  6
CONTINUOUS
 62
     7
 10
742.4022322771
 20
658.9218782146
 30
0.0
 11
742.4022322771
 21
487.9218782146
 31
0.0
  0
LINE
  5
1B6
  8
0
  6
CONTINUOUS
 62
     7
 10
742.4022322771
 20
838.9218782146
 30
0.0
 11
742.4022322771
 21
667.9218782146
 31
0.0
  0
LINE
  5
1B7
  8
0
  6
CONTINUOUS
 62
     7
 10
463.3626219704
 20
478.9218782146
 30
0.0
 11
463.3626219704
 21
307.9218782146
 31
0.0
  0
LINE
  5
1B8
  8
0
  6
CONTINUOUS
 62
     7
 10
740.9880187148
 20
660.9218782146
 30
0.0
 11
739.8566478649
 21
660.9218782146
 31
0.0
  0
LINE
  5
1B9
  8
0
  6
CONTINUOUS
 62
     7
 10
742.4022322771
 20
658.9218782146
 30
0.0
 11
740.9880187148
 21
660.9218782146
 31
0.0
  0
ARC
  5
1BA
  8
0
  6
CONTINUOUS
 62
     7
 10
735.7767897091
 20
288.3816057833
 30
0.0
 40
4.719293563620281
 50
173.426272684
 51
248.6461953472
  0
ARC
  5
1BB
  8
0
  6
CONTINUOUS
 62
     7
 10
469.9880645384
 20
288.3816057833
 30
0.0
 40
4.719293563620331
 50
291.3538046528
 51
6.573727316
  0
ARC
  5
1BC
  8
0
  6
CONTINUOUS
 62
     7
 10
469.9880645384
 20
468.3816057833
 30
0.0
 40
4.719293563624097
 50
291.353804653
 51
6.5737273159
  0
ARC
  5
1BD
  8
0
  6
CONTINUOUS
 62
     7
 10
735.7767897092
 20
468.3816057833
 30
0.0
 40
4.719293563623997
 50
173.426272684
 51
248.646195347
  0
ARC
  5
1BE
  8
0
  6
CONTINUOUS
 62
     7
 10
469.9880645384
 20
648.3816057833
 30
0.0
 40
4.719293563608142
 50
291.3538046523
 51
6.573727316
  0
ARC
  5
1BF
  8
0
  6
CONTINUOUS
 62
     7
 10
735.7767897091
 20
648.3816057833
 30
0.0
 40
4.719293563608142
 50
173.426272684
 51
248.6461953477
  0
ARC
  5
1C0
  8
0
  6
CONTINUOUS
 62
     7
 10
469.9880645384
 20
828.3816057833
 30
0.0
 40
4.719293563588973
 50
291.3538046516
 51
6.5737273161
  0
ARC
  5
1C1
  8
0
  6
CONTINUOUS
 62
     7
 10
735.7767897091
 20
828.3816057833
 30
0.0
 40
4.719293563588869
 50
173.4262726839
 51
248.6461953484
  0
ARC
  5
1C2
  8
0
  6
CONTINUOUS
 62
     7
 10
469.9880645385
 20
1008.3816057833
 30
0.0
 40
4.7192935635217
 50
291.353804649
 51
6.5737273165
  0
ARC
  5
1C3
  8
0
  6
CONTINUOUS
 62
     7
 10
735.776789709
 20
1008.3816057833
 30
0.0
 40
4.719293563521757
 50
173.4262726835
 51
248.6461953511
  0
LINE
  5
1C4
  8
0
  6
CONTINUOUS
 62
     7
 10
474.6763304693
 20
305.9218782146
 30
0.0
 11
474.6763304693
 21
288.9218782146
 31
0.0
  0
LINE
  5
1C5
  8
0
  6
CONTINUOUS
 62
     7
 10
731.0885237782
 20
305.9218782146
 30
0.0
 11
731.0885237782
 21
288.9218782146
 31
0.0
  0
LINE
  5
1C6
  8
0
  6
CONTINUOUS
 62
     7
 10
731.0885237782
 20
485.9218782146
 30
0.0
 11
731.0885237782
 21
468.9218782146
 31
0.0
  0
LINE
  5
1C7
  8
0
  6
CONTINUOUS
 62
     7
 10
474.6763304693
 20
485.9218782146
 30
0.0
 11
474.6763304693
 21
468.9218782146
 31
0.0
  0
LINE
  5
1C8
  8
0
  6
CONTINUOUS
 62
     7
 10
731.0885237782
 20
665.9218782146
 30
0.0
 11
731.0885237782
 21
648.9218782146
 31
0.0
  0
LINE
  5
1C9
  8
0
  6
CONTINUOUS
 62
     7
 10
474.6763304693
 20
665.9218782146
 30
0.0
 11
474.6763304693
 21
648.9218782146
 31
0.0
  0
LINE
  5
1CA
  8
0
  6
CONTINUOUS
 62
     7
 10
474.6763304693
 20
845.9218782146
 30
0.0
 11
474.6763304693
 21
828.9218782146
 31
0.0
  0
LINE
  5
1CB
  8
0
  6
CONTINUOUS
 62
     7
 10
731.0885237782
 20
845.9218782146
 30
0.0
 11
731.0885237782
 21
828.9218782146
 31
0.0
  0
LINE
  5
1CC
  8
0
  6
CONTINUOUS
 62
     7
 10
731.0885237782
 20
1025.9218782146
 30
0.0
 11
731.0885237782
 21
1008.9218782146
 31
0.0
  0
LINE
  5
1CD
  8
0
  6
CONTINUOUS
 62
     7
 10
474.6763304693
 20
1025.9218782146
 30
0.0
 11
474.6763304693
 21
1008.9218782146
 31
0.0
  0
ARC
  5
1CE
  8
0
  6
CONTINUOUS
 62
     7
 10
497.5659644341
 20
1170.037422572
 30
0.0
 40
1.42855196893688
 50
168.39600942
 51
231.3422901065
  0
POLYLINE
  5
1CF
  8
0
  6
CONTINUOUS
 62
     7
 66
     1
 10
0.0
 20
0.0
 30
0.0
 70
   128
  0
VERTEX
  5
538
  8
0
  6
CONTINUOUS
 62
     7
 10
493.9451688235
 20
1170.9218782146
 30
0.0
  0
VERTEX
  5
539
  8
0
  6
CONTINUOUS
 62
     7
 10
495.0558895581
 20
1170.7665711651
 30
0.0
  0
VERTEX
  5
53A
  8
0
  6
CONTINUOUS
 62
     7
 10
496.1666102926
 20
1170.3247702962
 30
0.0
  0
SEQEND
  5
C09
  8
0
  6
CONTINUOUS
 62
     7
  0
POLYLINE
  5
1D0
  8
0
  6
CONTINUOUS
 62
     7
 66
     1
 10
0.0
 20
0.0
 30
0.0
 70
   128
  0
VERTEX
  5
53B
  8
0
  6
CONTINUOUS
 62
     7
 10
711.819685424
 20
1170.9218782146
 30
0.0
  0
VERTEX
  5
53C
  8
0
  6
CONTINUOUS
 62
     7
 10
710.7089646894
 20
1170.7665711651
 30
0.0
  0
VERTEX
  5
53D
  8
0
  6
CONTINUOUS
 62
     7
 10
709.5982439549
 20
1170.3247702962
 30
0.0
  0
SEQEND
  5
C0A
  8
0
  6
CONTINUOUS
 62
     7
  0
ARC
  5
1D1
  8
0
  6
CONTINUOUS
 62
     7
 10
708.1988898134
 20
1170.037422572
 30
0.0
 40
1.428551968937391
 50
308.6577098935
 51
11.60399058
  0
POLYLINE
  5
1D2
  8
0
  6
CONTINUOUS
 62
     7
 66
     1
 10
0.0
 20
0.0
 30
0.0
 70
   128
  0
VERTEX
  5
53E
  8
0
  6
CONTINUOUS
 62
     7
 10
496.6735959483
 20
1168.9218782146
 30
0.0
  0
VERTEX
  5
53F
  8
0
  6
CONTINUOUS
 62
     7
 10
495.8931536135
 20
1169.652440913
 30
0.0
  0
VERTEX
  5
540
  8
0
  6
CONTINUOUS
 62
     7
 10
495.2593823859
 20
1170.2341881199
 30
0.0
  0
SEQEND
  5
C0B
  8
0
  6
CONTINUOUS
 62
     7
  0
LINE
  5
1D3
  8
0
  6
CONTINUOUS
 62
     7
 10
495.2593823859
 20
238.9218782146
 30
0.0
 11
496.6735959483
 21
238.9218782146
 31
0.0
  0
LINE
  5
1D4
  8
0
  6
CONTINUOUS
 62
     7
 10
710.5054718616
 20
238.9218782146
 30
0.0
 11
709.0912582992
 21
238.9218782146
 31
0.0
  0
POLYLINE
  5
1D5
  8
0
  6
CONTINUOUS
 62
     7
 66
     1
 10
0.0
 20
0.0
 30
0.0
 70
   128
  0
VERTEX
  5
541
  8
0
  6
CONTINUOUS
 62
     7
 10
709.0912582992
 20
1168.9218782146
 30
0.0
  0
VERTEX
  5
542
  8
0
  6
CONTINUOUS
 62
     7
 10
709.871700634
 20
1169.652440913
 30
0.0
  0
VERTEX
  5
543
  8
0
  6
CONTINUOUS
 62
     7
 10
710.5054718616
 20
1170.2341881199
 30
0.0
  0
SEQEND
  5
C0C
  8
0
  6
CONTINUOUS
 62
     7
  0
CIRCLE
  5
1D6
  8
0
  6
CONTINUOUS
 62
     7
 10
697.8824271238
 20
1138.9218782146
 30
0.0
 40
4.000000000000114
  0
CIRCLE
  5
1D7
  8
0
  6
CONTINUOUS
 62
     7
 10
697.8824271238
 20
1058.9218782146
 30
0.0
 40
4.000000000000114
  0
CIRCLE
  5
1D8
  8
0
  6
CONTINUOUS
 62
     7
 10
697.8824271238
 20
978.9218782146
 30
0.0
 40
4.000000000000114
  0
CIRCLE
  5
1D9
  8
0
  6
CONTINUOUS
 62
     7
 10
697.8824271238
 20
898.9218782146
 30
0.0
 40
4.000000000000114
  0
CIRCLE
  5
1DA
  8
0
  6
CONTINUOUS
 62
     7
 10
697.8824271238
 20
818.9218782146
 30
0.0
 40
4.000000000000114
  0
CIRCLE
  5
1DB
  8
0
  6
CONTINUOUS
 62
     7
 10
697.8824271238
 20
738.9218782146
 30
0.0
 40
4.000000000000114
  0
CIRCLE
  5
1DC
  8
0
  6
CONTINUOUS
 62
     7
 10
697.8824271238
 20
658.9218782146
 30
0.0
 40
4.000000000000114
  0
CIRCLE
  5
1DD
  8
0
  6
CONTINUOUS
 62
     7
 10
697.8824271238
 20
578.9218782146
 30
0.0
 40
4.000000000000114
  0
CIRCLE
  5
1DE
  8
0
  6
CONTINUOUS
 62
     7
 10
697.8824271238
 20
498.9218782146
 30
0.0
 40
4.000000000000114
  0
CIRCLE
  5
1DF
  8
0
  6
CONTINUOUS
 62
     7
 10
697.8824271238
 20
418.9218782146
 30
0.0
 40
4.000000000000114
  0
CIRCLE
  5
1E0
  8
0
  6
CONTINUOUS
 62
     7
 10
682.8824271238
 20
1138.9218782146
 30
0.0
 40
2.5
  0
CIRCLE
  5
1E1
  8
0
  6
CONTINUOUS
 62
     7
 10
682.8824271238
 20
1058.9218782146
 30
0.0
 40
2.5
  0
CIRCLE
  5
1E2
  8
0
  6
CONTINUOUS
 62
     7
 10
682.8824271238
 20
978.9218782146
 30
0.0
 40
2.5
  0
CIRCLE
  5
1E3
  8
0
  6
CONTINUOUS
 62
     7
 10
682.8824271238
 20
898.9218782146
 30
0.0
 40
2.5
  0
CIRCLE
  5
1E4
  8
0
  6
CONTINUOUS
 62
     7
 10
682.8824271238
 20
818.9218782146
 30
0.0
 40
2.5
  0
CIRCLE
  5
1E5
  8
0
  6
CONTINUOUS
 62
     7
 10
682.8824271238
 20
738.9218782146
 30
0.0
 40
2.5
  0
CIRCLE
  5
1E6
  8
0
  6
CONTINUOUS
 62
     7
 10
682.8824271238
 20
658.9218782146
 30
0.0
 40
2.5
  0
CIRCLE
  5
1E7
  8
0
  6
CONTINUOUS
 62
     7
 10
682.8824271238
 20
578.9218782146
 30
0.0
 40
2.5
  0
CIRCLE
  5
1E8
  8
0
  6
CONTINUOUS
 62
     7
 10
682.8824271238
 20
498.9218782146
 30
0.0
 40
2.5
  0
CIRCLE
  5
1E9
  8
0
  6
CONTINUOUS
 62
     7
 10
682.8824271238
 20
418.9218782146
 30
0.0
 40
2.500000000000114
  0
CIRCLE
  5
1EA
  8
0
  6
CONTINUOUS
 62
     7
 10
697.8824271238
 20
258.9218782146
 30
0.0
 40
4.000000000000114
  0
CIRCLE
  5
1EB
  8
0
  6
CONTINUOUS
 62
     7
 10
682.8824271238
 20
258.9218782146
 30
0.0
 40
2.500000000000114
  0
CIRCLE
  5
1EC
  8
0
  6
CONTINUOUS
 62
     7
 10
682.8824271238
 20
338.9218782146
 30
0.0
 40
2.500000000000114
  0
CIRCLE
  5
1ED
  8
0
  6
CONTINUOUS
 62
     7
 10
697.8824271238
 20
338.9218782146
 30
0.0
 40
4.000000000000114
  0
CIRCLE
  5
1EE
  8
0
  6
CONTINUOUS
 62
     7
 10
507.8824271238
 20
1138.9218782146
 30
0.0
 40
4.000000000000057
  0
CIRCLE
  5
1EF
  8
0
  6
CONTINUOUS
 62
     7
 10
507.8824271238
 20
1058.9218782146
 30
0.0
 40
4.000000000000057
  0
CIRCLE
  5
1F0
  8
0
  6
CONTINUOUS
 62
     7
 10
507.8824271238
 20
978.9218782146
 30
0.0
 40
4.000000000000057
  0
CIRCLE
  5
1F1
  8
0
  6
CONTINUOUS
 62
     7
 10
507.8824271238
 20
898.9218782146
 30
0.0
 40
4.0
  0
CIRCLE
  5
1F2
  8
0
  6
CONTINUOUS
 62
     7
 10
507.8824271238
 20
818.9218782146
 30
0.0
 40
4.0
  0
CIRCLE
  5
1F3
  8
0
  6
CONTINUOUS
 62
     7
 10
507.8824271238
 20
738.9218782146
 30
0.0
 40
4.0
  0
CIRCLE
  5
1F4
  8
0
  6
CONTINUOUS
 62
     7
 10
507.8824271238
 20
658.9218782146
 30
0.0
 40
4.0
  0
CIRCLE
  5
1F5
  8
0
  6
CONTINUOUS
 62
     7
 10
507.8824271238
 20
578.9218782146
 30
0.0
 40
4.0
  0
CIRCLE
  5
1F6
  8
0
  6
CONTINUOUS
 62
     7
 10
507.8824271238
 20
498.9218782146
 30
0.0
 40
4.0
  0
CIRCLE
  5
1F7
  8
0
  6
CONTINUOUS
 62
     7
 10
507.8824271238
 20
418.9218782146
 30
0.0
 40
4.000000000000057
  0
CIRCLE
  5
1F8
  8
0
  6
CONTINUOUS
 62
     7
 10
522.8824271238
 20
1138.9218782146
 30
0.0
 40
2.5
  0
CIRCLE
  5
1F9
  8
0
  6
CONTINUOUS
 62
     7
 10
522.8824271238
 20
1058.9218782146
 30
0.0
 40
2.5
  0
CIRCLE
  5
1FA
  8
0
  6
CONTINUOUS
 62
     7
 10
522.8824271238
 20
978.9218782146
 30
0.0
 40
2.5
  0
CIRCLE
  5
1FB
  8
0
  6
CONTINUOUS
 62
     7
 10
522.8824271238
 20
898.9218782146
 30
0.0
 40
2.5
  0
CIRCLE
  5
1FC
  8
0
  6
CONTINUOUS
 62
     7
 10
522.8824271238
 20
818.9218782146
 30
0.0
 40
2.5
  0
CIRCLE
  5
1FD
  8
0
  6
CONTINUOUS
 62
     7
 10
522.8824271238
 20
738.9218782146
 30
0.0
 40
2.5
  0
CIRCLE
  5
1FE
  8
0
  6
CONTINUOUS
 62
     7
 10
522.8824271238
 20
658.9218782146
 30
0.0
 40
2.5
  0
CIRCLE
  5
1FF
  8
0
  6
CONTINUOUS
 62
     7
 10
522.8824271238
 20
578.9218782146
 30
0.0
 40
2.5
  0
CIRCLE
  5
200
  8
0
  6
CONTINUOUS
 62
     7
 10
522.8824271238
 20
498.9218782146
 30
0.0
 40
2.5
  0
CIRCLE
  5
201
  8
0
  6
CONTINUOUS
 62
     7
 10
522.8824271238
 20
418.9218782146
 30
0.0
 40
2.5
  0
LINE
  5
202
  8
0
  6
CONTINUOUS
 62
     7
 10
709.0912582992
 20
238.9218782146
 30
0.0
 11
496.6735959483
 21
238.9218782146
 31
0.0
  0
CIRCLE
  5
203
  8
0
  6
CONTINUOUS
 62
     7
 10
507.8824271238
 20
258.9218782146
 30
0.0
 40
4.000000000000057
  0
CIRCLE
  5
204
  8
0
  6
CONTINUOUS
 62
     7
 10
522.8824271238
 20
258.9218782146
 30
0.0
 40
2.5
  0
CIRCLE
  5
205
  8
0
  6
CONTINUOUS
 62
     7
 10
522.8824271238
 20
338.9218782146
 30
0.0
 40
2.5
  0
CIRCLE
  5
206
  8
0
  6
CONTINUOUS
 62
     7
 10
507.8824271238
 20
338.9218782146
 30
0.0
 40
4.000000000000057
  0
LINE
  5
207
  8
0
  6
CONTINUOUS
 62
   218
 10
710.5054718616
 20
1170.2341881199
 30
0.0
 11
710.5054718616
 21
238.9218782146
 31
0.0
  0
LINE
  5
208
  8
0
  6
CONTINUOUS
 62
   218
 10
495.2593823859
 20
1170.2341881199
 30
0.0
 11
495.2593823859
 21
238.9218782146
 31
0.0
  0
LINE
  5
209
  8
0
  6
CONTINUOUS
 62
   218
 10
729.9571529283
 20
288.9218782146
 30
0.0
 11
731.0885237782
 21
288.9218782146
 31
0.0
  0
LINE
  5
20A
  8
0
  6
CONTINUOUS
 62
   218
 10
475.8077013192
 20
288.9218782146
 30
0.0
 11
474.6763304693
 21
288.9218782146
 31
0.0
  0
LINE
  5
20B
  8
0
  6
CONTINUOUS
 62
   218
 10
475.8077013192
 20
468.9218782146
 30
0.0
 11
474.6763304693
 21
468.9218782146
 31
0.0
  0
LINE
  5
20C
  8
0
  6
CONTINUOUS
 62
   218
 10
729.9571529283
 20
468.9218782146
 30
0.0
 11
731.0885237782
 21
468.9218782146
 31
0.0
  0
LINE
  5
20D
  8
0
  6
CONTINUOUS
 62
   218
 10
475.8077013192
 20
648.9218782146
 30
0.0
 11
474.6763304693
 21
648.9218782146
 31
0.0
  0
LINE
  5
20E
  8
0
  6
CONTINUOUS
 62
   218
 10
729.9571529283
 20
648.9218782146
 30
0.0
 11
731.0885237782
 21
648.9218782146
 31
0.0
  0
LINE
  5
20F
  8
0
  6
CONTINUOUS
 62
   218
 10
475.8077013192
 20
828.9218782146
 30
0.0
 11
474.6763304693
 21
828.9218782146
 31
0.0
  0
LINE
  5
210
  8
0
  6
CONTINUOUS
 62
   218
 10
729.9571529283
 20
828.9218782146
 30
0.0
 11
731.0885237782
 21
828.9218782146
 31
0.0
  0
LINE
  5
211
  8
0
  6
CONTINUOUS
 62
   218
 10
475.8077013192
 20
1008.9218782146
 30
0.0
 11
474.6763304693
 21
1008.9218782146
 31
0.0
  0
LINE
  5
212
  8
0
  6
CONTINUOUS
 62
   218
 10
729.9571529283
 20
1008.9218782146
 30
0.0
 11
731.0885237782
 21
1008.9218782146
 31
0.0
  0
LINE
  5
213
  8
0
  6
CONTINUOUS
 62
   218
 10
709.0912582992
 20
1168.9218782146
 30
0.0
 11
496.6735959483
 21
1168.9218782146
 31
0.0
  0
LINE
  5
214
  8
0
  6
CONTINUOUS
 62
   218
 10
496.6735959483
 20
1168.9218782146
 30
0.0
 11
496.6735959483
 21
238.9218782146
 31
0.0
  0
LINE
  5
215
  8
0
  6
CONTINUOUS
 62
   218
 10
709.0912582992
 20
1168.9218782146
 30
0.0
 11
709.0912582992
 21
238.9218782146
 31
0.0
  0
DIMENSION
  5
216
  8
細線
  2
_D
 10
742.4022322771
 20
1223.2276532146
 30
0.0
 11
609.6203555057
 21
1223.2276532146
 31
0.0
 70
   160
  1
<>
  3
SLDDIMSTYLE0
 13
463.3626219704
 23
1170.8511675365
 33
0.0
 14
742.4022322771
 24
1170.8511675365
 34
0.0
  0
DIMENSION
  5
227
  8
細線
  2
_D_1
 10
682.8824271238
 20
207.0171556561
 30
0.0
 11
600.7545283467
 21
207.0171556561
 31
0.0
 70
   160
  1
<>
  3
SLDDIMSTYLE0
 13
522.8824271238
 23
258.9218782146
 33
0.0
 14
682.8824271238
 24
258.9218782146
 34
0.0
  0
DIMENSION
  5
231
  8
細線
  2
_D_2
 10
697.8824271238
 20
173.8482242105
 30
0.0
 11
600.7545283467
 21
173.8482242105
 31
0.0
 70
   160
  1
<>
  3
SLDDIMSTYLE0
 13
507.8824271238
 23
258.9218782146
 33
0.0
 14
697.8824271238
 24
258.9218782146
 34
0.0
  0
DIMENSION
  5
23B
  8
細線
  2
_D_3
 10
781.9490859968
 20
258.9218782146
 30
0.0
 11
781.9490859968
 21
207.0171556561
 31
0.0
 70
   160
  1
<>
  3
SLDDIMSTYLE1
 13
737.7353275213
 23
238.9218782146
 33
0.0
 14
697.8824271238
 24
258.9218782146
 34
0.0
 50
90.0
  0
DIMENSION
  5
248
  8
細線
  2
_D_4
 10
781.4541112499
 20
338.9218782146
 30
0.0
 11
781.4541112499
 21
297.8782219254
 31
0.0
 70
   160
  1
<>
  3
SLDDIMSTYLE1
 13
697.8824271238
 23
258.9218782146
 33
0.0
 14
697.8824271238
 24
338.9218782146
 34
0.0
 50
90.0
  0
DIMENSION
  5
254
  8
細線
  2
_D_5
 10
416.2103396713
 20
283.9218782146
 30
0.0
 11
416.2103396713
 21
212.1164811606
 31
0.0
 70
   160
  1
<>
  3
SLDDIMSTYLE1
 13
468.0295267262
 23
238.9218782146
 33
0.0
 14
472.2721674133
 24
283.9218782146
 34
0.0
 50
90.0
  0
DIMENSION
  5
260
  8
細線
  2
_D_6
 10
416.2103396713
 20
463.9218782146
 30
0.0
 11
416.2103396713
 21
383.6833097009
 31
0.0
 70
   160
  1
<>
  3
SLDDIMSTYLE0
 13
472.2721674133
 23
283.9218782146
 33
0.0
 14
472.2721674133
 24
463.9218782146
 34
0.0
 50
90.0
  0
DIMENSION
  5
26A
  8
細線
  2
_D_7
 10
684.6501940767
 20
257.1541112616
 30
0.0
 11
643.926133413
 21
297.8782719254
 31
0.0
 70
   163
  1
24-<>
  3
SLDDIMSTYLE2
 15
681.1146601708
 25
260.6896451676
 35
0.0
 40
0.0
  0
DIMENSION
  5
278
  8
細線
  2
_D_8
 10
700.7108542485
 20
336.0934510899
 30
0.0
 11
659.2211854207
 21
377.5832199177
 31
0.0
 70
   163
  1
24-<>
  3
SLDDIMSTYLE2
 15
695.053999999
 25
341.7503053394
 35
0.0
 40
0.0
  0
LINE
  5
282
  8
0
  6
CONTINUOUS
 62
     7
 10
972.0342608505
 20
238.9218782146
 30
0.0
 11
968.4987269446
 21
243.9218782146
 31
0.0
  0
LINE
  5
283
  8
0
  6
CONTINUOUS
 62
     7
 10
968.4987269446
 20
298.9218782146
 30
0.0
 11
968.4987269446
 21
243.9218782146
 31
0.0
  0
LINE
  5
284
  8
0
  6
CONTINUOUS
 62
     7
 10
968.4987269446
 20
298.9218782146
 30
0.0
 11
969.912940507
 21
300.9218782146
 31
0.0
  0
LINE
  5
285
  8
0
  6
CONTINUOUS
 62
     7
 10
974.1555811941
 20
300.9218782146
 30
0.0
 11
969.912940507
 21
300.9218782146
 31
0.0
  0
LINE
  5
286
  8
0
  6
CONTINUOUS
 62
     7
 10
974.1555811941
 20
300.9218782146
 30
0.0
 11
975.5697947565
 21
298.9218782146
 31
0.0
  0
LINE
  5
287
  8
0
  6
CONTINUOUS
 62
     7
 10
975.5697947565
 20
295.9218782146
 30
0.0
 11
975.5697947565
 21
298.9218782146
 31
0.0
  0
LINE
  5
288
  8
0
  6
CONTINUOUS
 62
     7
 10
972.7413676317
 20
295.9218782146
 30
0.0
 11
975.5697947565
 21
295.9218782146
 31
0.0
  0
LINE
  5
289
  8
0
  6
CONTINUOUS
 62
     7
 10
972.7413676317
 20
288.9218782146
 30
0.0
 11
972.7413676317
 21
295.9218782146
 31
0.0
  0
POLYLINE
  5
28A
  8
0
  6
CONTINUOUS
 62
     7
 66
     1
 10
0.0
 20
0.0
 30
0.0
 70
   128
  0
VERTEX
  5
544
  8
0
  6
CONTINUOUS
 62
     7
 10
979.8124354436
 20
288.9218782146
 30
0.0
  0
VERTEX
  5
545
  8
0
  6
CONTINUOUS
 62
     7
 10
979.6692214784
 20
287.5132154304
 30
0.0
  0
VERTEX
  5
546
  8
0
  6
CONTINUOUS
 62
     7
 10
979.2511819265
 20
286.2186741273
 30
0.0
  0
VERTEX
  5
547
  8
0
  6
CONTINUOUS
 62
     7
 10
978.5921838662
 20
285.1431303428
 30
0.0
  0
VERTEX
  5
548
  8
0
  6
CONTINUOUS
 62
     7
 10
977.7456154011
 20
284.3737182378
 30
0.0
  0
VERTEX
  5
549
  8
0
  6
CONTINUOUS
 62
     7
 10
976.7800604737
 20
283.9727710052
 30
0.0
  0
VERTEX
  5
54A
  8
0
  6
CONTINUOUS
 62
     7
 10
975.7737426016
 20
283.9727710052
 30
0.0
  0
VERTEX
  5
54B
  8
0
  6
CONTINUOUS
 62
     7
 10
974.8081876741
 20
284.3737182378
 30
0.0
  0
VERTEX
  5
54C
  8
0
  6
CONTINUOUS
 62
     7
 10
973.9616192091
 20
285.1431303428
 30
0.0
  0
VERTEX
  5
54D
  8
0
  6
CONTINUOUS
 62
     7
 10
973.3026211488
 20
286.2186741273
 30
0.0
  0
VERTEX
  5
54E
  8
0
  6
CONTINUOUS
 62
     7
 10
972.8845815969
 20
287.5132154304
 30
0.0
  0
VERTEX
  5
54F
  8
0
  6
CONTINUOUS
 62
     7
 10
972.7413676317
 20
288.9218782146
 30
0.0
  0
SEQEND
  5
C0D
  8
0
  6
CONTINUOUS
 62
     7
  0
LINE
  5
28B
  8
0
  6
CONTINUOUS
 62
     7
 10
979.8124354436
 20
305.9218782146
 30
0.0
 11
979.8124354436
 21
288.9218782146
 31
0.0
  0
LINE
  5
28C
  8
0
  6
CONTINUOUS
 62
     7
 10
969.912940507
 20
305.9218782146
 30
0.0
 11
979.8124354436
 21
305.9218782146
 31
0.0
  0
LINE
  5
28D
  8
0
  6
CONTINUOUS
 62
     7
 10
969.912940507
 20
305.9218782146
 30
0.0
 11
968.4987269446
 21
307.9218782146
 31
0.0
  0
LINE
  5
28E
  8
0
  6
CONTINUOUS
 62
     7
 10
968.4987269446
 20
478.9218782146
 30
0.0
 11
968.4987269446
 21
307.9218782146
 31
0.0
  0
LINE
  5
28F
  8
0
  6
CONTINUOUS
 62
     7
 10
968.4987269446
 20
478.9218782146
 30
0.0
 11
969.912940507
 21
480.9218782146
 31
0.0
  0
LINE
  5
290
  8
0
  6
CONTINUOUS
 62
     7
 10
974.1555811941
 20
480.9218782146
 30
0.0
 11
969.912940507
 21
480.9218782146
 31
0.0
  0
LINE
  5
291
  8
0
  6
CONTINUOUS
 62
     7
 10
974.1555811941
 20
480.9218782146
 30
0.0
 11
975.5697947565
 21
478.9218782146
 31
0.0
  0
LINE
  5
292
  8
0
  6
CONTINUOUS
 62
     7
 10
975.5697947565
 20
475.9218782146
 30
0.0
 11
975.5697947565
 21
478.9218782146
 31
0.0
  0
LINE
  5
293
  8
0
  6
CONTINUOUS
 62
     7
 10
972.7413676317
 20
475.9218782146
 30
0.0
 11
975.5697947565
 21
475.9218782146
 31
0.0
  0
LINE
  5
294
  8
0
  6
CONTINUOUS
 62
     7
 10
972.7413676317
 20
468.9218782146
 30
0.0
 11
972.7413676317
 21
475.9218782146
 31
0.0
  0
POLYLINE
  5
295
  8
0
  6
CONTINUOUS
 62
     7
 66
     1
 10
0.0
 20
0.0
 30
0.0
 70
   128
  0
VERTEX
  5
550
  8
0
  6
CONTINUOUS
 62
     7
 10
979.8124354436
 20
468.9218782146
 30
0.0
  0
VERTEX
  5
551
  8
0
  6
CONTINUOUS
 62
     7
 10
979.6692214784
 20
467.5132154304
 30
0.0
  0
VERTEX
  5
552
  8
0
  6
CONTINUOUS
 62
     7
 10
979.2511819265
 20
466.2186741273
 30
0.0
  0
VERTEX
  5
553
  8
0
  6
CONTINUOUS
 62
     7
 10
978.5921838662
 20
465.1431303428
 30
0.0
  0
VERTEX
  5
554
  8
0
  6
CONTINUOUS
 62
     7
 10
977.7456154011
 20
464.3737182378
 30
0.0
  0
VERTEX
  5
555
  8
0
  6
CONTINUOUS
 62
     7
 10
976.7800604737
 20
463.9727710052
 30
0.0
  0
VERTEX
  5
556
  8
0
  6
CONTINUOUS
 62
     7
 10
975.7737426016
 20
463.9727710052
 30
0.0
  0
VERTEX
  5
557
  8
0
  6
CONTINUOUS
 62
     7
 10
974.8081876741
 20
464.3737182378
 30
0.0
  0
VERTEX
  5
558
  8
0
  6
CONTINUOUS
 62
     7
 10
973.9616192091
 20
465.1431303428
 30
0.0
  0
VERTEX
  5
559
  8
0
  6
CONTINUOUS
 62
     7
 10
973.3026211488
 20
466.2186741273
 30
0.0
  0
VERTEX
  5
55A
  8
0
  6
CONTINUOUS
 62
     7
 10
972.8845815969
 20
467.5132154304
 30
0.0
  0
VERTEX
  5
55B
  8
0
  6
CONTINUOUS
 62
     7
 10
972.7413676317
 20
468.9218782146
 30
0.0
  0
SEQEND
  5
C0E
  8
0
  6
CONTINUOUS
 62
     7
  0
LINE
  5
296
  8
0
  6
CONTINUOUS
 62
     7
 10
979.8124354436
 20
485.9218782146
 30
0.0
 11
979.8124354436
 21
468.9218782146
 31
0.0
  0
LINE
  5
297
  8
0
  6
CONTINUOUS
 62
     7
 10
969.912940507
 20
485.9218782146
 30
0.0
 11
979.8124354436
 21
485.9218782146
 31
0.0
  0
LINE
  5
298
  8
0
  6
CONTINUOUS
 62
     7
 10
969.912940507
 20
485.9218782146
 30
0.0
 11
968.4987269446
 21
487.9218782146
 31
0.0
  0
LINE
  5
299
  8
0
  6
CONTINUOUS
 62
     7
 10
968.4987269446
 20
658.9218782146
 30
0.0
 11
968.4987269446
 21
487.9218782146
 31
0.0
  0
LINE
  5
29A
  8
0
  6
CONTINUOUS
 62
     7
 10
968.4987269446
 20
658.9218782146
 30
0.0
 11
969.912940507
 21
660.9218782146
 31
0.0
  0
LINE
  5
29B
  8
0
  6
CONTINUOUS
 62
     7
 10
974.1555811941
 20
660.9218782146
 30
0.0
 11
969.912940507
 21
660.9218782146
 31
0.0
  0
LINE
  5
29C
  8
0
  6
CONTINUOUS
 62
     7
 10
974.1555811941
 20
660.9218782146
 30
0.0
 11
975.5697947565
 21
658.9218782146
 31
0.0
  0
LINE
  5
29D
  8
0
  6
CONTINUOUS
 62
     7
 10
975.5697947565
 20
655.9218782146
 30
0.0
 11
975.5697947565
 21
658.9218782146
 31
0.0
  0
LINE
  5
29E
  8
0
  6
CONTINUOUS
 62
     7
 10
972.7413676317
 20
655.9218782146
 30
0.0
 11
975.5697947565
 21
655.9218782146
 31
0.0
  0
LINE
  5
29F
  8
0
  6
CONTINUOUS
 62
     7
 10
972.7413676317
 20
648.9218782146
 30
0.0
 11
972.7413676317
 21
655.9218782146
 31
0.0
  0
POLYLINE
  5
2A0
  8
0
  6
CONTINUOUS
 62
     7
 66
     1
 10
0.0
 20
0.0
 30
0.0
 70
   128
  0
VERTEX
  5
55C
  8
0
  6
CONTINUOUS
 62
     7
 10
979.8124354436
 20
648.9218782146
 30
0.0
  0
VERTEX
  5
55D
  8
0
  6
CONTINUOUS
 62
     7
 10
979.6692214784
 20
647.5132154304
 30
0.0
  0
VERTEX
  5
55E
  8
0
  6
CONTINUOUS
 62
     7
 10
979.2511819265
 20
646.2186741273
 30
0.0
  0
VERTEX
  5
55F
  8
0
  6
CONTINUOUS
 62
     7
 10
978.5921838662
 20
645.1431303428
 30
0.0
  0
VERTEX
  5
560
  8
0
  6
CONTINUOUS
 62
     7
 10
977.7456154011
 20
644.3737182378
 30
0.0
  0
VERTEX
  5
561
  8
0
  6
CONTINUOUS
 62
     7
 10
976.7800604737
 20
643.9727710052
 30
0.0
  0
VERTEX
  5
562
  8
0
  6
CONTINUOUS
 62
     7
 10
975.7737426016
 20
643.9727710052
 30
0.0
  0
VERTEX
  5
563
  8
0
  6
CONTINUOUS
 62
     7
 10
974.8081876741
 20
644.3737182378
 30
0.0
  0
VERTEX
  5
564
  8
0
  6
CONTINUOUS
 62
     7
 10
973.9616192091
 20
645.1431303428
 30
0.0
  0
VERTEX
  5
565
  8
0
  6
CONTINUOUS
 62
     7
 10
973.3026211488
 20
646.2186741273
 30
0.0
  0
VERTEX
  5
566
  8
0
  6
CONTINUOUS
 62
     7
 10
972.8845815969
 20
647.5132154304
 30
0.0
  0
VERTEX
  5
567
  8
0
  6
CONTINUOUS
 62
     7
 10
972.7413676317
 20
648.9218782146
 30
0.0
  0
SEQEND
  5
C0F
  8
0
  6
CONTINUOUS
 62
     7
  0
LINE
  5
2A1
  8
0
  6
CONTINUOUS
 62
     7
 10
979.8124354436
 20
665.9218782146
 30
0.0
 11
979.8124354436
 21
648.9218782146
 31
0.0
  0
LINE
  5
2A2
  8
0
  6
CONTINUOUS
 62
     7
 10
969.912940507
 20
665.9218782146
 30
0.0
 11
979.8124354436
 21
665.9218782146
 31
0.0
  0
LINE
  5
2A3
  8
0
  6
CONTINUOUS
 62
     7
 10
969.912940507
 20
665.9218782146
 30
0.0
 11
968.4987269446
 21
667.9218782146
 31
0.0
  0
LINE
  5
2A4
  8
0
  6
CONTINUOUS
 62
     7
 10
968.4987269446
 20
838.9218782146
 30
0.0
 11
968.4987269446
 21
667.9218782146
 31
0.0
  0
LINE
  5
2A5
  8
0
  6
CONTINUOUS
 62
     7
 10
968.4987269446
 20
838.9218782146
 30
0.0
 11
969.912940507
 21
840.9218782146
 31
0.0
  0
LINE
  5
2A6
  8
0
  6
CONTINUOUS
 62
     7
 10
974.1555811941
 20
840.9218782146
 30
0.0
 11
969.912940507
 21
840.9218782146
 31
0.0
  0
LINE
  5
2A7
  8
0
  6
CONTINUOUS
 62
     7
 10
974.1555811941
 20
840.9218782146
 30
0.0
 11
975.5697947565
 21
838.9218782146
 31
0.0
  0
LINE
  5
2A8
  8
0
  6
CONTINUOUS
 62
     7
 10
975.5697947565
 20
835.9218782146
 30
0.0
 11
975.5697947565
 21
838.9218782146
 31
0.0
  0
LINE
  5
2A9
  8
0
  6
CONTINUOUS
 62
     7
 10
972.7413676317
 20
835.9218782146
 30
0.0
 11
975.5697947565
 21
835.9218782146
 31
0.0
  0
LINE
  5
2AA
  8
0
  6
CONTINUOUS
 62
     7
 10
972.7413676317
 20
828.9218782146
 30
0.0
 11
972.7413676317
 21
835.9218782146
 31
0.0
  0
POLYLINE
  5
2AB
  8
0
  6
CONTINUOUS
 62
     7
 66
     1
 10
0.0
 20
0.0
 30
0.0
 70
   128
  0
VERTEX
  5
568
  8
0
  6
CONTINUOUS
 62
     7
 10
979.8124354436
 20
828.9218782146
 30
0.0
  0
VERTEX
  5
569
  8
0
  6
CONTINUOUS
 62
     7
 10
979.6692214784
 20
827.5132154304
 30
0.0
  0
VERTEX
  5
56A
  8
0
  6
CONTINUOUS
 62
     7
 10
979.2511819265
 20
826.2186741273
 30
0.0
  0
VERTEX
  5
56B
  8
0
  6
CONTINUOUS
 62
     7
 10
978.5921838662
 20
825.1431303428
 30
0.0
  0
VERTEX
  5
56C
  8
0
  6
CONTINUOUS
 62
     7
 10
977.7456154011
 20
824.3737182378
 30
0.0
  0
VERTEX
  5
56D
  8
0
  6
CONTINUOUS
 62
     7
 10
976.7800604737
 20
823.9727710052
 30
0.0
  0
VERTEX
  5
56E
  8
0
  6
CONTINUOUS
 62
     7
 10
975.7737426016
 20
823.9727710052
 30
0.0
  0
VERTEX
  5
56F
  8
0
  6
CONTINUOUS
 62
     7
 10
974.8081876741
 20
824.3737182378
 30
0.0
  0
VERTEX
  5
570
  8
0
  6
CONTINUOUS
 62
     7
 10
973.9616192091
 20
825.1431303428
 30
0.0
  0
VERTEX
  5
571
  8
0
  6
CONTINUOUS
 62
     7
 10
973.3026211488
 20
826.2186741273
 30
0.0
  0
VERTEX
  5
572
  8
0
  6
CONTINUOUS
 62
     7
 10
972.8845815969
 20
827.5132154304
 30
0.0
  0
VERTEX
  5
573
  8
0
  6
CONTINUOUS
 62
     7
 10
972.7413676317
 20
828.9218782146
 30
0.0
  0
SEQEND
  5
C10
  8
0
  6
CONTINUOUS
 62
     7
  0
LINE
  5
2AC
  8
0
  6
CONTINUOUS
 62
     7
 10
979.8124354436
 20
845.9218782146
 30
0.0
 11
979.8124354436
 21
828.9218782146
 31
0.0
  0
LINE
  5
2AD
  8
0
  6
CONTINUOUS
 62
     7
 10
969.912940507
 20
845.9218782146
 30
0.0
 11
979.8124354436
 21
845.9218782146
 31
0.0
  0
LINE
  5
2AE
  8
0
  6
CONTINUOUS
 62
     7
 10
969.912940507
 20
845.9218782146
 30
0.0
 11
968.4987269446
 21
847.9218782146
 31
0.0
  0
LINE
  5
2AF
  8
0
  6
CONTINUOUS
 62
     7
 10
968.4987269446
 20
1018.9218782146
 30
0.0
 11
968.4987269446
 21
847.9218782146
 31
0.0
  0
LINE
  5
2B0
  8
0
  6
CONTINUOUS
 62
     7
 10
968.4987269446
 20
1018.9218782146
 30
0.0
 11
969.912940507
 21
1020.9218782146
 31
0.0
  0
LINE
  5
2B1
  8
0
  6
CONTINUOUS
 62
     7
 10
974.1555811941
 20
1020.9218782146
 30
0.0
 11
969.912940507
 21
1020.9218782146
 31
0.0
  0
LINE
  5
2B2
  8
0
  6
CONTINUOUS
 62
     7
 10
974.1555811941
 20
1020.9218782146
 30
0.0
 11
975.5697947565
 21
1018.9218782146
 31
0.0
  0
LINE
  5
2B3
  8
0
  6
CONTINUOUS
 62
     7
 10
975.5697947565
 20
1015.9218782146
 30
0.0
 11
975.5697947565
 21
1018.9218782146
 31
0.0
  0
LINE
  5
2B4
  8
0
  6
CONTINUOUS
 62
     7
 10
972.7413676317
 20
1015.9218782146
 30
0.0
 11
975.5697947565
 21
1015.9218782146
 31
0.0
  0
LINE
  5
2B5
  8
0
  6
CONTINUOUS
 62
     7
 10
972.7413676317
 20
1008.9218782146
 30
0.0
 11
972.7413676317
 21
1015.9218782146
 31
0.0
  0
POLYLINE
  5
2B6
  8
0
  6
CONTINUOUS
 62
     7
 66
     1
 10
0.0
 20
0.0
 30
0.0
 70
   128
  0
VERTEX
  5
574
  8
0
  6
CONTINUOUS
 62
     7
 10
979.8124354436
 20
1008.9218782146
 30
0.0
  0
VERTEX
  5
575
  8
0
  6
CONTINUOUS
 62
     7
 10
979.6692214784
 20
1007.5132154304
 30
0.0
  0
VERTEX
  5
576
  8
0
  6
CONTINUOUS
 62
     7
 10
979.2511819265
 20
1006.2186741273
 30
0.0
  0
VERTEX
  5
577
  8
0
  6
CONTINUOUS
 62
     7
 10
978.5921838662
 20
1005.1431303428
 30
0.0
  0
VERTEX
  5
578
  8
0
  6
CONTINUOUS
 62
     7
 10
977.7456154011
 20
1004.3737182378
 30
0.0
  0
VERTEX
  5
579
  8
0
  6
CONTINUOUS
 62
     7
 10
976.7800604737
 20
1003.9727710052
 30
0.0
  0
VERTEX
  5
57A
  8
0
  6
CONTINUOUS
 62
     7
 10
975.7737426016
 20
1003.9727710052
 30
0.0
  0
VERTEX
  5
57B
  8
0
  6
CONTINUOUS
 62
     7
 10
974.8081876741
 20
1004.3737182378
 30
0.0
  0
VERTEX
  5
57C
  8
0
  6
CONTINUOUS
 62
     7
 10
973.9616192091
 20
1005.1431303428
 30
0.0
  0
VERTEX
  5
57D
  8
0
  6
CONTINUOUS
 62
     7
 10
973.3026211488
 20
1006.2186741273
 30
0.0
  0
VERTEX
  5
57E
  8
0
  6
CONTINUOUS
 62
     7
 10
972.8845815969
 20
1007.5132154304
 30
0.0
  0
VERTEX
  5
57F
  8
0
  6
CONTINUOUS
 62
     7
 10
972.7413676317
 20
1008.9218782146
 30
0.0
  0
SEQEND
  5
C11
  8
0
  6
CONTINUOUS
 62
     7
  0
LINE
  5
2B7
  8
0
  6
CONTINUOUS
 62
     7
 10
979.8124354436
 20
1025.9218782146
 30
0.0
 11
979.8124354436
 21
1008.9218782146
 31
0.0
  0
LINE
  5
2B8
  8
0
  6
CONTINUOUS
 62
     7
 10
969.912940507
 20
1025.9218782146
 30
0.0
 11
979.8124354436
 21
1025.9218782146
 31
0.0
  0
LINE
  5
2B9
  8
0
  6
CONTINUOUS
 62
     7
 10
969.912940507
 20
1025.9218782146
 30
0.0
 11
968.4987269446
 21
1027.9218782146
 31
0.0
  0
LINE
  5
2BA
  8
0
  6
CONTINUOUS
 62
     7
 10
968.4987269446
 20
1170.8511675365
 30
0.0
 11
968.4987269446
 21
1027.9218782146
 31
0.0
  0
POLYLINE
  5
2BB
  8
0
  6
CONTINUOUS
 62
     7
 66
     1
 10
0.0
 20
0.0
 30
0.0
 70
   128
  0
VERTEX
  5
580
  8
0
  6
CONTINUOUS
 62
     7
 10
999.2641165103
 20
1170.2341881199
 30
0.0
  0
VERTEX
  5
581
  8
0
  6
CONTINUOUS
 62
     7
 10
998.4997124749
 20
1170.7151917229
 30
0.0
  0
VERTEX
  5
582
  8
0
  6
CONTINUOUS
 62
     7
 10
997.8499029479
 20
1170.8511675365
 30
0.0
  0
SEQEND
  5
C12
  8
0
  6
CONTINUOUS
 62
     7
  0
LINE
  5
2BC
  8
0
  6
CONTINUOUS
 62
     7
 10
999.2641165103
 20
238.9218782146
 30
0.0
 11
972.0342608505
 21
238.9218782146
 31
0.0
  0
LINE
  5
2BD
  8
0
  6
CONTINUOUS
 62
     7
 10
997.8499029479
 20
1170.8511675365
 30
0.0
 11
968.4987269446
 21
1170.8511675365
 31
0.0
  0
LINE
  5
2BE
  8
0
  6
CONTINUOUS
 62
     7
 10
968.4987269446
 20
1027.9218782146
 30
0.0
 11
967.3673560947
 21
1027.9218782146
 31
0.0
  0
LINE
  5
2BF
  8
0
  6
CONTINUOUS
 62
     7
 10
967.3673560947
 20
1170.8511675365
 30
0.0
 11
967.3673560947
 21
1027.9218782146
 31
0.0
  0
LINE
  5
2C0
  8
0
  6
CONTINUOUS
 62
     7
 10
968.4987269446
 20
1170.8511675365
 30
0.0
 11
967.3673560947
 21
1170.8511675365
 31
0.0
  0
LINE
  5
2C1
  8
0
  6
CONTINUOUS
 62
     7
 10
967.3673560947
 20
658.9218782146
 30
0.0
 11
968.4987269446
 21
658.9218782146
 31
0.0
  0
LINE
  5
2C2
  8
0
  6
CONTINUOUS
 62
     7
 10
968.4987269446
 20
487.9218782146
 30
0.0
 11
967.3673560947
 21
487.9218782146
 31
0.0
  0
LINE
  5
2C3
  8
0
  6
CONTINUOUS
 62
     7
 10
967.3673560947
 20
658.9218782146
 30
0.0
 11
967.3673560947
 21
487.9218782146
 31
0.0
  0
LINE
  5
2C4
  8
0
  6
CONTINUOUS
 62
     7
 10
967.3673560947
 20
838.9218782146
 30
0.0
 11
968.4987269446
 21
838.9218782146
 31
0.0
  0
LINE
  5
2C5
  8
0
  6
CONTINUOUS
 62
     7
 10
968.4987269446
 20
667.9218782146
 30
0.0
 11
967.3673560947
 21
667.9218782146
 31
0.0
  0
LINE
  5
2C6
  8
0
  6
CONTINUOUS
 62
     7
 10
967.3673560947
 20
838.9218782146
 30
0.0
 11
967.3673560947
 21
667.9218782146
 31
0.0
  0
LINE
  5
2C7
  8
0
  6
CONTINUOUS
 62
     7
 10
968.4987269446
 20
243.9218782146
 30
0.0
 11
967.3673560947
 21
243.9218782146
 31
0.0
  0
LINE
  5
2C8
  8
0
  6
CONTINUOUS
 62
     7
 10
967.3673560947
 20
298.9218782146
 30
0.0
 11
967.3673560947
 21
243.9218782146
 31
0.0
  0
LINE
  5
2C9
  8
0
  6
CONTINUOUS
 62
     7
 10
967.3673560947
 20
298.9218782146
 30
0.0
 11
968.4987269446
 21
298.9218782146
 31
0.0
  0
LINE
  5
2CA
  8
0
  6
CONTINUOUS
 62
     7
 10
968.4987269446
 20
307.9218782146
 30
0.0
 11
967.3673560947
 21
307.9218782146
 31
0.0
  0
LINE
  5
2CB
  8
0
  6
CONTINUOUS
 62
     7
 10
968.7815696571
 20
305.9218782146
 30
0.0
 11
969.912940507
 21
305.9218782146
 31
0.0
  0
LINE
  5
2CC
  8
0
  6
CONTINUOUS
 62
     7
 10
967.3673560947
 20
307.9218782146
 30
0.0
 11
968.7815696571
 21
305.9218782146
 31
0.0
  0
LINE
  5
2CD
  8
0
  6
CONTINUOUS
 62
     7
 10
968.7815696571
 20
485.9218782146
 30
0.0
 11
969.912940507
 21
485.9218782146
 31
0.0
  0
LINE
  5
2CE
  8
0
  6
CONTINUOUS
 62
     7
 10
967.3673560947
 20
487.9218782146
 30
0.0
 11
968.7815696571
 21
485.9218782146
 31
0.0
  0
LINE
  5
2CF
  8
0
  6
CONTINUOUS
 62
     7
 10
969.912940507
 20
480.9218782146
 30
0.0
 11
968.7815696571
 21
480.9218782146
 31
0.0
  0
LINE
  5
2D0
  8
0
  6
CONTINUOUS
 62
     7
 10
967.3673560947
 20
478.9218782146
 30
0.0
 11
968.4987269446
 21
478.9218782146
 31
0.0
  0
LINE
  5
2D1
  8
0
  6
CONTINUOUS
 62
     7
 10
968.7815696571
 20
480.9218782146
 30
0.0
 11
967.3673560947
 21
478.9218782146
 31
0.0
  0
LINE
  5
2D2
  8
0
  6
CONTINUOUS
 62
     7
 10
968.7815696571
 20
665.9218782146
 30
0.0
 11
969.912940507
 21
665.9218782146
 31
0.0
  0
LINE
  5
2D3
  8
0
  6
CONTINUOUS
 62
     7
 10
967.3673560947
 20
667.9218782146
 30
0.0
 11
968.7815696571
 21
665.9218782146
 31
0.0
  0
LINE
  5
2D4
  8
0
  6
CONTINUOUS
 62
     7
 10
969.912940507
 20
660.9218782146
 30
0.0
 11
968.7815696571
 21
660.9218782146
 31
0.0
  0
LINE
  5
2D5
  8
0
  6
CONTINUOUS
 62
     7
 10
968.7815696571
 20
660.9218782146
 30
0.0
 11
967.3673560947
 21
658.9218782146
 31
0.0
  0
LINE
  5
2D6
  8
0
  6
CONTINUOUS
 62
     7
 10
969.912940507
 20
300.9218782146
 30
0.0
 11
968.7815696571
 21
300.9218782146
 31
0.0
  0
LINE
  5
2D7
  8
0
  6
CONTINUOUS
 62
     7
 10
968.7815696571
 20
300.9218782146
 30
0.0
 11
967.3673560947
 21
298.9218782146
 31
0.0
  0
LINE
  5
2D8
  8
0
  6
CONTINUOUS
 62
     7
 10
969.912940507
 20
840.9218782146
 30
0.0
 11
968.7815696571
 21
840.9218782146
 31
0.0
  0
LINE
  5
2D9
  8
0
  6
CONTINUOUS
 62
     7
 10
968.7815696571
 20
840.9218782146
 30
0.0
 11
967.3673560947
 21
838.9218782146
 31
0.0
  0
LINE
  5
2DA
  8
0
  6
CONTINUOUS
 62
     7
 10
967.3673560947
 20
1018.9218782146
 30
0.0
 11
968.4987269446
 21
1018.9218782146
 31
0.0
  0
LINE
  5
2DB
  8
0
  6
CONTINUOUS
 62
     7
 10
968.4987269446
 20
847.9218782146
 30
0.0
 11
967.3673560947
 21
847.9218782146
 31
0.0
  0
LINE
  5
2DC
  8
0
  6
CONTINUOUS
 62
     7
 10
967.3673560947
 20
1018.9218782146
 30
0.0
 11
967.3673560947
 21
847.9218782146
 31
0.0
  0
LINE
  5
2DD
  8
0
  6
CONTINUOUS
 62
     7
 10
969.912940507
 20
1020.9218782146
 30
0.0
 11
968.7815696571
 21
1020.9218782146
 31
0.0
  0
LINE
  5
2DE
  8
0
  6
CONTINUOUS
 62
     7
 10
968.7815696571
 20
1020.9218782146
 30
0.0
 11
967.3673560947
 21
1018.9218782146
 31
0.0
  0
LINE
  5
2DF
  8
0
  6
CONTINUOUS
 62
     7
 10
970.9028900006
 20
238.9218782146
 30
0.0
 11
972.0342608505
 21
238.9218782146
 31
0.0
  0
LINE
  5
2E0
  8
0
  6
CONTINUOUS
 62
     7
 10
967.3673560947
 20
243.9218782146
 30
0.0
 11
970.9028900006
 21
238.9218782146
 31
0.0
  0
LINE
  5
2E1
  8
0
  6
CONTINUOUS
 62
     7
 10
968.7815696571
 20
845.9218782146
 30
0.0
 11
969.912940507
 21
845.9218782146
 31
0.0
  0
LINE
  5
2E2
  8
0
  6
CONTINUOUS
 62
     7
 10
967.3673560947
 20
847.9218782146
 30
0.0
 11
968.7815696571
 21
845.9218782146
 31
0.0
  0
LINE
  5
2E3
  8
0
  6
CONTINUOUS
 62
     7
 10
967.3673560947
 20
478.9218782146
 30
0.0
 11
967.3673560947
 21
307.9218782146
 31
0.0
  0
LINE
  5
2E4
  8
0
  6
CONTINUOUS
 62
     7
 10
968.7815696571
 20
1025.9218782146
 30
0.0
 11
969.912940507
 21
1025.9218782146
 31
0.0
  0
LINE
  5
2E5
  8
0
  6
CONTINUOUS
 62
     7
 10
967.3673560947
 20
1027.9218782146
 30
0.0
 11
968.7815696571
 21
1025.9218782146
 31
0.0
  0
LINE
  5
2E6
  8
0
  6
CONTINUOUS
 62
     7
 10
996.718532098
 20
1172.5218782146
 30
0.0
 11
967.2673560947
 21
1172.5218782146
 31
0.0
  0
LINE
  5
2E7
  8
0
  6
CONTINUOUS
 62
     7
 10
996.718532098
 20
1172.5218782146
 30
0.0
 11
996.718532098
 21
1170.9218782146
 31
0.0
  0
LINE
  5
2E8
  8
0
  6
CONTINUOUS
 62
     7
 10
967.2673560947
 20
1170.9218782146
 30
0.0
 11
967.2673560947
 21
1172.5218782146
 31
0.0
  0
LINE
  5
2E9
  8
0
  6
CONTINUOUS
 62
     7
 10
996.718532098
 20
1170.9218782146
 30
0.0
 11
967.2673560947
 21
1170.9218782146
 31
0.0
  0
LINE
  5
2EA
  8
0
  6
CONTINUOUS
 62
     7
 10
950.318532098
 20
1170.9218782146
 30
0.0
 11
950.318532098
 21
1172.5218782146
 31
0.0
  0
LINE
  5
2EB
  8
0
  6
CONTINUOUS
 62
     7
 10
950.318532098
 20
1172.5218782146
 30
0.0
 11
967.2673560947
 21
1172.5218782146
 31
0.0
  0
LINE
  5
2EC
  8
0
  6
CONTINUOUS
 62
     7
 10
950.318532098
 20
1170.9218782146
 30
0.0
 11
967.2673560947
 21
1170.9218782146
 31
0.0
  0
LINE
  5
2ED
  8
0
  6
CONTINUOUS
 62
     7
 10
930.318532098
 20
1170.9218782146
 30
0.0
 11
930.318532098
 21
1172.5218782146
 31
0.0
  0
LINE
  5
2EE
  8
0
  6
CONTINUOUS
 62
     7
 10
930.318532098
 20
1172.5218782146
 30
0.0
 11
950.318532098
 21
1172.5218782146
 31
0.0
  0
LINE
  5
2EF
  8
0
  6
CONTINUOUS
 62
     7
 10
930.318532098
 20
1170.9218782146
 30
0.0
 11
950.318532098
 21
1170.9218782146
 31
0.0
  0
ARC
  5
2F0
  8
0
  6
CONTINUOUS
 62
     7
 10
973.9927986616
 20
1008.3816057836
 30
0.0
 40
4.719293564631156
 50
291.3538046925
 51
6.573727311
  0
ARC
  5
2F1
  8
0
  6
CONTINUOUS
 62
     7
 10
973.9927986674
 20
828.381605782
 30
0.0
 40
4.719293559071758
 50
291.3538044743
 51
6.5737273384
  0
ARC
  5
2F2
  8
0
  6
CONTINUOUS
 62
     7
 10
973.9927986622
 20
468.3816057835
 30
0.0
 40
4.719293564068589
 50
291.3538046704
 51
6.5737273138
  0
ARC
  5
2F3
  8
0
  6
CONTINUOUS
 62
     7
 10
973.9927986625
 20
648.3816057834
 30
0.0
 40
4.719293563800099
 50
291.3538046599
 51
6.5737273151
  0
ARC
  5
2F4
  8
0
  6
CONTINUOUS
 62
     7
 10
973.9927986627
 20
288.3816057833
 30
0.0
 40
4.719293563609757
 50
291.3538046524
 51
6.573727316
  0
LINE
  5
2F5
  8
0
  6
CONTINUOUS
 62
     7
 10
978.6810645937
 20
1025.9218782146
 30
0.0
 11
978.6810645937
 21
1008.9218782146
 31
0.0
  0
LINE
  5
2F6
  8
0
  6
CONTINUOUS
 62
     7
 10
978.6810645937
 20
845.9218782146
 30
0.0
 11
978.6810645937
 21
828.9218782146
 31
0.0
  0
LINE
  5
2F7
  8
0
  6
CONTINUOUS
 62
     7
 10
978.6810645937
 20
485.9218782146
 30
0.0
 11
978.6810645937
 21
468.9218782146
 31
0.0
  0
LINE
  5
2F8
  8
0
  6
CONTINUOUS
 62
     7
 10
978.6810645937
 20
665.9218782146
 30
0.0
 11
978.6810645937
 21
648.9218782146
 31
0.0
  0
LINE
  5
2F9
  8
0
  6
CONTINUOUS
 62
     7
 10
978.6810645937
 20
305.9218782146
 30
0.0
 11
978.6810645937
 21
288.9218782146
 31
0.0
  0
POLYLINE
  5
2FA
  8
0
  6
CONTINUOUS
 62
     7
 66
     1
 10
0.0
 20
0.0
 30
0.0
 70
   128
  0
VERTEX
  5
583
  8
0
  6
CONTINUOUS
 62
     7
 10
996.718532098
 20
1172.5218782146
 30
0.0
  0
VERTEX
  5
584
  8
0
  6
CONTINUOUS
 62
     7
 10
998.1094417484
 20
1172.2423255255
 30
0.0
  0
VERTEX
  5
585
  8
0
  6
CONTINUOUS
 62
     7
 10
999.2843329516
 20
1171.4470843408
 30
0.0
  0
SEQEND
  5
C13
  8
0
  6
CONTINUOUS
 62
     7
  0
LINE
  5
2FB
  8
0
  6
CONTINUOUS
 62
     7
 10
999.2843333249
 20
1171.4470839615
 30
0.0
 11
998.5246993034
 21
1170.6994686838
 31
0.0
  0
LINE
  5
2FC
  8
0
  6
CONTINUOUS
 62
     7
 10
996.718532098
 20
1170.9218782146
 30
0.0
 11
997.0703518744
 21
1170.8511675365
 31
0.0
  0
LINE
  5
2FD
  8
0
  6
CONTINUOUS
 62
     7
 10
1000.318532098
 20
1168.9218782146
 30
0.0
 11
1000.318532098
 21
238.9218782146
 31
0.0
  0
LINE
  5
2FE
  8
0
  6
CONTINUOUS
 62
     7
 10
999.2641165103
 20
238.9218782146
 30
0.0
 11
1000.318532098
 21
238.9218782146
 31
0.0
  0
POLYLINE
  5
2FF
  8
0
  6
CONTINUOUS
 62
     7
 66
     1
 10
0.0
 20
0.0
 30
0.0
 70
   128
  0
VERTEX
  5
586
  8
0
  6
CONTINUOUS
 62
     7
 10
1000.318532098
 20
1168.9218782146
 30
0.0
  0
VERTEX
  5
587
  8
0
  6
CONTINUOUS
 62
     7
 10
1000.0331282467
 20
1169.652440913
 30
0.0
  0
VERTEX
  5
588
  8
0
  6
CONTINUOUS
 62
     7
 10
999.2641165103
 20
1170.2341881199
 30
0.0
  0
SEQEND
  5
C14
  8
0
  6
CONTINUOUS
 62
     7
  0
ARC
  5
300
  8
0
  6
CONTINUOUS
 62
     7
 10
996.718532098
 20
1168.9218782146
 30
0.0
 40
3.600000000001501
 50
0.0
 51
44.5431427119
  0
LINE
  5
301
  8
0
  6
CONTINUOUS
 62
   218
 10
999.2641165103
 20
1170.2341881199
 30
0.0
 11
999.2641165103
 21
238.9218782146
 31
0.0
  0
LINE
  5
302
  8
0
  6
CONTINUOUS
 62
   218
 10
978.6810645937
 20
1008.9218782146
 30
0.0
 11
979.8124354436
 21
1008.9218782146
 31
0.0
  0
LINE
  5
303
  8
0
  6
CONTINUOUS
 62
   218
 10
978.6810645937
 20
828.9218782146
 30
0.0
 11
979.8124354436
 21
828.9218782146
 31
0.0
  0
LINE
  5
304
  8
0
  6
CONTINUOUS
 62
   218
 10
978.6810645937
 20
468.9218782146
 30
0.0
 11
979.8124354436
 21
468.9218782146
 31
0.0
  0
LINE
  5
305
  8
0
  6
CONTINUOUS
 62
   218
 10
978.6810645937
 20
648.9218782146
 30
0.0
 11
979.8124354436
 21
648.9218782146
 31
0.0
  0
LINE
  5
306
  8
0
  6
CONTINUOUS
 62
   218
 10
978.6810645937
 20
288.9218782146
 30
0.0
 11
979.8124354436
 21
288.9218782146
 31
0.0
  0
DIMENSION
  5
307
  8
細線
  2
_D_9
 10
1000.318532098
 20
188.9218532146
 30
0.0
 11
1049.5842639162
 21
188.9218532146
 31
0.0
 70
   160
  1
<>
  3
SLDDIMSTYLE1
 13
967.3673560947
 23
243.9218782146
 33
0.0
 14
1000.318532098
 24
238.9218782146
 34
0.0
  0
DIMENSION
  5
313
  8
細線
  2
_D_10
 10
1081.824307098
 20
238.9218782146
 30
0.0
 11
1081.824307098
 21
720.9114961512
 31
0.0
 70
   160
  1
<>
  3
SLDDIMSTYLE0
 13
996.718532098
 23
1172.5218782146
 33
0.0
 14
1000.318532098
 24
238.9218782146
 34
0.0
 50
90.0
  0
LINE
  5
31D
  8
0
  6
CONTINUOUS
 62
     7
 10
496.1145226753
 20
1353.9761689568
 30
0.0
 11
496.1178540944
 21
1353.5013991498
 31
0.0
  0
LINE
  5
31E
  8
0
  6
CONTINUOUS
 62
     7
 10
709.6470001532
 20
1353.5013991498
 30
0.0
 11
709.6503315722
 21
1353.9761689568
 31
0.0
  0
LINE
  5
31F
  8
0
  6
CONTINUOUS
 62
     7
 10
741.2708614272
 20
1304.5871709028
 30
0.0
 11
741.2708614272
 21
1321.5359948995
 31
0.0
  0
LINE
  5
320
  8
0
  6
CONTINUOUS
 62
     7
 10
721.2708614272
 20
1284.5871709028
 30
0.0
 11
741.2708614272
 21
1304.5871709028
 31
0.0
  0
LINE
  5
321
  8
0
  6
CONTINUOUS
 62
     7
 10
721.2708614272
 20
1284.5871709028
 30
0.0
 11
484.4939928203
 21
1284.5871709028
 31
0.0
  0
LINE
  5
322
  8
0
  6
CONTINUOUS
 62
     7
 10
484.4939928203
 20
1284.5871709028
 30
0.0
 11
464.4939928203
 21
1304.5871709028
 31
0.0
  0
LINE
  5
323
  8
0
  6
CONTINUOUS
 62
     7
 10
464.4939928203
 20
1304.5871709028
 30
0.0
 11
464.4939928203
 21
1321.5359948995
 31
0.0
  0
LINE
  5
324
  8
0
  6
CONTINUOUS
 62
     7
 10
493.9451688235
 20
1350.9871709028
 30
0.0
 11
464.4939928203
 21
1321.5359948995
 31
0.0
  0
LINE
  5
325
  8
0
  6
CONTINUOUS
 62
     7
 10
711.819685424
 20
1350.9871709028
 30
0.0
 11
741.2708614272
 21
1321.5359948995
 31
0.0
  0
POLYLINE
  5
326
  8
0
  6
CONTINUOUS
 62
     7
 66
     1
 10
0.0
 20
0.0
 30
0.0
 70
   128
  0
VERTEX
  5
589
  8
0
  6
CONTINUOUS
 62
     7
 10
709.5982438816
 20
1353.5529718117
 30
0.0
  0
VERTEX
  5
58A
  8
0
  6
CONTINUOUS
 62
     7
 10
709.6418278332
 20
1354.1028322118
 30
0.0
  0
VERTEX
  5
58B
  8
0
  6
CONTINUOUS
 62
     7
 10
709.4865188003
 20
1354.451016073
 30
0.0
  0
VERTEX
  5
58C
  8
0
  6
CONTINUOUS
 62
     7
 10
709.1455024058
 20
1354.5855438237
 30
0.0
  0
VERTEX
  5
58D
  8
0
  6
CONTINUOUS
 62
     7
 10
709.0912582992
 20
1354.5871709028
 30
0.0
  0
SEQEND
  5
C15
  8
0
  6
CONTINUOUS
 62
     7
  0
POLYLINE
  5
327
  8
0
  6
CONTINUOUS
 62
     7
 66
     1
 10
0.0
 20
0.0
 30
0.0
 70
   128
  0
VERTEX
  5
58E
  8
0
  6
CONTINUOUS
 62
     7
 10
496.1666103659
 20
1353.5529718117
 30
0.0
  0
VERTEX
  5
58F
  8
0
  6
CONTINUOUS
 62
     7
 10
496.1230264143
 20
1354.1028322118
 30
0.0
  0
VERTEX
  5
590
  8
0
  6
CONTINUOUS
 62
     7
 10
496.2783354472
 20
1354.451016073
 30
0.0
  0
VERTEX
  5
591
  8
0
  6
CONTINUOUS
 62
     7
 10
496.6193518417
 20
1354.5855438237
 30
0.0
  0
VERTEX
  5
592
  8
0
  6
CONTINUOUS
 62
     7
 10
496.6735959483
 20
1354.5871709028
 30
0.0
  0
SEQEND
  5
C16
  8
0
  6
CONTINUOUS
 62
     7
  0
LINE
  5
328
  8
0
  6
CONTINUOUS
 62
     7
 10
709.0912582992
 20
1354.5871709028
 30
0.0
 11
496.6735959483
 21
1354.5871709028
 31
0.0
  0
POLYLINE
  5
329
  8
0
  6
CONTINUOUS
 62
     7
 66
     1
 10
0.0
 20
0.0
 30
0.0
 70
   128
  0
VERTEX
  5
593
  8
0
  6
CONTINUOUS
 62
     7
 10
711.819685424
 20
1350.9871709028
 30
0.0
  0
VERTEX
  5
594
  8
0
  6
CONTINUOUS
 62
     7
 10
710.7089646894
 20
1352.3780805532
 30
0.0
  0
VERTEX
  5
595
  8
0
  6
CONTINUOUS
 62
     7
 10
709.5982443688
 20
1353.5529717564
 30
0.0
  0
SEQEND
  5
C17
  8
0
  6
CONTINUOUS
 62
     7
  0
POLYLINE
  5
32A
  8
0
  6
CONTINUOUS
 62
     7
 66
     1
 10
0.0
 20
0.0
 30
0.0
 70
   128
  0
VERTEX
  5
596
  8
0
  6
CONTINUOUS
 62
     7
 10
493.9451688235
 20
1350.9871709028
 30
0.0
  0
VERTEX
  5
597
  8
0
  6
CONTINUOUS
 62
     7
 10
495.0558895581
 20
1352.3780805532
 30
0.0
  0
VERTEX
  5
598
  8
0
  6
CONTINUOUS
 62
     7
 10
496.1666098787
 20
1353.5529717564
 30
0.0
  0
SEQEND
  5
C18
  8
0
  6
CONTINUOUS
 62
     7
  0
LINE
  5
32B
  8
0
  6
CONTINUOUS
 62
     7
 10
496.1666102926
 20
1353.5529721297
 30
0.0
 11
496.1666102926
 21
1353.2982349972
 31
0.0
  0
LINE
  5
32C
  8
0
  6
CONTINUOUS
 62
     7
 10
709.5982439549
 20
1353.5529721297
 30
0.0
 11
709.5982439549
 21
1353.2982349972
 31
0.0
  0
LINE
  5
32D
  8
0
  6
CONTINUOUS
 62
     7
 10
711.6368427115
 20
1353.5327553151
 30
0.0
 11
710.5054718616
 21
1352.4013844652
 31
0.0
  0
LINE
  5
32E
  8
0
  6
CONTINUOUS
 62
     7
 10
711.6368427115
 20
1353.5327553151
 30
0.0
 11
713.0510562739
 21
1352.1185417527
 31
0.0
  0
LINE
  5
32F
  8
0
  6
CONTINUOUS
 62
     7
 10
713.0510562739
 20
1352.1185417527
 30
0.0
 11
711.919685424
 21
1350.9871709028
 31
0.0
  0
LINE
  5
330
  8
0
  6
CONTINUOUS
 62
     7
 10
492.7137979737
 20
1352.1185417527
 30
0.0
 11
493.8451688236
 21
1350.9871709028
 31
0.0
  0
LINE
  5
331
  8
0
  6
CONTINUOUS
 62
     7
 10
494.128011536
 20
1353.5327553151
 30
0.0
 11
492.7137979737
 21
1352.1185417527
 31
0.0
  0
LINE
  5
332
  8
0
  6
CONTINUOUS
 62
     7
 10
494.128011536
 20
1353.5327553151
 30
0.0
 11
495.2593823859
 21
1352.4013844652
 31
0.0
  0
LINE
  5
333
  8
0
  6
CONTINUOUS
 62
     7
 10
742.4022322771
 20
1322.7673657494
 30
0.0
 11
741.2708614272
 21
1321.6359948995
 31
0.0
  0
LINE
  5
334
  8
0
  6
CONTINUOUS
 62
     7
 10
713.0510562739
 20
1352.1185417527
 30
0.0
 11
742.4022322771
 21
1322.7673657494
 31
0.0
  0
LINE
  5
335
  8
0
  6
CONTINUOUS
 62
     7
 10
711.919685424
 20
1350.9871709028
 30
0.0
 11
741.2708614272
 21
1321.6359948995
 31
0.0
  0
LINE
  5
336
  8
0
  6
CONTINUOUS
 62
     7
 10
463.3626219704
 20
1322.7673657494
 30
0.0
 11
464.4939928203
 21
1321.6359948995
 31
0.0
  0
LINE
  5
337
  8
0
  6
CONTINUOUS
 62
     7
 10
492.7137979737
 20
1352.1185417527
 30
0.0
 11
463.3626219704
 21
1322.7673657494
 31
0.0
  0
LINE
  5
338
  8
0
  6
CONTINUOUS
 62
     7
 10
493.8451688236
 20
1350.9871709028
 30
0.0
 11
464.4939928203
 21
1321.6359948995
 31
0.0
  0
POLYLINE
  5
339
  8
0
  6
CONTINUOUS
 62
     7
 66
     1
 10
0.0
 20
0.0
 30
0.0
 70
   128
  0
VERTEX
  5
599
  8
0
  6
CONTINUOUS
 62
     7
 10
496.6735959483
 20
1354.5871709028
 30
0.0
  0
VERTEX
  5
59A
  8
0
  6
CONTINUOUS
 62
     7
 10
495.2687997457
 20
1354.3017670516
 30
0.0
  0
VERTEX
  5
59B
  8
0
  6
CONTINUOUS
 62
     7
 10
494.128011536
 20
1353.5327553151
 30
0.0
  0
SEQEND
  5
C19
  8
0
  6
CONTINUOUS
 62
     7
  0
POLYLINE
  5
33A
  8
0
  6
CONTINUOUS
 62
     7
 66
     1
 10
0.0
 20
0.0
 30
0.0
 70
   128
  0
VERTEX
  5
59C
  8
0
  6
CONTINUOUS
 62
     7
 10
709.0912582992
 20
1354.5871709028
 30
0.0
  0
VERTEX
  5
59D
  8
0
  6
CONTINUOUS
 62
     7
 10
710.4960545018
 20
1354.3017670516
 30
0.0
  0
VERTEX
  5
59E
  8
0
  6
CONTINUOUS
 62
     7
 10
711.6368427115
 20
1353.5327553151
 30
0.0
  0
SEQEND
  5
C1A
  8
0
  6
CONTINUOUS
 62
     7
  0
LINE
  5
33B
  8
0
  6
CONTINUOUS
 62
   218
 10
711.819685424
 20
1350.9871709028
 30
0.0
 11
493.9451688235
 21
1350.9871709028
 31
0.0
  0
DIMENSION
  5
33C
  8
細線
  2
_D_11
 10
799.4704216321
 20
1284.5871709028
 30
0.0
 11
799.4704216321
 21
1313.4011260351
 31
0.0
 70
   160
  1
<>
  3
SLDDIMSTYLE1
 13
709.0912582992
 23
1354.5871709028
 33
0.0
 14
721.2708614272
 24
1284.5871709028
 34
0.0
 50
90.0
  0
LINE
  5
348
  8
0
  6
CONTINUOUS
 62
     7
 10
1785.7493047517
 20
988.5233719318
 30
0.0
 11
1785.7493047517
 21
988.1151015259
 31
0.0
  0
LINE
  5
349
  8
0
  6
CONTINUOUS
 62
     7
 10
1785.7493047517
 20
768.0573527227
 30
0.0
 11
1785.7493047517
 21
767.6490823167
 31
0.0
  0
LINE
  5
34A
  8
0
  6
CONTINUOUS
 62
     7
 10
1588.5849413989
 20
778.7735380791
 30
0.0
 11
1588.5849413989
 21
768.5667785389
 31
0.0
  0
ARC
  5
34B
  8
0
  6
CONTINUOUS
 62
     7
 10
1793.5922028993
 20
739.7798522746
 30
0.0
 40
25.85559425748902
 50
114.4060522352
 51
150.4125229717
  0
LINE
  5
34C
  8
0
  6
CONTINUOUS
 62
     7
 10
1791.9993056721
 20
774.260163081
 30
0.0
 11
1779.499301803
 21
774.2601649819
 31
0.0
  0
LINE
  5
34D
  8
0
  6
CONTINUOUS
 62
     7
 10
1588.5849413989
 20
999.2395660488
 30
0.0
 11
1588.5849413989
 21
989.0327912994
 31
0.0
  0
ARC
  5
34E
  8
0
  6
CONTINUOUS
 62
     7
 10
1793.5923140746
 20
960.2457680991
 30
0.0
 40
25.85573954915261
 50
114.4061766826
 51
150.4124548849
  0
LINE
  5
34F
  8
0
  6
CONTINUOUS
 62
     7
 10
1791.9993056721
 20
994.7261895298
 30
0.0
 11
1779.499301803
 21
994.7261914306
 31
0.0
  0
ARC
  5
350
  8
0
  6
CONTINUOUS
 62
     7
 10
1682.3349380032
 20
1038.5886326398
 30
0.0
 40
128.5600328947367
 50
76.7881927369
 51
80.0335843546
  0
ARC
  5
351
  8
0
  6
CONTINUOUS
 62
     7
 10
1682.3349380032
 20
1038.5886326398
 30
0.0
 40
128.5600328947368
 50
99.9664156454
 51
109.7303079976
  0
ARC
  5
352
  8
0
  6
CONTINUOUS
 62
     7
 10
1723.3311826704
 20
1103.0977363134
 30
0.0
 40
50.25545514483979
 50
0.5515846098
 51
38.3766426538
  0
POLYLINE
  5
353
  8
0
  6
CONTINUOUS
 62
     7
 66
     1
 10
0.0
 20
0.0
 30
0.0
 70
   128
  0
VERTEX
  5
59F
  8
0
  6
CONTINUOUS
 62
     7
 10
1639.5824120945
 20
1159.8234666548
 30
0.0
  0
VERTEX
  5
5A0
  8
0
  6
CONTINUOUS
 62
     7
 10
1639.0721876147
 20
1159.6506495003
 30
0.0
  0
VERTEX
  5
5A1
  8
0
  6
CONTINUOUS
 62
     7
 10
1635.6764634454
 20
1158.3732380854
 30
0.0
  0
VERTEX
  5
5A2
  8
0
  6
CONTINUOUS
 62
     7
 10
1632.3502973812
 20
1156.9895665773
 30
0.0
  0
VERTEX
  5
5A3
  8
0
  6
CONTINUOUS
 62
     7
 10
1629.1003960394
 20
1155.4995037982
 30
0.0
  0
VERTEX
  5
5A4
  8
0
  6
CONTINUOUS
 62
     7
 10
1625.9339823361
 20
1153.903192257
 30
0.0
  0
VERTEX
  5
5A5
  8
0
  6
CONTINUOUS
 62
     7
 10
1622.8588429016
 20
1152.2012945226
 30
0.0
  0
VERTEX
  5
5A6
  8
0
  6
CONTINUOUS
 62
     7
 10
1619.8843343363
 20
1150.3957383765
 30
0.0
  0
VERTEX
  5
5A7
  8
0
  6
CONTINUOUS
 62
     7
 10
1617.0196499215
 20
1148.4890933424
 30
0.0
  0
VERTEX
  5
5A8
  8
0
  6
CONTINUOUS
 62
     7
 10
1614.2740092804
 20
1146.484783593
 30
0.0
  0
VERTEX
  5
5A9
  8
0
  6
CONTINUOUS
 62
     7
 10
1611.6565688157
 20
1144.3873404303
 30
0.0
  0
VERTEX
  5
5AA
  8
0
  6
CONTINUOUS
 62
     7
 10
1609.1760581934
 20
1142.2022410933
 30
0.0
  0
VERTEX
  5
5AB
  8
0
  6
CONTINUOUS
 62
     7
 10
1606.8403588743
 20
1139.9358540538
 30
0.0
  0
VERTEX
  5
5AC
  8
0
  6
CONTINUOUS
 62
     7
 10
1604.656214354
 20
1137.595034503
 30
0.0
  0
VERTEX
  5
5AD
  8
0
  6
CONTINUOUS
 62
     7
 10
1602.6290141609
 20
1135.1869753497
 30
0.0
  0
VERTEX
  5
5AE
  8
0
  6
CONTINUOUS
 62
     7
 10
1600.7627306354
 20
1132.718823989
 30
0.0
  0
VERTEX
  5
5AF
  8
0
  6
CONTINUOUS
 62
     7
 10
1599.0599979556
 20
1130.197490693
 30
0.0
  0
VERTEX
  5
5B0
  8
0
  6
CONTINUOUS
 62
     7
 10
1597.5223755548
 20
1127.6296060278
 30
0.0
  0
VERTEX
  5
5B1
  8
0
  6
CONTINUOUS
 62
     7
 10
1596.1505219775
 20
1125.0213839686
 30
0.0
  0
VERTEX
  5
5B2
  8
0
  6
CONTINUOUS
 62
     7
 10
1594.9444741023
 20
1122.378716178
 30
0.0
  0
VERTEX
  5
5B3
  8
0
  6
CONTINUOUS
 62
     7
 10
1593.9038209974
 20
1119.707290619
 30
0.0
  0
VERTEX
  5
5B4
  8
0
  6
CONTINUOUS
 62
     7
 10
1593.0278935815
 20
1117.0125063609
 30
0.0
  0
VERTEX
  5
5B5
  8
0
  6
CONTINUOUS
 62
     7
 10
1592.3158225759
 20
1114.2997442846
 30
0.0
  0
VERTEX
  5
5B6
  8
0
  6
CONTINUOUS
 62
     7
 10
1591.7666438715
 20
1111.5742697267
 30
0.0
  0
VERTEX
  5
5B7
  8
0
  6
CONTINUOUS
 62
     7
 10
1591.3792774552
 20
1108.841281138
 30
0.0
  0
VERTEX
  5
5B8
  8
0
  6
CONTINUOUS
 62
     7
 10
1591.1525906304
 20
1106.1058735708
 30
0.0
  0
VERTEX
  5
5B9
  8
0
  6
CONTINUOUS
 62
     7
 10
1591.0908665708
 20
1103.5955024268
 30
0.0
  0
SEQEND
  5
C1B
  8
0
  6
CONTINUOUS
 62
     7
  0
LINE
  5
354
  8
0
  6
CONTINUOUS
 62
     7
 10
1773.5849399186
 20
630.7755110579
 30
0.0
 11
1773.5849399186
 21
756.1867312658
 31
0.0
  0
LINE
  5
355
  8
0
  6
CONTINUOUS
 62
     7
 10
1773.5849399186
 20
759.2465160665
 30
0.0
 11
1773.5849399186
 21
976.6527474483
 31
0.0
  0
LINE
  5
356
  8
0
  6
CONTINUOUS
 62
     7
 10
1773.5849399186
 20
979.71253377
 30
0.0
 11
1773.5849399186
 21
1103.5824968398
 31
0.0
  0
LINE
  5
357
  8
0
  6
CONTINUOUS
 62
     7
 10
1591.0849396702
 20
1103.5824998812
 30
0.0
 11
1591.0849396702
 21
988.1502193603
 31
0.0
  0
LINE
  5
358
  8
0
  6
CONTINUOUS
 62
     7
 10
1591.0849396702
 20
976.6177570293
 30
0.0
 11
1591.0849396702
 21
767.6842065999
 31
0.0
  0
LINE
  5
359
  8
0
  6
CONTINUOUS
 62
     7
 10
1591.0849396702
 20
756.1517393258
 30
0.0
 11
1591.0849396702
 21
630.7755140992
 31
0.0
  0
ARC
  5
35A
  8
0
  6
CONTINUOUS
 62
     7
 10
1683.4932006813
 20
1183.8915230299
 30
0.0
 40
23.40732524667421
 50
114.3337276965
 51
180.7785978411
  0
ARC
  5
35B
  8
0
  6
CONTINUOUS
 62
     7
 10
1681.1520454651
 20
1183.891401841
 30
0.0
 40
23.43188592477755
 50
359.2266261747
 51
62.1614874993
  0
LINE
  5
35C
  8
0
  6
CONTINUOUS
 62
     7
 10
1704.5849407413
 20
1141.9790119492
 30
0.0
 11
1704.5849407413
 21
1183.5736552687
 31
0.0
  0
LINE
  5
35D
  8
0
  6
CONTINUOUS
 62
     7
 10
1660.0849388476
 20
1183.5736552687
 30
0.0
 11
1660.0849388476
 21
1141.9790119492
 31
0.0
  0
POLYLINE
  5
35E
  8
0
  6
CONTINUOUS
 62
     7
 66
     1
 10
0.0
 20
0.0
 30
0.0
 70
   128
  0
VERTEX
  5
5BA
  8
0
  6
CONTINUOUS
 62
     7
 10
1591.1040796078
 20
630.7403884424
 30
0.0
  0
VERTEX
  5
5BB
  8
0
  6
CONTINUOUS
 62
     7
 10
1591.1138682134
 20
629.3109027046
 30
0.0
  0
VERTEX
  5
5BC
  8
0
  6
CONTINUOUS
 62
     7
 10
1591.2881401636
 20
626.8964236282
 30
0.0
  0
VERTEX
  5
5BD
  8
0
  6
CONTINUOUS
 62
     7
 10
1591.6190798523
 20
624.4935225062
 30
0.0
  0
VERTEX
  5
5BE
  8
0
  6
CONTINUOUS
 62
     7
 10
1592.1058733184
 20
622.1051636199
 30
0.0
  0
VERTEX
  5
5BF
  8
0
  6
CONTINUOUS
 62
     7
 10
1592.7479199694
 20
619.7342366996
 30
0.0
  0
VERTEX
  5
5C0
  8
0
  6
CONTINUOUS
 62
     7
 10
1593.5448352152
 20
617.3836405461
 30
0.0
  0
VERTEX
  5
5C1
  8
0
  6
CONTINUOUS
 62
     7
 10
1594.4963582723
 20
615.056360582
 30
0.0
  0
VERTEX
  5
5C2
  8
0
  6
CONTINUOUS
 62
     7
 10
1595.6022626012
 20
612.7556422141
 30
0.0
  0
VERTEX
  5
5C3
  8
0
  6
CONTINUOUS
 62
     7
 10
1596.8621873197
 20
610.4849421505
 30
0.0
  0
VERTEX
  5
5C4
  8
0
  6
CONTINUOUS
 62
     7
 10
1598.2755054934
 20
608.2481139432
 30
0.0
  0
VERTEX
  5
5C5
  8
0
  6
CONTINUOUS
 62
     7
 10
1599.8411028649
 20
606.0493532353
 30
0.0
  0
VERTEX
  5
5C6
  8
0
  6
CONTINUOUS
 62
     7
 10
1601.5572566818
 20
603.8931338911
 30
0.0
  0
VERTEX
  5
5C7
  8
0
  6
CONTINUOUS
 62
     7
 10
1603.4215263782
 20
601.7841981249
 30
0.0
  0
VERTEX
  5
5C8
  8
0
  6
CONTINUOUS
 62
     7
 10
1605.4306877201
 20
599.7273755409
 30
0.0
  0
VERTEX
  5
5C9
  8
0
  6
CONTINUOUS
 62
     7
 10
1607.5807420253
 20
597.7274196638
 30
0.0
  0
VERTEX
  5
5CA
  8
0
  6
CONTINUOUS
 62
     7
 10
1609.8670248231
 20
595.7889330632
 30
0.0
  0
VERTEX
  5
5CB
  8
0
  6
CONTINUOUS
 62
     7
 10
1612.2843191239
 20
593.916204643
 30
0.0
  0
VERTEX
  5
5CC
  8
0
  6
CONTINUOUS
 62
     7
 10
1614.8270016161
 20
592.1131130844
 30
0.0
  0
VERTEX
  5
5CD
  8
0
  6
CONTINUOUS
 62
     7
 10
1617.4891684481
 20
590.3831150742
 30
0.0
  0
VERTEX
  5
5CE
  8
0
  6
CONTINUOUS
 62
     7
 10
1619.8829171486
 20
588.9484534892
 30
0.0
  0
SEQEND
  5
C1C
  8
0
  6
CONTINUOUS
 62
     7
  0
POLYLINE
  5
35F
  8
0
  6
CONTINUOUS
 62
     7
 66
     1
 10
0.0
 20
0.0
 30
0.0
 70
   128
  0
VERTEX
  5
5CF
  8
0
  6
CONTINUOUS
 62
     7
 10
1619.8829171486
 20
588.9484534892
 30
0.0
  0
VERTEX
  5
5D0
  8
0
  6
CONTINUOUS
 62
     7
 10
1621.4040380703
 20
588.0904522841
 30
0.0
  0
VERTEX
  5
5D1
  8
0
  6
CONTINUOUS
 62
     7
 10
1624.3291208947
 20
586.5470627446
 30
0.0
  0
VERTEX
  5
5D2
  8
0
  6
CONTINUOUS
 62
     7
 10
1627.3515309997
 20
585.0863576208
 30
0.0
  0
VERTEX
  5
5D3
  8
0
  6
CONTINUOUS
 62
     7
 10
1630.4663964731
 20
583.7095190645
 30
0.0
  0
VERTEX
  5
5D4
  8
0
  6
CONTINUOUS
 62
     7
 10
1633.6677854752
 20
582.4181221584
 30
0.0
  0
VERTEX
  5
5D5
  8
0
  6
CONTINUOUS
 62
     7
 10
1636.9498066668
 20
581.2135604679
 30
0.0
  0
VERTEX
  5
5D6
  8
0
  6
CONTINUOUS
 62
     7
 10
1640.3066134899
 20
580.0971043994
 30
0.0
  0
VERTEX
  5
5D7
  8
0
  6
CONTINUOUS
 62
     7
 10
1643.7323501666
 20
579.0698715429
 30
0.0
  0
VERTEX
  5
5D8
  8
0
  6
CONTINUOUS
 62
     7
 10
1647.2211385287
 20
578.1328707738
 30
0.0
  0
VERTEX
  5
5D9
  8
0
  6
CONTINUOUS
 62
     7
 10
1650.7671109446
 20
577.2870319039
 30
0.0
  0
VERTEX
  5
5DA
  8
0
  6
CONTINUOUS
 62
     7
 10
1654.3643681726
 20
576.5331691836
 30
0.0
  0
VERTEX
  5
5DB
  8
0
  6
CONTINUOUS
 62
     7
 10
1658.0069622387
 20
575.872027686
 30
0.0
  0
VERTEX
  5
5DC
  8
0
  6
CONTINUOUS
 62
     7
 10
1661.6889346323
 20
575.3042612495
 30
0.0
  0
VERTEX
  5
5DD
  8
0
  6
CONTINUOUS
 62
     7
 10
1665.4042662564
 20
574.8304127129
 30
0.0
  0
VERTEX
  5
5DE
  8
0
  6
CONTINUOUS
 62
     7
 10
1669.1469380143
 20
574.4509762631
 30
0.0
  0
VERTEX
  5
5DF
  8
0
  6
CONTINUOUS
 62
     7
 10
1672.9108649547
 20
574.1663016266
 30
0.0
  0
VERTEX
  5
5E0
  8
0
  6
CONTINUOUS
 62
     7
 10
1676.6899673948
 20
573.9766868365
 30
0.0
  0
VERTEX
  5
5E1
  8
0
  6
CONTINUOUS
 62
     7
 10
1680.4781287731
 20
573.8823295712
 30
0.0
  0
VERTEX
  5
5E2
  8
0
  6
CONTINUOUS
 62
     7
 10
1684.2692456992
 20
573.8832982494
 30
0.0
  0
VERTEX
  5
5E3
  8
0
  6
CONTINUOUS
 62
     7
 10
1688.0571831724
 20
573.9796065612
 30
0.0
  0
VERTEX
  5
5E4
  8
0
  6
CONTINUOUS
 62
     7
 10
1691.835700825
 20
574.1711465442
 30
0.0
  0
VERTEX
  5
5E5
  8
0
  6
CONTINUOUS
 62
     7
 10
1695.5986926322
 20
574.4576961913
 30
0.0
  0
VERTEX
  5
5E6
  8
0
  6
CONTINUOUS
 62
     7
 10
1699.340105253
 20
574.8389544279
 30
0.0
  0
VERTEX
  5
5E7
  8
0
  6
CONTINUOUS
 62
     7
 10
1703.0539064197
 20
575.3145471967
 30
0.0
  0
VERTEX
  5
5E8
  8
0
  6
CONTINUOUS
 62
     7
 10
1706.7341007431
 20
575.8839939989
 30
0.0
  0
VERTEX
  5
5E9
  8
0
  6
CONTINUOUS
 62
     7
 10
1710.3747455174
 20
576.5467231008
 30
0.0
  0
VERTEX
  5
5EA
  8
0
  6
CONTINUOUS
 62
     7
 10
1713.9699665258
 20
577.3020989102
 30
0.0
  0
VERTEX
  5
5EB
  8
0
  6
CONTINUOUS
 62
     7
 10
1717.5139211613
 20
578.1494128561
 30
0.0
  0
VERTEX
  5
5EC
  8
0
  6
CONTINUOUS
 62
     7
 10
1721.0008247691
 20
579.0878742548
 30
0.0
  0
VERTEX
  5
5ED
  8
0
  6
CONTINUOUS
 62
     7
 10
1724.4249611826
 20
580.11662857
 30
0.0
  0
VERTEX
  5
5EE
  8
0
  6
CONTINUOUS
 62
     7
 10
1727.7806405775
 20
581.2347695741
 30
0.0
  0
VERTEX
  5
5EF
  8
0
  6
CONTINUOUS
 62
     7
 10
1731.0622310811
 20
582.4412906867
 30
0.0
  0
VERTEX
  5
5F0
  8
0
  6
CONTINUOUS
 62
     7
 10
1734.2641113574
 20
583.7351488468
 30
0.0
  0
VERTEX
  5
5F1
  8
0
  6
CONTINUOUS
 62
     7
 10
1737.3806811439
 20
585.1152036878
 30
0.0
  0
VERTEX
  5
5F2
  8
0
  6
CONTINUOUS
 62
     7
 10
1740.4063138365
 20
586.5802084074
 30
0.0
  0
VERTEX
  5
5F3
  8
0
  6
CONTINUOUS
 62
     7
 10
1743.3353775624
 20
588.1288097758
 30
0.0
  0
VERTEX
  5
5F4
  8
0
  6
CONTINUOUS
 62
     7
 10
1746.1621508869
 20
589.7594812214
 30
0.0
  0
VERTEX
  5
5F5
  8
0
  6
CONTINUOUS
 62
     7
 10
1748.8808649603
 20
591.4704924177
 30
0.0
  0
VERTEX
  5
5F6
  8
0
  6
CONTINUOUS
 62
     7
 10
1751.4853663425
 20
593.2596173007
 30
0.0
  0
VERTEX
  5
5F7
  8
0
  6
CONTINUOUS
 62
     7
 10
1753.969491057
 20
595.124277021
 30
0.0
  0
VERTEX
  5
5F8
  8
0
  6
CONTINUOUS
 62
     7
 10
1756.3272121045
 20
597.0615460144
 30
0.0
  0
VERTEX
  5
5F9
  8
0
  6
CONTINUOUS
 62
     7
 10
1758.5525182906
 20
599.0679360498
 30
0.0
  0
VERTEX
  5
5FA
  8
0
  6
CONTINUOUS
 62
     7
 10
1760.6395617403
 20
601.1394570604
 30
0.0
  0
VERTEX
  5
5FB
  8
0
  6
CONTINUOUS
 62
     7
 10
1762.5827790694
 20
603.2714620026
 30
0.0
  0
VERTEX
  5
5FC
  8
0
  6
CONTINUOUS
 62
     7
 10
1764.3770547042
 20
605.4587776345
 30
0.0
  0
VERTEX
  5
5FD
  8
0
  6
CONTINUOUS
 62
     7
 10
1766.0179263471
 20
607.6957440339
 30
0.0
  0
VERTEX
  5
5FE
  8
0
  6
CONTINUOUS
 62
     7
 10
1767.5016956122
 20
609.97635753
 30
0.0
  0
VERTEX
  5
5FF
  8
0
  6
CONTINUOUS
 62
     7
 10
1768.8255412948
 20
612.2944699104
 30
0.0
  0
VERTEX
  5
600
  8
0
  6
CONTINUOUS
 62
     7
 10
1769.9875641526
 20
614.6439480864
 30
0.0
  0
VERTEX
  5
601
  8
0
  6
CONTINUOUS
 62
     7
 10
1770.9867263194
 20
617.0188215971
 30
0.0
  0
VERTEX
  5
602
  8
0
  6
CONTINUOUS
 62
     7
 10
1771.822730133
 20
619.4134742302
 30
0.0
  0
VERTEX
  5
603
  8
0
  6
CONTINUOUS
 62
     7
 10
1772.495878524
 20
621.822660752
 30
0.0
  0
VERTEX
  5
604
  8
0
  6
CONTINUOUS
 62
     7
 10
1773.0069116964
 20
624.2415525412
 30
0.0
  0
VERTEX
  5
605
  8
0
  6
CONTINUOUS
 62
     7
 10
1773.3568095643
 20
626.6657391237
 30
0.0
  0
VERTEX
  5
606
  8
0
  6
CONTINUOUS
 62
     7
 10
1773.5466705802
 20
629.0911643156
 30
0.0
  0
VERTEX
  5
607
  8
0
  6
CONTINUOUS
 62
     7
 10
1773.5682958647
 20
630.7863408929
 30
0.0
  0
SEQEND
  5
C1D
  8
0
  6
CONTINUOUS
 62
     7
  0
LINE
  5
360
  8
0
  6
CONTINUOUS
 62
     7
 10
1785.1070637215
 20
1149.7456466724
 30
0.0
 11
1709.6318361073
 21
1193.3165681409
 31
0.0
  0
LINE
  5
361
  8
0
  6
CONTINUOUS
 62
     7
 10
1784.9846593129
 20
1148.8810638007
 30
0.0
 11
1785.0761327091
 21
1149.5761273229
 31
0.0
  0
ARC
  5
362
  8
0
  6
CONTINUOUS
 62
     7
 10
1779.0230264708
 20
773.7017443991
 30
0.0
 40
0.469418837880791
 50
119.9136713907
 51
175.6252191405
  0
LINE
  5
363
  8
0
  6
CONTINUOUS
 62
     7
 10
1778.5549753204
 20
773.7375517436
 30
0.0
 11
1778.5549713691
 21
773.6070265762
 31
0.0
  0
POLYLINE
  5
364
  8
0
  6
CONTINUOUS
 62
     7
 66
     1
 10
0.0
 20
0.0
 30
0.0
 70
   128
  0
VERTEX
  5
608
  8
0
  6
CONTINUOUS
 62
     7
 10
1779.4993031201
 20
773.0306346389
 30
0.0
  0
VERTEX
  5
609
  8
0
  6
CONTINUOUS
 62
     7
 10
1779.3598826623
 20
773.0408300286
 30
0.0
  0
VERTEX
  5
60A
  8
0
  6
CONTINUOUS
 62
     7
 10
1779.1722870396
 20
773.0736827693
 30
0.0
  0
VERTEX
  5
60B
  8
0
  6
CONTINUOUS
 62
     7
 10
1778.9994019841
 20
773.1270289353
 30
0.0
  0
VERTEX
  5
60C
  8
0
  6
CONTINUOUS
 62
     7
 10
1778.8478629903
 20
773.1988232138
 30
0.0
  0
VERTEX
  5
60D
  8
0
  6
CONTINUOUS
 62
     7
 10
1778.7235034454
 20
773.2863017714
 30
0.0
  0
VERTEX
  5
60E
  8
0
  6
CONTINUOUS
 62
     7
 10
1778.631095163
 20
773.3861061896
 30
0.0
  0
VERTEX
  5
60F
  8
0
  6
CONTINUOUS
 62
     7
 10
1778.5741863807
 20
773.4944028374
 30
0.0
  0
VERTEX
  5
610
  8
0
  6
CONTINUOUS
 62
     7
 10
1778.5549713691
 20
773.6070265762
 30
0.0
  0
SEQEND
  5
C1E
  8
0
  6
CONTINUOUS
 62
     7
  0
LINE
  5
365
  8
0
  6
CONTINUOUS
 62
     7
 10
1791.9993050135
 20
773.0297374385
 30
0.0
 11
1792.0850567281
 21
773.0297397195
 31
0.0
  0
POLYLINE
  5
366
  8
0
  6
CONTINUOUS
 62
     7
 66
     1
 10
0.0
 20
0.0
 30
0.0
 70
   128
  0
VERTEX
  5
611
  8
0
  6
CONTINUOUS
 62
     7
 10
1793.0850565635
 20
773.6070273366
 30
0.0
  0
VERTEX
  5
612
  8
0
  6
CONTINUOUS
 62
     7
 10
1793.0658428689
 20
773.4944028374
 30
0.0
  0
VERTEX
  5
613
  8
0
  6
CONTINUOUS
 62
     7
 10
1793.0089373794
 20
773.3861080904
 30
0.0
  0
VERTEX
  5
614
  8
0
  6
CONTINUOUS
 62
     7
 10
1792.9165284384
 20
773.2863017714
 30
0.0
  0
VERTEX
  5
615
  8
0
  6
CONTINUOUS
 62
     7
 10
1792.7921656008
 20
773.1988213129
 30
0.0
  0
VERTEX
  5
616
  8
0
  6
CONTINUOUS
 62
     7
 10
1792.6406292412
 20
773.1270285551
 30
0.0
  0
VERTEX
  5
617
  8
0
  6
CONTINUOUS
 62
     7
 10
1792.467740893
 20
773.073682009
 30
0.0
  0
VERTEX
  5
618
  8
0
  6
CONTINUOUS
 62
     7
 10
1792.2801479044
 20
773.040830789
 30
0.0
  0
VERTEX
  5
619
  8
0
  6
CONTINUOUS
 62
     7
 10
1792.0850567281
 20
773.0297397195
 30
0.0
  0
SEQEND
  5
C1F
  8
0
  6
CONTINUOUS
 62
     7
  0
LINE
  5
367
  8
0
  6
CONTINUOUS
 62
     7
 10
1793.0850565635
 20
773.6070273366
 30
0.0
 11
1793.0850598562
 21
773.7375521238
 31
0.0
  0
ARC
  5
368
  8
0
  6
CONTINUOUS
 62
     7
 10
1792.6169767968
 20
773.7017230021
 30
0.0
 40
0.4694523154317282
 50
4.3771339124
 51
60.0847427446
  0
LINE
  5
369
  8
0
  6
CONTINUOUS
 62
     7
 10
1792.851101383
 20
774.1086273577
 30
0.0
 11
1788.551331923
 21
777.0668030762
 31
0.0
  0
ARC
  5
36A
  8
0
  6
CONTINUOUS
 62
     7
 10
1788.7949189399
 20
777.4820495662
 30
0.0
 40
0.4814190298760619
 50
187.9511893865
 51
239.603762352
  0
POLYLINE
  5
36B
  8
0
  6
CONTINUOUS
 62
     7
 66
     1
 10
0.0
 20
0.0
 30
0.0
 70
   128
  0
VERTEX
  5
61A
  8
0
  6
CONTINUOUS
 62
     7
 10
1788.3181281418
 20
777.4154551436
 30
0.0
  0
VERTEX
  5
61B
  8
0
  6
CONTINUOUS
 62
     7
 10
1788.1951528575
 20
777.809802843
 30
0.0
  0
VERTEX
  5
61C
  8
0
  6
CONTINUOUS
 62
     7
 10
1787.8890916632
 20
778.169436491
 30
0.0
  0
VERTEX
  5
61D
  8
0
  6
CONTINUOUS
 62
     7
 10
1787.4235448185
 20
778.4666299348
 30
0.0
  0
VERTEX
  5
61E
  8
0
  6
CONTINUOUS
 62
     7
 10
1786.8343977308
 20
778.6784741512
 30
0.0
  0
VERTEX
  5
61F
  8
0
  6
CONTINUOUS
 62
     7
 10
1786.1670609951
 20
778.7886416139
 30
0.0
  0
VERTEX
  5
620
  8
0
  6
CONTINUOUS
 62
     7
 10
1785.8200159419
 20
778.8026151297
 30
0.0
  0
SEQEND
  5
C20
  8
0
  6
CONTINUOUS
 62
     7
  0
ARC
  5
36C
  8
0
  6
CONTINUOUS
 62
     7
 10
1785.1192906268
 20
776.8429905333
 30
0.0
 40
1.886350764721964
 50
93.0167463884
 51
162.3334470225
  0
ARC
  5
36D
  8
0
  6
CONTINUOUS
 62
     7
 10
1782.8451138644
 20
777.4820472799
 30
0.0
 40
0.4814166027070244
 50
300.3964618212
 51
352.0489536361
  0
LINE
  5
36E
  8
0
  6
CONTINUOUS
 62
     7
 10
1783.088701278
 20
777.0668038365
 30
0.0
 11
1778.7889298423
 21
774.1086262172
 31
0.0
  0
POLYLINE
  5
36F
  8
0
  6
CONTINUOUS
 62
     7
 66
     1
 10
0.0
 20
0.0
 30
0.0
 70
   128
  0
VERTEX
  5
621
  8
0
  6
CONTINUOUS
 62
     7
 10
1790.7641501296
 20
777.789668678
 30
0.0
  0
VERTEX
  5
622
  8
0
  6
CONTINUOUS
 62
     7
 10
1790.5352664004
 20
778.3195734703
 30
0.0
  0
VERTEX
  5
623
  8
0
  6
CONTINUOUS
 62
     7
 10
1790.1375779575
 20
778.8151071243
 30
0.0
  0
VERTEX
  5
624
  8
0
  6
CONTINUOUS
 62
     7
 10
1789.5853231916
 20
779.2585282628
 30
0.0
  0
VERTEX
  5
625
  8
0
  6
CONTINUOUS
 62
     7
 10
1788.898278853
 20
779.6339606211
 30
0.0
  0
VERTEX
  5
626
  8
0
  6
CONTINUOUS
 62
     7
 10
1788.1010349935
 20
779.9279659622
 30
0.0
  0
VERTEX
  5
627
  8
0
  6
CONTINUOUS
 62
     7
 10
1787.2221270051
 20
780.1300223308
 30
0.0
  0
VERTEX
  5
628
  8
0
  6
CONTINUOUS
 62
     7
 10
1786.2930326569
 20
780.2328878749
 30
0.0
  0
VERTEX
  5
629
  8
0
  6
CONTINUOUS
 62
     7
 10
1785.8200139663
 20
780.2458353128
 30
0.0
  0
SEQEND
  5
C21
  8
0
  6
CONTINUOUS
 62
     7
  0
POLYLINE
  5
370
  8
0
  6
CONTINUOUS
 62
     7
 66
     1
 10
0.0
 20
0.0
 30
0.0
 70
   128
  0
VERTEX
  5
62A
  8
0
  6
CONTINUOUS
 62
     7
 10
1785.0200173907
 20
780.2086474976
 30
0.0
  0
VERTEX
  5
62B
  8
0
  6
CONTINUOUS
 62
     7
 10
1784.4179035616
 20
780.1300200497
 30
0.0
  0
VERTEX
  5
62C
  8
0
  6
CONTINUOUS
 62
     7
 10
1783.538998866
 20
779.9279671028
 30
0.0
  0
VERTEX
  5
62D
  8
0
  6
CONTINUOUS
 62
     7
 10
1782.7417530308
 20
779.6339613815
 30
0.0
  0
VERTEX
  5
62E
  8
0
  6
CONTINUOUS
 62
     7
 10
1782.0547047409
 20
779.2585290232
 30
0.0
  0
VERTEX
  5
62F
  8
0
  6
CONTINUOUS
 62
     7
 10
1781.5024572191
 20
778.8151067441
 30
0.0
  0
VERTEX
  5
630
  8
0
  6
CONTINUOUS
 62
     7
 10
1781.1047648249
 20
778.3195753711
 30
0.0
  0
VERTEX
  5
631
  8
0
  6
CONTINUOUS
 62
     7
 10
1780.8758784615
 20
777.7896690582
 30
0.0
  0
SEQEND
  5
C22
  8
0
  6
CONTINUOUS
 62
     7
  0
LINE
  5
371
  8
0
  6
CONTINUOUS
 62
     7
 10
1795.0001678715
 20
774.8753527522
 30
0.0
 11
1790.7641501296
 21
777.789668678
 31
0.0
  0
ARC
  5
372
  8
0
  6
CONTINUOUS
 62
     7
 10
1794.4148603785
 20
773.8581030284
 30
0.0
 40
1.173619129765387
 50
4.3768727857
 51
60.0846390033
  0
LINE
  5
373
  8
0
  6
CONTINUOUS
 62
     7
 10
1795.5850568104
 20
773.0297393394
 30
0.0
 11
1795.5850568104
 21
773.9476696096
 31
0.0
  0
POLYLINE
  5
374
  8
0
  6
CONTINUOUS
 62
     7
 66
     1
 10
0.0
 20
0.0
 30
0.0
 70
   128
  0
VERTEX
  5
632
  8
0
  6
CONTINUOUS
 62
     7
 10
1793.0850565635
 20
771.5865199166
 30
0.0
  0
VERTEX
  5
633
  8
0
  6
CONTINUOUS
 62
     7
 10
1793.5727864799
 20
771.6142487307
 30
0.0
  0
VERTEX
  5
634
  8
0
  6
CONTINUOUS
 62
     7
 10
1794.0417663171
 20
771.6963783013
 30
0.0
  0
VERTEX
  5
635
  8
0
  6
CONTINUOUS
 62
     7
 10
1794.4739861998
 20
771.8297440964
 30
0.0
  0
VERTEX
  5
636
  8
0
  6
CONTINUOUS
 62
     7
 10
1794.8528251233
 20
772.0092278918
 30
0.0
  0
VERTEX
  5
637
  8
0
  6
CONTINUOUS
 62
     7
 10
1795.1637345222
 20
772.2279273273
 30
0.0
  0
VERTEX
  5
638
  8
0
  6
CONTINUOUS
 62
     7
 10
1795.3947558869
 20
772.4774425546
 30
0.0
  0
VERTEX
  5
639
  8
0
  6
CONTINUOUS
 62
     7
 10
1795.5370238911
 20
772.7481788518
 30
0.0
  0
VERTEX
  5
63A
  8
0
  6
CONTINUOUS
 62
     7
 10
1795.5850568104
 20
773.0297393394
 30
0.0
  0
SEQEND
  5
C23
  8
0
  6
CONTINUOUS
 62
     7
  0
LINE
  5
375
  8
0
  6
CONTINUOUS
 62
     7
 10
1778.5549713691
 20
771.5865191562
 30
0.0
 11
1779.4993044372
 21
771.5865199166
 31
0.0
  0
LINE
  5
376
  8
0
  6
CONTINUOUS
 62
     7
 10
1791.9993076477
 20
771.5865176355
 30
0.0
 11
1793.0850565635
 21
771.5865199166
 31
0.0
  0
POLYLINE
  5
377
  8
0
  6
CONTINUOUS
 62
     7
 66
     1
 10
0.0
 20
0.0
 30
0.0
 70
   128
  0
VERTEX
  5
63B
  8
0
  6
CONTINUOUS
 62
     7
 10
1776.0549730978
 20
773.0297374385
 30
0.0
  0
VERTEX
  5
63C
  8
0
  6
CONTINUOUS
 62
     7
 10
1776.1030086513
 20
772.7481799923
 30
0.0
  0
VERTEX
  5
63D
  8
0
  6
CONTINUOUS
 62
     7
 10
1776.2452727042
 20
772.4774429347
 30
0.0
  0
VERTEX
  5
63E
  8
0
  6
CONTINUOUS
 62
     7
 10
1776.4762980202
 20
772.2279284679
 30
0.0
  0
VERTEX
  5
63F
  8
0
  6
CONTINUOUS
 62
     7
 10
1776.7872034678
 20
772.0092297926
 30
0.0
  0
VERTEX
  5
640
  8
0
  6
CONTINUOUS
 62
     7
 10
1777.1660470011
 20
771.8297448567
 30
0.0
  0
VERTEX
  5
641
  8
0
  6
CONTINUOUS
 62
     7
 10
1777.5982655668
 20
771.6963767807
 30
0.0
  0
VERTEX
  5
642
  8
0
  6
CONTINUOUS
 62
     7
 10
1778.067246721
 20
771.614249491
 30
0.0
  0
VERTEX
  5
643
  8
0
  6
CONTINUOUS
 62
     7
 10
1778.5549713691
 20
771.5865191562
 30
0.0
  0
SEQEND
  5
C24
  8
0
  6
CONTINUOUS
 62
     7
  0
LINE
  5
378
  8
0
  6
CONTINUOUS
 62
     7
 10
1776.0549730978
 20
773.9476677088
 30
0.0
 11
1776.0549730978
 21
773.0297374385
 31
0.0
  0
ARC
  5
379
  8
0
  6
CONTINUOUS
 62
     7
 10
1777.2251928878
 20
773.8580880682
 30
0.0
 40
1.173643416466188
 50
119.9159943994
 51
175.6225785557
  0
LINE
  5
37A
  8
0
  6
CONTINUOUS
 62
     7
 10
1780.8758784615
 20
777.7896690582
 30
0.0
 11
1776.6398620367
 21
774.875352372
 31
0.0
  0
LINE
  5
37B
  8
0
  6
CONTINUOUS
 62
     7
 10
1795.5850568104
 20
773.0297393394
 30
0.0
 11
1795.5850568104
 21
772.2131983936
 31
0.0
  0
POLYLINE
  5
37C
  8
0
  6
CONTINUOUS
 62
     7
 66
     1
 10
0.0
 20
0.0
 30
0.0
 70
   128
  0
VERTEX
  5
644
  8
0
  6
CONTINUOUS
 62
     7
 10
1795.5850568104
 20
772.2131983936
 30
0.0
  0
VERTEX
  5
645
  8
0
  6
CONTINUOUS
 62
     7
 10
1795.5370238911
 20
771.9316379061
 30
0.0
  0
VERTEX
  5
646
  8
0
  6
CONTINUOUS
 62
     7
 10
1795.3947558869
 20
771.6609016088
 30
0.0
  0
VERTEX
  5
647
  8
0
  6
CONTINUOUS
 62
     7
 10
1795.1637345222
 20
771.4113863816
 30
0.0
  0
VERTEX
  5
648
  8
0
  6
CONTINUOUS
 62
     7
 10
1794.8528251233
 20
771.1926869461
 30
0.0
  0
VERTEX
  5
649
  8
0
  6
CONTINUOUS
 62
     7
 10
1794.4739861998
 20
771.0132031507
 30
0.0
  0
VERTEX
  5
64A
  8
0
  6
CONTINUOUS
 62
     7
 10
1794.0417663171
 20
770.8798373556
 30
0.0
  0
VERTEX
  5
64B
  8
0
  6
CONTINUOUS
 62
     7
 10
1793.5727864799
 20
770.7977077849
 30
0.0
  0
VERTEX
  5
64C
  8
0
  6
CONTINUOUS
 62
     7
 10
1793.0850565635
 20
770.7699789708
 30
0.0
  0
SEQEND
  5
C25
  8
0
  6
CONTINUOUS
 62
     7
  0
LINE
  5
37D
  8
0
  6
CONTINUOUS
 62
     7
 10
1778.5549713691
 20
770.7699782105
 30
0.0
 11
1779.4993044372
 21
770.7699789708
 31
0.0
  0
LINE
  5
37E
  8
0
  6
CONTINUOUS
 62
     7
 10
1791.9993076477
 20
770.7699766898
 30
0.0
 11
1793.0850565635
 21
770.7699789708
 31
0.0
  0
POLYLINE
  5
37F
  8
0
  6
CONTINUOUS
 62
     7
 66
     1
 10
0.0
 20
0.0
 30
0.0
 70
   128
  0
VERTEX
  5
64D
  8
0
  6
CONTINUOUS
 62
     7
 10
1778.5549713691
 20
770.7699782105
 30
0.0
  0
VERTEX
  5
64E
  8
0
  6
CONTINUOUS
 62
     7
 10
1778.067246721
 20
770.7977085453
 30
0.0
  0
VERTEX
  5
64F
  8
0
  6
CONTINUOUS
 62
     7
 10
1777.5982655668
 20
770.8798358349
 30
0.0
  0
VERTEX
  5
650
  8
0
  6
CONTINUOUS
 62
     7
 10
1777.1660470011
 20
771.013203911
 30
0.0
  0
VERTEX
  5
651
  8
0
  6
CONTINUOUS
 62
     7
 10
1776.7872034678
 20
771.1926888469
 30
0.0
  0
VERTEX
  5
652
  8
0
  6
CONTINUOUS
 62
     7
 10
1776.4762980202
 20
771.4113875221
 30
0.0
  0
VERTEX
  5
653
  8
0
  6
CONTINUOUS
 62
     7
 10
1776.2452727042
 20
771.660901989
 30
0.0
  0
VERTEX
  5
654
  8
0
  6
CONTINUOUS
 62
     7
 10
1776.1030086513
 20
771.9316390466
 30
0.0
  0
VERTEX
  5
655
  8
0
  6
CONTINUOUS
 62
     7
 10
1776.0549730978
 20
772.2131964928
 30
0.0
  0
SEQEND
  5
C26
  8
0
  6
CONTINUOUS
 62
     7
  0
LINE
  5
380
  8
0
  6
CONTINUOUS
 62
     7
 10
1776.0549730978
 20
772.2131964928
 30
0.0
 11
1776.0549730978
 21
773.0297374385
 31
0.0
  0
LINE
  5
381
  8
0
  6
CONTINUOUS
 62
     7
 10
1792.8893983803
 20
773.2640184866
 30
0.0
 11
1792.851101383
 21
773.292086412
 31
0.0
  0
LINE
  5
382
  8
0
  6
CONTINUOUS
 62
     7
 10
1778.7889298423
 20
773.2920852715
 30
0.0
 11
1778.7506302108
 21
773.2640203874
 31
0.0
  0
LINE
  5
383
  8
0
  6
CONTINUOUS
 62
     7
 10
1792.851101383
 20
773.292086412
 30
0.0
 11
1791.9993056721
 21
773.878108807
 31
0.0
  0
LINE
  5
384
  8
0
  6
CONTINUOUS
 62
     7
 10
1791.4439794546
 20
774.2601644809
 30
0.0
 11
1788.551331923
 21
776.2502621304
 31
0.0
  0
LINE
  5
385
  8
0
  6
CONTINUOUS
 62
     7
 10
1783.088701278
 20
776.2502628908
 30
0.0
 11
1780.1960484779
 21
774.2601637206
 31
0.0
  0
LINE
  5
386
  8
0
  6
CONTINUOUS
 62
     7
 10
1779.4993057543
 20
773.7808138887
 30
0.0
 11
1778.7889298423
 21
773.2920852715
 31
0.0
  0
ARC
  5
387
  8
0
  6
CONTINUOUS
 62
     7
 10
1788.7949189399
 20
776.6655086205
 30
0.0
 40
0.4814190298765752
 50
187.9511893865
 51
239.6037623519
  0
ARC
  5
388
  8
0
  6
CONTINUOUS
 62
     7
 10
1782.8451138644
 20
776.6655063342
 30
0.0
 40
0.4814166027067677
 50
300.3964618212
 51
352.0489536361
  0
POLYLINE
  5
389
  8
0
  6
CONTINUOUS
 62
     7
 66
     1
 10
0.0
 20
0.0
 30
0.0
 70
   128
  0
VERTEX
  5
656
  8
0
  6
CONTINUOUS
 62
     7
 10
1788.3181281418
 20
776.5989141979
 30
0.0
  0
VERTEX
  5
657
  8
0
  6
CONTINUOUS
 62
     7
 10
1788.1951528575
 20
776.9932618972
 30
0.0
  0
VERTEX
  5
658
  8
0
  6
CONTINUOUS
 62
     7
 10
1787.8890916632
 20
777.3528955453
 30
0.0
  0
VERTEX
  5
659
  8
0
  6
CONTINUOUS
 62
     7
 10
1787.4235448185
 20
777.6500889891
 30
0.0
  0
VERTEX
  5
65A
  8
0
  6
CONTINUOUS
 62
     7
 10
1786.8343977308
 20
777.8619332055
 30
0.0
  0
VERTEX
  5
65B
  8
0
  6
CONTINUOUS
 62
     7
 10
1786.1670609951
 20
777.9721006682
 30
0.0
  0
VERTEX
  5
65C
  8
0
  6
CONTINUOUS
 62
     7
 10
1785.8200159419
 20
777.9860741839
 30
0.0
  0
SEQEND
  5
C27
  8
0
  6
CONTINUOUS
 62
     7
  0
ARC
  5
38A
  8
0
  6
CONTINUOUS
 62
     7
 10
1785.1192906268
 20
776.0264495875
 30
0.0
 40
1.88635076472225
 50
93.0167463884
 51
162.3334470225
  0
LINE
  5
38B
  8
0
  6
CONTINUOUS
 62
     7
 10
1778.5549713691
 20
991.2359970546
 30
0.0
 11
1779.4993044372
 21
991.235997815
 31
0.0
  0
LINE
  5
38C
  8
0
  6
CONTINUOUS
 62
     7
 10
1791.9993076477
 20
991.235995534
 30
0.0
 11
1793.0850565635
 21
991.235997815
 31
0.0
  0
LINE
  5
38D
  8
0
  6
CONTINUOUS
 62
     7
 10
1778.5549713691
 20
992.0525273539
 30
0.0
 11
1779.4993044372
 21
992.0525281142
 31
0.0
  0
LINE
  5
38E
  8
0
  6
CONTINUOUS
 62
     7
 10
1791.9993076477
 20
992.0525258332
 30
0.0
 11
1793.0850565635
 21
992.0525281142
 31
0.0
  0
LINE
  5
38F
  8
0
  6
CONTINUOUS
 62
     7
 10
1795.5850568104
 20
993.495747537
 30
0.0
 11
1795.5850568104
 21
992.6792172378
 31
0.0
  0
POLYLINE
  5
390
  8
0
  6
CONTINUOUS
 62
     7
 66
     1
 10
0.0
 20
0.0
 30
0.0
 70
   128
  0
VERTEX
  5
65D
  8
0
  6
CONTINUOUS
 62
     7
 10
1795.5850568104
 20
992.6792172378
 30
0.0
  0
VERTEX
  5
65E
  8
0
  6
CONTINUOUS
 62
     7
 10
1795.5370238911
 20
992.3976567502
 30
0.0
  0
VERTEX
  5
65F
  8
0
  6
CONTINUOUS
 62
     7
 10
1795.3947558869
 20
992.126920453
 30
0.0
  0
VERTEX
  5
660
  8
0
  6
CONTINUOUS
 62
     7
 10
1795.1637345222
 20
991.8774052257
 30
0.0
  0
VERTEX
  5
661
  8
0
  6
CONTINUOUS
 62
     7
 10
1794.8528251233
 20
991.6587057902
 30
0.0
  0
VERTEX
  5
662
  8
0
  6
CONTINUOUS
 62
     7
 10
1794.4739861998
 20
991.4792219948
 30
0.0
  0
VERTEX
  5
663
  8
0
  6
CONTINUOUS
 62
     7
 10
1794.0417663171
 20
991.3458561997
 30
0.0
  0
VERTEX
  5
664
  8
0
  6
CONTINUOUS
 62
     7
 10
1793.5727864799
 20
991.2637266291
 30
0.0
  0
VERTEX
  5
665
  8
0
  6
CONTINUOUS
 62
     7
 10
1793.0850565635
 20
991.235997815
 30
0.0
  0
SEQEND
  5
C28
  8
0
  6
CONTINUOUS
 62
     7
  0
POLYLINE
  5
391
  8
0
  6
CONTINUOUS
 62
     7
 66
     1
 10
0.0
 20
0.0
 30
0.0
 70
   128
  0
VERTEX
  5
666
  8
0
  6
CONTINUOUS
 62
     7
 10
1793.0850565635
 20
992.0525281142
 30
0.0
  0
VERTEX
  5
667
  8
0
  6
CONTINUOUS
 62
     7
 10
1793.5727864799
 20
992.0802569283
 30
0.0
  0
VERTEX
  5
668
  8
0
  6
CONTINUOUS
 62
     7
 10
1794.0417663171
 20
992.162386499
 30
0.0
  0
VERTEX
  5
669
  8
0
  6
CONTINUOUS
 62
     7
 10
1794.4739861998
 20
992.295752294
 30
0.0
  0
VERTEX
  5
66A
  8
0
  6
CONTINUOUS
 62
     7
 10
1794.8528251233
 20
992.4752360894
 30
0.0
  0
VERTEX
  5
66B
  8
0
  6
CONTINUOUS
 62
     7
 10
1795.1637345222
 20
992.693935525
 30
0.0
  0
VERTEX
  5
66C
  8
0
  6
CONTINUOUS
 62
     7
 10
1795.3947558869
 20
992.9434507522
 30
0.0
  0
VERTEX
  5
66D
  8
0
  6
CONTINUOUS
 62
     7
 10
1795.5370238911
 20
993.2141870494
 30
0.0
  0
VERTEX
  5
66E
  8
0
  6
CONTINUOUS
 62
     7
 10
1795.5850568104
 20
993.495747537
 30
0.0
  0
SEQEND
  5
C29
  8
0
  6
CONTINUOUS
 62
     7
  0
ARC
  5
392
  8
0
  6
CONTINUOUS
 62
     7
 10
1779.0230264708
 20
994.1677525968
 30
0.0
 40
0.4694188378815724
 50
119.9136713907
 51
175.6252191405
  0
LINE
  5
393
  8
0
  6
CONTINUOUS
 62
     7
 10
1778.5549753204
 20
994.2035599413
 30
0.0
 11
1778.5549713691
 21
994.0730347739
 31
0.0
  0
POLYLINE
  5
394
  8
0
  6
CONTINUOUS
 62
     7
 66
     1
 10
0.0
 20
0.0
 30
0.0
 70
   128
  0
VERTEX
  5
66F
  8
0
  6
CONTINUOUS
 62
     7
 10
1779.4993031201
 20
993.4966428365
 30
0.0
  0
VERTEX
  5
670
  8
0
  6
CONTINUOUS
 62
     7
 10
1779.3598826623
 20
993.5068382263
 30
0.0
  0
VERTEX
  5
671
  8
0
  6
CONTINUOUS
 62
     7
 10
1779.1722870396
 20
993.5396909669
 30
0.0
  0
VERTEX
  5
672
  8
0
  6
CONTINUOUS
 62
     7
 10
1778.9994019841
 20
993.5930371329
 30
0.0
  0
VERTEX
  5
673
  8
0
  6
CONTINUOUS
 62
     7
 10
1778.8478629903
 20
993.6648314114
 30
0.0
  0
VERTEX
  5
674
  8
0
  6
CONTINUOUS
 62
     7
 10
1778.7235034454
 20
993.7523099691
 30
0.0
  0
VERTEX
  5
675
  8
0
  6
CONTINUOUS
 62
     7
 10
1778.631095163
 20
993.8521143872
 30
0.0
  0
VERTEX
  5
676
  8
0
  6
CONTINUOUS
 62
     7
 10
1778.5741863807
 20
993.9604110351
 30
0.0
  0
VERTEX
  5
677
  8
0
  6
CONTINUOUS
 62
     7
 10
1778.5549713691
 20
994.0730347739
 30
0.0
  0
SEQEND
  5
C2A
  8
0
  6
CONTINUOUS
 62
     7
  0
LINE
  5
395
  8
0
  6
CONTINUOUS
 62
     7
 10
1791.9993050135
 20
993.4957456362
 30
0.0
 11
1792.0850567281
 21
993.4957479172
 31
0.0
  0
POLYLINE
  5
396
  8
0
  6
CONTINUOUS
 62
     7
 66
     1
 10
0.0
 20
0.0
 30
0.0
 70
   128
  0
VERTEX
  5
678
  8
0
  6
CONTINUOUS
 62
     7
 10
1793.0850565635
 20
994.0730355342
 30
0.0
  0
VERTEX
  5
679
  8
0
  6
CONTINUOUS
 62
     7
 10
1793.0658428689
 20
993.9604110351
 30
0.0
  0
VERTEX
  5
67A
  8
0
  6
CONTINUOUS
 62
     7
 10
1793.0089373794
 20
993.8521162881
 30
0.0
  0
VERTEX
  5
67B
  8
0
  6
CONTINUOUS
 62
     7
 10
1792.9165284384
 20
993.7523099691
 30
0.0
  0
VERTEX
  5
67C
  8
0
  6
CONTINUOUS
 62
     7
 10
1792.7921656008
 20
993.6648295106
 30
0.0
  0
VERTEX
  5
67D
  8
0
  6
CONTINUOUS
 62
     7
 10
1792.6406292412
 20
993.5930367527
 30
0.0
  0
VERTEX
  5
67E
  8
0
  6
CONTINUOUS
 62
     7
 10
1792.467740893
 20
993.5396902066
 30
0.0
  0
VERTEX
  5
67F
  8
0
  6
CONTINUOUS
 62
     7
 10
1792.2801479044
 20
993.5068389866
 30
0.0
  0
VERTEX
  5
680
  8
0
  6
CONTINUOUS
 62
     7
 10
1792.0850567281
 20
993.4957479172
 30
0.0
  0
SEQEND
  5
C2B
  8
0
  6
CONTINUOUS
 62
     7
  0
LINE
  5
397
  8
0
  6
CONTINUOUS
 62
     7
 10
1793.0850565635
 20
994.0730355342
 30
0.0
 11
1793.0850598562
 21
994.2035603215
 31
0.0
  0
ARC
  5
398
  8
0
  6
CONTINUOUS
 62
     7
 10
1792.6169767968
 20
994.1677311998
 30
0.0
 40
0.4694523154315162
 50
4.3771339124
 51
60.0847427446
  0
LINE
  5
399
  8
0
  6
CONTINUOUS
 62
     7
 10
1792.851101383
 20
994.5746355554
 30
0.0
 11
1788.551331923
 21
997.5328112738
 31
0.0
  0
ARC
  5
39A
  8
0
  6
CONTINUOUS
 62
     7
 10
1788.7949189399
 20
997.9480577638
 30
0.0
 40
0.4814190298755798
 50
187.9511893865
 51
239.603762352
  0
POLYLINE
  5
39B
  8
0
  6
CONTINUOUS
 62
     7
 66
     1
 10
0.0
 20
0.0
 30
0.0
 70
   128
  0
VERTEX
  5
681
  8
0
  6
CONTINUOUS
 62
     7
 10
1788.3181281418
 20
997.8814633413
 30
0.0
  0
VERTEX
  5
682
  8
0
  6
CONTINUOUS
 62
     7
 10
1788.1951528575
 20
998.2758110406
 30
0.0
  0
VERTEX
  5
683
  8
0
  6
CONTINUOUS
 62
     7
 10
1787.8890916632
 20
998.6354446887
 30
0.0
  0
VERTEX
  5
684
  8
0
  6
CONTINUOUS
 62
     7
 10
1787.4235448185
 20
998.9326381325
 30
0.0
  0
VERTEX
  5
685
  8
0
  6
CONTINUOUS
 62
     7
 10
1786.8343977308
 20
999.1444823489
 30
0.0
  0
VERTEX
  5
686
  8
0
  6
CONTINUOUS
 62
     7
 10
1786.1670609951
 20
999.2546498116
 30
0.0
  0
VERTEX
  5
687
  8
0
  6
CONTINUOUS
 62
     7
 10
1785.8200159419
 20
999.2686233273
 30
0.0
  0
SEQEND
  5
C2C
  8
0
  6
CONTINUOUS
 62
     7
  0
ARC
  5
39C
  8
0
  6
CONTINUOUS
 62
     7
 10
1785.1192906268
 20
997.3089987309
 30
0.0
 40
1.886350764722605
 50
93.0167463884
 51
162.3334470225
  0
ARC
  5
39D
  8
0
  6
CONTINUOUS
 62
     7
 10
1782.8451138644
 20
997.9480554776
 30
0.0
 40
0.4814166027070086
 50
300.3964618212
 51
352.0489536361
  0
LINE
  5
39E
  8
0
  6
CONTINUOUS
 62
     7
 10
1783.088701278
 20
997.5328120342
 30
0.0
 11
1778.7889298423
 21
994.5746344149
 31
0.0
  0
POLYLINE
  5
39F
  8
0
  6
CONTINUOUS
 62
     7
 66
     1
 10
0.0
 20
0.0
 30
0.0
 70
   128
  0
VERTEX
  5
688
  8
0
  6
CONTINUOUS
 62
     7
 10
1790.7641501296
 20
998.2556768757
 30
0.0
  0
VERTEX
  5
689
  8
0
  6
CONTINUOUS
 62
     7
 10
1790.5352664004
 20
998.7855816679
 30
0.0
  0
VERTEX
  5
68A
  8
0
  6
CONTINUOUS
 62
     7
 10
1790.1375779575
 20
999.2811153219
 30
0.0
  0
VERTEX
  5
68B
  8
0
  6
CONTINUOUS
 62
     7
 10
1789.5853231916
 20
999.7245364605
 30
0.0
  0
VERTEX
  5
68C
  8
0
  6
CONTINUOUS
 62
     7
 10
1788.898278853
 20
1000.0999688188
 30
0.0
  0
VERTEX
  5
68D
  8
0
  6
CONTINUOUS
 62
     7
 10
1788.1010349935
 20
1000.3939741599
 30
0.0
  0
VERTEX
  5
68E
  8
0
  6
CONTINUOUS
 62
     7
 10
1787.2221270051
 20
1000.5960305284
 30
0.0
  0
VERTEX
  5
68F
  8
0
  6
CONTINUOUS
 62
     7
 10
1786.2930326569
 20
1000.6988960726
 30
0.0
  0
VERTEX
  5
690
  8
0
  6
CONTINUOUS
 62
     7
 10
1785.8200139663
 20
1000.7118435104
 30
0.0
  0
SEQEND
  5
C2D
  8
0
  6
CONTINUOUS
 62
     7
  0
POLYLINE
  5
3A0
  8
0
  6
CONTINUOUS
 62
     7
 66
     1
 10
0.0
 20
0.0
 30
0.0
 70
   128
  0
VERTEX
  5
691
  8
0
  6
CONTINUOUS
 62
     7
 10
1785.0200173907
 20
1000.6746556952
 30
0.0
  0
VERTEX
  5
692
  8
0
  6
CONTINUOUS
 62
     7
 10
1784.4179035616
 20
1000.5960282474
 30
0.0
  0
VERTEX
  5
693
  8
0
  6
CONTINUOUS
 62
     7
 10
1783.538998866
 20
1000.3939753004
 30
0.0
  0
VERTEX
  5
694
  8
0
  6
CONTINUOUS
 62
     7
 10
1782.7417530308
 20
1000.0999695791
 30
0.0
  0
VERTEX
  5
695
  8
0
  6
CONTINUOUS
 62
     7
 10
1782.0547047409
 20
999.7245372208
 30
0.0
  0
VERTEX
  5
696
  8
0
  6
CONTINUOUS
 62
     7
 10
1781.5024572191
 20
999.2811149417
 30
0.0
  0
VERTEX
  5
697
  8
0
  6
CONTINUOUS
 62
     7
 10
1781.1047648249
 20
998.7855835688
 30
0.0
  0
VERTEX
  5
698
  8
0
  6
CONTINUOUS
 62
     7
 10
1780.8758784615
 20
998.2556772558
 30
0.0
  0
SEQEND
  5
C2E
  8
0
  6
CONTINUOUS
 62
     7
  0
LINE
  5
3A1
  8
0
  6
CONTINUOUS
 62
     7
 10
1795.0001678715
 20
995.3413609498
 30
0.0
 11
1790.7641501296
 21
998.2556768757
 31
0.0
  0
ARC
  5
3A2
  8
0
  6
CONTINUOUS
 62
     7
 10
1794.4148603785
 20
994.3241112261
 30
0.0
 40
1.173619129765319
 50
4.3768727857
 51
60.0846390033
  0
LINE
  5
3A3
  8
0
  6
CONTINUOUS
 62
     7
 10
1795.5850568104
 20
993.495747537
 30
0.0
 11
1795.5850568104
 21
994.4136778073
 31
0.0
  0
POLYLINE
  5
3A4
  8
0
  6
CONTINUOUS
 62
     7
 66
     1
 10
0.0
 20
0.0
 30
0.0
 70
   128
  0
VERTEX
  5
699
  8
0
  6
CONTINUOUS
 62
     7
 10
1776.0549730978
 20
993.4957456362
 30
0.0
  0
VERTEX
  5
69A
  8
0
  6
CONTINUOUS
 62
     7
 10
1776.1030086513
 20
993.21418819
 30
0.0
  0
VERTEX
  5
69B
  8
0
  6
CONTINUOUS
 62
     7
 10
1776.2452727042
 20
992.9434511324
 30
0.0
  0
VERTEX
  5
69C
  8
0
  6
CONTINUOUS
 62
     7
 10
1776.4762980202
 20
992.6939366655
 30
0.0
  0
VERTEX
  5
69D
  8
0
  6
CONTINUOUS
 62
     7
 10
1776.7872034678
 20
992.4752379903
 30
0.0
  0
VERTEX
  5
69E
  8
0
  6
CONTINUOUS
 62
     7
 10
1777.1660470011
 20
992.2957530544
 30
0.0
  0
VERTEX
  5
69F
  8
0
  6
CONTINUOUS
 62
     7
 10
1777.5982655668
 20
992.1623849783
 30
0.0
  0
VERTEX
  5
6A0
  8
0
  6
CONTINUOUS
 62
     7
 10
1778.067246721
 20
992.0802576887
 30
0.0
  0
VERTEX
  5
6A1
  8
0
  6
CONTINUOUS
 62
     7
 10
1778.5549713691
 20
992.0525273539
 30
0.0
  0
SEQEND
  5
C2F
  8
0
  6
CONTINUOUS
 62
     7
  0
LINE
  5
3A5
  8
0
  6
CONTINUOUS
 62
     7
 10
1776.0549730978
 20
994.4136759064
 30
0.0
 11
1776.0549730978
 21
993.4957456362
 31
0.0
  0
ARC
  5
3A6
  8
0
  6
CONTINUOUS
 62
     7
 10
1777.2251928878
 20
994.3240962659
 30
0.0
 40
1.173643416466868
 50
119.9159943994
 51
175.6225785557
  0
LINE
  5
3A7
  8
0
  6
CONTINUOUS
 62
     7
 10
1780.8758784615
 20
998.2556772558
 30
0.0
 11
1776.6398620367
 21
995.3413605697
 31
0.0
  0
POLYLINE
  5
3A8
  8
0
  6
CONTINUOUS
 62
     7
 66
     1
 10
0.0
 20
0.0
 30
0.0
 70
   128
  0
VERTEX
  5
6A2
  8
0
  6
CONTINUOUS
 62
     7
 10
1778.5549713691
 20
991.2359970546
 30
0.0
  0
VERTEX
  5
6A3
  8
0
  6
CONTINUOUS
 62
     7
 10
1778.067246721
 20
991.2637273894
 30
0.0
  0
VERTEX
  5
6A4
  8
0
  6
CONTINUOUS
 62
     7
 10
1777.5982655668
 20
991.3458546791
 30
0.0
  0
VERTEX
  5
6A5
  8
0
  6
CONTINUOUS
 62
     7
 10
1777.1660470011
 20
991.4792227551
 30
0.0
  0
VERTEX
  5
6A6
  8
0
  6
CONTINUOUS
 62
     7
 10
1776.7872034678
 20
991.658707691
 30
0.0
  0
VERTEX
  5
6A7
  8
0
  6
CONTINUOUS
 62
     7
 10
1776.4762980202
 20
991.8774063663
 30
0.0
  0
VERTEX
  5
6A8
  8
0
  6
CONTINUOUS
 62
     7
 10
1776.2452727042
 20
992.1269208331
 30
0.0
  0
VERTEX
  5
6A9
  8
0
  6
CONTINUOUS
 62
     7
 10
1776.1030086513
 20
992.3976578907
 30
0.0
  0
VERTEX
  5
6AA
  8
0
  6
CONTINUOUS
 62
     7
 10
1776.0549730978
 20
992.6792153369
 30
0.0
  0
SEQEND
  5
C30
  8
0
  6
CONTINUOUS
 62
     7
  0
LINE
  5
3A9
  8
0
  6
CONTINUOUS
 62
     7
 10
1776.0549730978
 20
992.6792153369
 30
0.0
 11
1776.0549730978
 21
993.4957456362
 31
0.0
  0
LINE
  5
3AA
  8
0
  6
CONTINUOUS
 62
     7
 10
1792.8893983803
 20
993.7300373307
 30
0.0
 11
1792.851101383
 21
993.7581052561
 31
0.0
  0
LINE
  5
3AB
  8
0
  6
CONTINUOUS
 62
     7
 10
1778.7889298423
 20
993.7581041156
 30
0.0
 11
1778.7506302108
 21
993.7300392315
 31
0.0
  0
LINE
  5
3AC
  8
0
  6
CONTINUOUS
 62
     7
 10
1792.851101383
 20
993.7581052561
 30
0.0
 11
1791.9993056721
 21
994.3441276511
 31
0.0
  0
LINE
  5
3AD
  8
0
  6
CONTINUOUS
 62
     7
 10
1791.4439794546
 20
994.7261833251
 30
0.0
 11
1788.551331923
 21
996.7162809746
 31
0.0
  0
LINE
  5
3AE
  8
0
  6
CONTINUOUS
 62
     7
 10
1783.088701278
 20
996.7162817349
 30
0.0
 11
1780.1960484779
 21
994.7261825647
 31
0.0
  0
LINE
  5
3AF
  8
0
  6
CONTINUOUS
 62
     7
 10
1779.4993057543
 20
994.2468327328
 30
0.0
 11
1778.7889298423
 21
993.7581041156
 31
0.0
  0
ARC
  5
3B0
  8
0
  6
CONTINUOUS
 62
     7
 10
1788.7949189399
 20
997.1315274646
 30
0.0
 40
0.4814190298763028
 50
187.9511893865
 51
239.6037623519
  0
ARC
  5
3B1
  8
0
  6
CONTINUOUS
 62
     7
 10
1782.8451138644
 20
997.1315251783
 30
0.0
 40
0.4814166027068149
 50
300.3964618211
 51
352.0489536361
  0
POLYLINE
  5
3B2
  8
0
  6
CONTINUOUS
 62
     7
 66
     1
 10
0.0
 20
0.0
 30
0.0
 70
   128
  0
VERTEX
  5
6AB
  8
0
  6
CONTINUOUS
 62
     7
 10
1788.3181281418
 20
997.064933042
 30
0.0
  0
VERTEX
  5
6AC
  8
0
  6
CONTINUOUS
 62
     7
 10
1788.1951528575
 20
997.4592807414
 30
0.0
  0
VERTEX
  5
6AD
  8
0
  6
CONTINUOUS
 62
     7
 10
1787.8890916632
 20
997.8189143894
 30
0.0
  0
VERTEX
  5
6AE
  8
0
  6
CONTINUOUS
 62
     7
 10
1787.4235448185
 20
998.1161078332
 30
0.0
  0
VERTEX
  5
6AF
  8
0
  6
CONTINUOUS
 62
     7
 10
1786.8343977308
 20
998.3279520496
 30
0.0
  0
VERTEX
  5
6B0
  8
0
  6
CONTINUOUS
 62
     7
 10
1786.1670609951
 20
998.4381195123
 30
0.0
  0
VERTEX
  5
6B1
  8
0
  6
CONTINUOUS
 62
     7
 10
1785.8200159419
 20
998.4520930281
 30
0.0
  0
SEQEND
  5
C31
  8
0
  6
CONTINUOUS
 62
     7
  0
ARC
  5
3B3
  8
0
  6
CONTINUOUS
 62
     7
 10
1785.1192906268
 20
996.4924684317
 30
0.0
 40
1.886350764721895
 50
93.0167463884
 51
162.3334470225
  0
POLYLINE
  5
3B4
  8
0
  6
CONTINUOUS
 62
     7
 66
     1
 10
0.0
 20
0.0
 30
0.0
 70
   128
  0
VERTEX
  5
6B2
  8
0
  6
CONTINUOUS
 62
     7
 10
1591.0849396702
 20
789.8628769837
 30
0.0
  0
VERTEX
  5
6B3
  8
0
  6
CONTINUOUS
 62
     7
 10
1590.5016114818
 20
788.1213806335
 30
0.0
  0
VERTEX
  5
6B4
  8
0
  6
CONTINUOUS
 62
     7
 10
1589.8827060848
 20
785.8000343229
 30
0.0
  0
VERTEX
  5
6B5
  8
0
  6
CONTINUOUS
 62
     7
 10
1589.4397795854
 20
783.4653090818
 30
0.0
  0
VERTEX
  5
6B6
  8
0
  6
CONTINUOUS
 62
     7
 10
1589.1736907257
 20
781.1216604987
 30
0.0
  0
VERTEX
  5
6B7
  8
0
  6
CONTINUOUS
 62
     7
 10
1589.0849347311
 20
778.7735350378
 30
0.0
  0
VERTEX
  5
6B8
  8
0
  6
CONTINUOUS
 62
     7
 10
1589.1736907257
 20
776.4254156595
 30
0.0
  0
VERTEX
  5
6B9
  8
0
  6
CONTINUOUS
 62
     7
 10
1589.4397795854
 20
774.0817609937
 30
0.0
  0
VERTEX
  5
6BA
  8
0
  6
CONTINUOUS
 62
     7
 10
1589.8827060848
 20
771.7470418354
 30
0.0
  0
VERTEX
  5
6BB
  8
0
  6
CONTINUOUS
 62
     7
 10
1590.5016114818
 20
769.4256955248
 30
0.0
  0
VERTEX
  5
6BC
  8
0
  6
CONTINUOUS
 62
     7
 10
1591.2953314696
 20
767.1221411538
 30
0.0
  0
VERTEX
  5
6BD
  8
0
  6
CONTINUOUS
 62
     7
 10
1592.262351396
 20
764.8407689218
 30
0.0
  0
VERTEX
  5
6BE
  8
0
  6
CONTINUOUS
 62
     7
 10
1593.4008378731
 20
762.5859218868
 30
0.0
  0
VERTEX
  5
6BF
  8
0
  6
CONTINUOUS
 62
     7
 10
1594.7085992646
 20
760.3618822796
 30
0.0
  0
VERTEX
  5
6C0
  8
0
  6
CONTINUOUS
 62
     7
 10
1596.1831726142
 20
758.1728943145
 30
0.0
  0
VERTEX
  5
6C1
  8
0
  6
CONTINUOUS
 62
     7
 10
1597.8217340831
 20
756.0231185679
 30
0.0
  0
VERTEX
  5
6C2
  8
0
  6
CONTINUOUS
 62
     7
 10
1599.621175341
 20
753.9166487068
 30
0.0
  0
VERTEX
  5
6C3
  8
0
  6
CONTINUOUS
 62
     7
 10
1601.5780653711
 20
751.8574970417
 30
0.0
  0
VERTEX
  5
6C4
  8
0
  6
CONTINUOUS
 62
     7
 10
1603.6886886654
 20
749.8495846422
 30
0.0
  0
VERTEX
  5
6C5
  8
0
  6
CONTINUOUS
 62
     7
 10
1605.949008346
 20
747.8967261308
 30
0.0
  0
VERTEX
  5
6C6
  8
0
  6
CONTINUOUS
 62
     7
 10
1608.3547418979
 20
746.0026467899
 30
0.0
  0
VERTEX
  5
6C7
  8
0
  6
CONTINUOUS
 62
     7
 10
1610.9012966318
 20
744.170946826
 30
0.0
  0
VERTEX
  5
6C8
  8
0
  6
CONTINUOUS
 62
     7
 10
1613.5838299406
 20
742.4051152462
 30
0.0
  0
VERTEX
  5
6C9
  8
0
  6
CONTINUOUS
 62
     7
 10
1616.3972357994
 20
740.7085133204
 30
0.0
  0
VERTEX
  5
6CA
  8
0
  6
CONTINUOUS
 62
     7
 10
1619.3361549732
 20
739.084368689
 30
0.0
  0
VERTEX
  5
6CB
  8
0
  6
CONTINUOUS
 62
     7
 10
1622.3949964189
 20
737.5357751725
 30
0.0
  0
VERTEX
  5
6CC
  8
0
  6
CONTINUOUS
 62
     7
 10
1625.5679376153
 20
736.0656804165
 30
0.0
  0
VERTEX
  5
6CD
  8
0
  6
CONTINUOUS
 62
     7
 10
1628.8489347703
 20
734.6768799984
 30
0.0
  0
VERTEX
  5
6CE
  8
0
  6
CONTINUOUS
 62
     7
 10
1632.2317514673
 20
733.3720252215
 30
0.0
  0
VERTEX
  5
6CF
  8
0
  6
CONTINUOUS
 62
     7
 10
1635.7099346286
 20
732.1535883288
 30
0.0
  0
VERTEX
  5
6D0
  8
0
  6
CONTINUOUS
 62
     7
 10
1639.2768764187
 20
731.0238997605
 30
0.0
  0
VERTEX
  5
6D1
  8
0
  6
CONTINUOUS
 62
     7
 10
1642.9257846096
 20
729.9851044337
 30
0.0
  0
VERTEX
  5
6D2
  8
0
  6
CONTINUOUS
 62
     7
 10
1646.6497089224
 20
729.0391830323
 30
0.0
  0
VERTEX
  5
6D3
  8
0
  6
CONTINUOUS
 62
     7
 10
1650.44155815
 20
728.187929957
 30
0.0
  0
VERTEX
  5
6D4
  8
0
  6
CONTINUOUS
 62
     7
 10
1654.2941251812
 20
727.4329753753
 30
0.0
  0
VERTEX
  5
6D5
  8
0
  6
CONTINUOUS
 62
     7
 10
1658.2000580252
 20
726.7757411217
 30
0.0
  0
VERTEX
  5
6D6
  8
0
  6
CONTINUOUS
 62
     7
 10
1662.1519388366
 20
726.2174924008
 30
0.0
  0
VERTEX
  5
6D7
  8
0
  6
CONTINUOUS
 62
     7
 10
1666.1422444029
 20
725.759287605
 30
0.0
  0
VERTEX
  5
6D8
  8
0
  6
CONTINUOUS
 62
     7
 10
1670.1633698522
 20
725.4020011244
 30
0.0
  0
VERTEX
  5
6D9
  8
0
  6
CONTINUOUS
 62
     7
 10
1674.2076602631
 20
725.146305099
 30
0.0
  0
VERTEX
  5
6DA
  8
0
  6
CONTINUOUS
 62
     7
 10
1678.2674291042
 20
724.9926952699
 30
0.0
  0
VERTEX
  5
6DB
  8
0
  6
CONTINUOUS
 62
     7
 10
1682.3349318919
 20
724.9414575249
 30
0.0
  0
VERTEX
  5
6DC
  8
0
  6
CONTINUOUS
 62
     7
 10
1686.4024452163
 20
724.9926952699
 30
0.0
  0
VERTEX
  5
6DD
  8
0
  6
CONTINUOUS
 62
     7
 10
1690.4622035207
 20
725.146305099
 30
0.0
  0
VERTEX
  5
6DE
  8
0
  6
CONTINUOUS
 62
     7
 10
1694.5065044683
 20
725.4020011244
 30
0.0
  0
VERTEX
  5
6DF
  8
0
  6
CONTINUOUS
 62
     7
 10
1698.5276299176
 20
725.759287605
 30
0.0
  0
VERTEX
  5
6E0
  8
0
  6
CONTINUOUS
 62
     7
 10
1702.5179302156
 20
726.2174954422
 30
0.0
  0
VERTEX
  5
6E1
  8
0
  6
CONTINUOUS
 62
     7
 10
1706.4698083928
 20
726.7757426424
 30
0.0
  0
VERTEX
  5
6E2
  8
0
  6
CONTINUOUS
 62
     7
 10
1710.3757570418
 20
727.4329738546
 30
0.0
  0
VERTEX
  5
6E3
  8
0
  6
CONTINUOUS
 62
     7
 10
1714.2283214388
 20
728.1879329983
 30
0.0
  0
VERTEX
  5
6E4
  8
0
  6
CONTINUOUS
 62
     7
 10
1718.0201680322
 20
729.0391845529
 30
0.0
  0
VERTEX
  5
6E5
  8
0
  6
CONTINUOUS
 62
     7
 10
1721.7440897109
 20
729.9851044337
 30
0.0
  0
VERTEX
  5
6E6
  8
0
  6
CONTINUOUS
 62
     7
 10
1725.3930005359
 20
731.0239012812
 30
0.0
  0
VERTEX
  5
6E7
  8
0
  6
CONTINUOUS
 62
     7
 10
1728.9599357406
 20
732.1535921305
 30
0.0
  0
VERTEX
  5
6E8
  8
0
  6
CONTINUOUS
 62
     7
 10
1732.4381307558
 20
733.3720237008
 30
0.0
  0
VERTEX
  5
6E9
  8
0
  6
CONTINUOUS
 62
     7
 10
1735.8209421844
 20
734.6768815191
 30
0.0
  0
VERTEX
  5
6EA
  8
0
  6
CONTINUOUS
 62
     7
 10
1739.101942632
 20
736.0656777553
 30
0.0
  0
VERTEX
  5
6EB
  8
0
  6
CONTINUOUS
 62
     7
 10
1742.2748838285
 20
737.5357725113
 30
0.0
  0
VERTEX
  5
6EC
  8
0
  6
CONTINUOUS
 62
     7
 10
1745.3337229693
 20
739.0843646972
 30
0.0
  0
VERTEX
  5
6ED
  8
0
  6
CONTINUOUS
 62
     7
 10
1748.2726437894
 20
740.708510279
 30
0.0
  0
VERTEX
  5
6EE
  8
0
  6
CONTINUOUS
 62
     7
 10
1751.0860512946
 20
742.4051131553
 30
0.0
  0
VERTEX
  5
6EF
  8
0
  6
CONTINUOUS
 62
     7
 10
1753.7685822985
 20
744.1709434045
 30
0.0
  0
VERTEX
  5
6F0
  8
0
  6
CONTINUOUS
 62
     7
 10
1756.3151370324
 20
746.0026433684
 30
0.0
  0
VERTEX
  5
6F1
  8
0
  6
CONTINUOUS
 62
     7
 10
1758.7208686087
 20
747.8967276515
 30
0.0
  0
VERTEX
  5
6F2
  8
0
  6
CONTINUOUS
 62
     7
 10
1760.9811935576
 20
749.8495831216
 30
0.0
  0
VERTEX
  5
6F3
  8
0
  6
CONTINUOUS
 62
     7
 10
1763.0918023639
 20
751.8574993227
 30
0.0
  0
VERTEX
  5
6F4
  8
0
  6
CONTINUOUS
 62
     7
 10
1765.0487016137
 20
753.9166502275
 30
0.0
  0
VERTEX
  5
6F5
  8
0
  6
CONTINUOUS
 62
     7
 10
1766.8481402374
 20
756.0231185679
 30
0.0
  0
SEQEND
  5
C32
  8
0
  6
CONTINUOUS
 62
     7
  0
LINE
  5
3B5
  8
0
  6
CONTINUOUS
 62
     7
 10
1766.8481402374
 20
756.0231185679
 30
0.0
 11
1767.3012952501
 21
755.9011312506
 31
0.0
  0
POLYLINE
  5
3B6
  8
0
  6
CONTINUOUS
 62
     7
 66
     1
 10
0.0
 20
0.0
 30
0.0
 70
   128
  0
VERTEX
  5
6F6
  8
0
  6
CONTINUOUS
 62
     7
 10
1591.0849396702
 20
791.1885802644
 30
0.0
  0
VERTEX
  5
6F7
  8
0
  6
CONTINUOUS
 62
     7
 10
1590.8071866702
 20
790.4874044817
 30
0.0
  0
VERTEX
  5
6F8
  8
0
  6
CONTINUOUS
 62
     7
 10
1590.0092098506
 20
788.1715022005
 30
0.0
  0
VERTEX
  5
6F9
  8
0
  6
CONTINUOUS
 62
     7
 10
1589.386980121
 20
785.8377076148
 30
0.0
  0
VERTEX
  5
6FA
  8
0
  6
CONTINUOUS
 62
     7
 10
1588.9416828614
 20
783.4904702301
 30
0.0
  0
VERTEX
  5
6FB
  8
0
  6
CONTINUOUS
 62
     7
 10
1588.6741662772
 20
781.1342517176
 30
0.0
  0
VERTEX
  5
6FC
  8
0
  6
CONTINUOUS
 62
     7
 10
1588.5849413989
 20
778.7735380791
 30
0.0
  0
VERTEX
  5
6FD
  8
0
  6
CONTINUOUS
 62
     7
 10
1588.6741662772
 20
776.4128244407
 30
0.0
  0
VERTEX
  5
6FE
  8
0
  6
CONTINUOUS
 62
     7
 10
1588.9416828614
 20
774.0566059282
 30
0.0
  0
VERTEX
  5
6FF
  8
0
  6
CONTINUOUS
 62
     7
 10
1589.3869774868
 20
771.7093639815
 30
0.0
  0
VERTEX
  5
700
  8
0
  6
CONTINUOUS
 62
     7
 10
1590.0092098506
 20
769.3755739578
 30
0.0
  0
VERTEX
  5
701
  8
0
  6
CONTINUOUS
 62
     7
 10
1590.8071893044
 20
767.0596701559
 30
0.0
  0
VERTEX
  5
702
  8
0
  6
CONTINUOUS
 62
     7
 10
1591.7793880248
 20
764.7660625438
 30
0.0
  0
VERTEX
  5
703
  8
0
  6
CONTINUOUS
 62
     7
 10
1592.9239699898
 20
762.4991200311
 30
0.0
  0
VERTEX
  5
704
  8
0
  6
CONTINUOUS
 62
     7
 10
1594.2387593683
 20
760.2631643864
 30
0.0
  0
VERTEX
  5
705
  8
0
  6
CONTINUOUS
 62
     7
 10
1595.721235252
 20
758.0624367823
 30
0.0
  0
VERTEX
  5
706
  8
0
  6
CONTINUOUS
 62
     7
 10
1597.3685790704
 20
755.9011312506
 30
0.0
  0
VERTEX
  5
707
  8
0
  6
CONTINUOUS
 62
     7
 10
1599.1776745908
 20
753.7833703508
 30
0.0
  0
VERTEX
  5
708
  8
0
  6
CONTINUOUS
 62
     7
 10
1601.1450539179
 20
751.7131755176
 30
0.0
  0
VERTEX
  5
709
  8
0
  6
CONTINUOUS
 62
     7
 10
1603.266993641
 20
749.6944967136
 30
0.0
  0
VERTEX
  5
70A
  8
0
  6
CONTINUOUS
 62
     7
 10
1605.5394292234
 20
747.7311645283
 30
0.0
  0
VERTEX
  5
70B
  8
0
  6
CONTINUOUS
 62
     7
 10
1607.9580583939
 20
745.8269278146
 30
0.0
  0
VERTEX
  5
70C
  8
0
  6
CONTINUOUS
 62
     7
 10
1610.5182719994
 20
743.9854084487
 30
0.0
  0
VERTEX
  5
70D
  8
0
  6
CONTINUOUS
 62
     7
 10
1613.2151859446
 20
742.210107223
 30
0.0
  0
VERTEX
  5
70E
  8
0
  6
CONTINUOUS
 62
     7
 10
1616.043676424
 20
740.5044078374
 30
0.0
  0
VERTEX
  5
70F
  8
0
  6
CONTINUOUS
 62
     7
 10
1618.9983545678
 20
738.87155504
 30
0.0
  0
VERTEX
  5
710
  8
0
  6
CONTINUOUS
 62
     7
 10
1622.0735996987
 20
737.3146597588
 30
0.0
  0
VERTEX
  5
711
  8
0
  6
CONTINUOUS
 62
     7
 10
1625.2635504412
 20
735.8366799041
 30
0.0
  0
VERTEX
  5
712
  8
0
  6
CONTINUOUS
 62
     7
 10
1628.5621425883
 20
734.4404350039
 30
0.0
  0
VERTEX
  5
713
  8
0
  6
CONTINUOUS
 62
     7
 10
1631.9631021865
 20
733.1285858656
 30
0.0
  0
VERTEX
  5
714
  8
0
  6
CONTINUOUS
 62
     7
 10
1635.4599353283
 20
731.9036161377
 30
0.0
  0
VERTEX
  5
715
  8
0
  6
CONTINUOUS
 62
     7
 10
1639.0460065193
 20
730.7678722271
 30
0.0
  0
VERTEX
  5
716
  8
0
  6
CONTINUOUS
 62
     7
 10
1642.714473482
 20
729.7235036132
 30
0.0
  0
VERTEX
  5
717
  8
0
  6
CONTINUOUS
 62
     7
 10
1646.4583701327
 20
728.7725122693
 30
0.0
  0
VERTEX
  5
718
  8
0
  6
CONTINUOUS
 62
     7
 10
1650.2705552147
 20
727.9166971582
 30
0.0
  0
VERTEX
  5
719
  8
0
  6
CONTINUOUS
 62
     7
 10
1654.143763665
 20
727.157685406
 30
0.0
  0
VERTEX
  5
71A
  8
0
  6
CONTINUOUS
 62
     7
 10
1658.070648761
 20
726.4969323021
 30
0.0
  0
VERTEX
  5
71B
  8
0
  6
CONTINUOUS
 62
     7
 10
1662.0437241688
 20
725.9356939271
 30
0.0
  0
VERTEX
  5
71C
  8
0
  6
CONTINUOUS
 62
     7
 10
1666.055421895
 20
725.4750301939
 30
0.0
  0
VERTEX
  5
71D
  8
0
  6
CONTINUOUS
 62
     7
 10
1670.0981028231
 20
725.1158230962
 30
0.0
  0
VERTEX
  5
71E
  8
0
  6
CONTINUOUS
 62
     7
 10
1674.1640856901
 20
724.8587599807
 30
0.0
  0
VERTEX
  5
71F
  8
0
  6
CONTINUOUS
 62
     7
 10
1678.24561811
 20
724.7043259439
 30
0.0
  0
VERTEX
  5
720
  8
0
  6
CONTINUOUS
 62
     7
 10
1682.3349371602
 20
724.652817518
 30
0.0
  0
VERTEX
  5
721
  8
0
  6
CONTINUOUS
 62
     7
 10
1686.4242562104
 20
724.7043259439
 30
0.0
  0
VERTEX
  5
722
  8
0
  6
CONTINUOUS
 62
     7
 10
1690.5057886304
 20
724.8587599807
 30
0.0
  0
VERTEX
  5
723
  8
0
  6
CONTINUOUS
 62
     7
 10
1694.5717635948
 20
725.1158246169
 30
0.0
  0
VERTEX
  5
724
  8
0
  6
CONTINUOUS
 62
     7
 10
1698.6144524255
 20
725.4750301939
 30
0.0
  0
VERTEX
  5
725
  8
0
  6
CONTINUOUS
 62
     7
 10
1702.6261475175
 20
725.9356924064
 30
0.0
  0
VERTEX
  5
726
  8
0
  6
CONTINUOUS
 62
     7
 10
1706.5992202911
 20
726.4969353434
 30
0.0
  0
VERTEX
  5
727
  8
0
  6
CONTINUOUS
 62
     7
 10
1710.5261053871
 20
727.1576884473
 30
0.0
  0
VERTEX
  5
728
  8
0
  6
CONTINUOUS
 62
     7
 10
1714.3993270083
 20
727.9166956375
 30
0.0
  0
VERTEX
  5
729
  8
0
  6
CONTINUOUS
 62
     7
 10
1718.2115094561
 20
728.7725092279
 30
0.0
  0
VERTEX
  5
72A
  8
0
  6
CONTINUOUS
 62
     7
 10
1721.9554034726
 20
729.7235051339
 30
0.0
  0
VERTEX
  5
72B
  8
0
  6
CONTINUOUS
 62
     7
 10
1725.6238704354
 20
730.7678737478
 30
0.0
  0
VERTEX
  5
72C
  8
0
  6
CONTINUOUS
 62
     7
 10
1729.2099403093
 20
731.903616898
 30
0.0
  0
VERTEX
  5
72D
  8
0
  6
CONTINUOUS
 62
     7
 10
1732.7067800365
 20
733.1285843449
 30
0.0
  0
VERTEX
  5
72E
  8
0
  6
CONTINUOUS
 62
     7
 10
1736.1077251467
 20
734.4404372849
 30
0.0
  0
VERTEX
  5
72F
  8
0
  6
CONTINUOUS
 62
     7
 10
1739.4063219036
 20
735.8366848463
 30
0.0
  0
VERTEX
  5
730
  8
0
  6
CONTINUOUS
 62
     7
 10
1742.5962746218
 20
737.3146597588
 30
0.0
  0
VERTEX
  5
731
  8
0
  6
CONTINUOUS
 62
     7
 10
1745.6715194234
 20
738.8715548499
 30
0.0
  0
VERTEX
  5
732
  8
0
  6
CONTINUOUS
 62
     7
 10
1748.6261978965
 20
740.5044078374
 30
0.0
  0
VERTEX
  5
733
  8
0
  6
CONTINUOUS
 62
     7
 10
1751.4546887051
 20
742.2101074131
 30
0.0
  0
VERTEX
  5
734
  8
0
  6
CONTINUOUS
 62
     7
 10
1754.1516023211
 20
743.9854084487
 30
0.0
  0
VERTEX
  5
735
  8
0
  6
CONTINUOUS
 62
     7
 10
1756.7118126338
 20
745.8269319964
 30
0.0
  0
VERTEX
  5
736
  8
0
  6
CONTINUOUS
 62
     7
 10
1759.1304411458
 20
747.73116833
 30
0.0
  0
VERTEX
  5
737
  8
0
  6
CONTINUOUS
 62
     7
 10
1761.402888582
 20
749.6944951929
 30
0.0
  0
VERTEX
  5
738
  8
0
  6
CONTINUOUS
 62
     7
 10
1763.5248190855
 20
751.7131747572
 30
0.0
  0
VERTEX
  5
739
  8
0
  6
CONTINUOUS
 62
     7
 10
1765.4922023639
 20
753.7833718715
 30
0.0
  0
VERTEX
  5
73A
  8
0
  6
CONTINUOUS
 62
     7
 10
1767.3012952501
 20
755.9011312506
 30
0.0
  0
SEQEND
  5
C33
  8
0
  6
CONTINUOUS
 62
     7
  0
POLYLINE
  5
3B7
  8
0
  6
CONTINUOUS
 62
     7
 66
     1
 10
0.0
 20
0.0
 30
0.0
 70
   128
  0
VERTEX
  5
73B
  8
0
  6
CONTINUOUS
 62
     7
 10
1588.5849413989
 20
768.5667785389
 30
0.0
  0
VERTEX
  5
73C
  8
0
  6
CONTINUOUS
 62
     7
 10
1588.6741662772
 20
766.2060649005
 30
0.0
  0
VERTEX
  5
73D
  8
0
  6
CONTINUOUS
 62
     7
 10
1588.9416828614
 20
763.849846388
 30
0.0
  0
VERTEX
  5
73E
  8
0
  6
CONTINUOUS
 62
     7
 10
1589.3869774868
 20
761.5026044413
 30
0.0
  0
VERTEX
  5
73F
  8
0
  6
CONTINUOUS
 62
     7
 10
1590.0092098506
 20
759.1688144176
 30
0.0
  0
VERTEX
  5
740
  8
0
  6
CONTINUOUS
 62
     7
 10
1590.8071893044
 20
756.8529106157
 30
0.0
  0
VERTEX
  5
741
  8
0
  6
CONTINUOUS
 62
     7
 10
1591.7793880248
 20
754.5593030036
 30
0.0
  0
VERTEX
  5
742
  8
0
  6
CONTINUOUS
 62
     7
 10
1592.9239699898
 20
752.2923604909
 30
0.0
  0
VERTEX
  5
743
  8
0
  6
CONTINUOUS
 62
     7
 10
1594.2387593683
 20
750.0564048462
 30
0.0
  0
VERTEX
  5
744
  8
0
  6
CONTINUOUS
 62
     7
 10
1595.721235252
 20
747.8556772421
 30
0.0
  0
VERTEX
  5
745
  8
0
  6
CONTINUOUS
 62
     7
 10
1597.3685790704
 20
745.6943717104
 30
0.0
  0
VERTEX
  5
746
  8
0
  6
CONTINUOUS
 62
     7
 10
1599.1776745908
 20
743.5766108106
 30
0.0
  0
VERTEX
  5
747
  8
0
  6
CONTINUOUS
 62
     7
 10
1601.1450539179
 20
741.5064159774
 30
0.0
  0
VERTEX
  5
748
  8
0
  6
CONTINUOUS
 62
     7
 10
1603.266993641
 20
739.4877371734
 30
0.0
  0
VERTEX
  5
749
  8
0
  6
CONTINUOUS
 62
     7
 10
1605.5394292234
 20
737.5244049881
 30
0.0
  0
VERTEX
  5
74A
  8
0
  6
CONTINUOUS
 62
     7
 10
1607.9580583939
 20
735.6201682744
 30
0.0
  0
VERTEX
  5
74B
  8
0
  6
CONTINUOUS
 62
     7
 10
1610.5182719994
 20
733.7786489085
 30
0.0
  0
VERTEX
  5
74C
  8
0
  6
CONTINUOUS
 62
     7
 10
1613.2151859446
 20
732.0033476828
 30
0.0
  0
VERTEX
  5
74D
  8
0
  6
CONTINUOUS
 62
     7
 10
1616.043676424
 20
730.2976482972
 30
0.0
  0
VERTEX
  5
74E
  8
0
  6
CONTINUOUS
 62
     7
 10
1618.9983545678
 20
728.6647954998
 30
0.0
  0
VERTEX
  5
74F
  8
0
  6
CONTINUOUS
 62
     7
 10
1622.0735996987
 20
727.1079002186
 30
0.0
  0
VERTEX
  5
750
  8
0
  6
CONTINUOUS
 62
     7
 10
1625.2635504412
 20
725.6299203639
 30
0.0
  0
VERTEX
  5
751
  8
0
  6
CONTINUOUS
 62
     7
 10
1628.5621425883
 20
724.2336754637
 30
0.0
  0
VERTEX
  5
752
  8
0
  6
CONTINUOUS
 62
     7
 10
1631.9631021865
 20
722.9218263254
 30
0.0
  0
VERTEX
  5
753
  8
0
  6
CONTINUOUS
 62
     7
 10
1635.4599353283
 20
721.6968565975
 30
0.0
  0
VERTEX
  5
754
  8
0
  6
CONTINUOUS
 62
     7
 10
1639.0460065193
 20
720.5611126869
 30
0.0
  0
VERTEX
  5
755
  8
0
  6
CONTINUOUS
 62
     7
 10
1642.714473482
 20
719.516744073
 30
0.0
  0
VERTEX
  5
756
  8
0
  6
CONTINUOUS
 62
     7
 10
1646.4583701327
 20
718.5657527291
 30
0.0
  0
VERTEX
  5
757
  8
0
  6
CONTINUOUS
 62
     7
 10
1650.2705552147
 20
717.709937618
 30
0.0
  0
VERTEX
  5
758
  8
0
  6
CONTINUOUS
 62
     7
 10
1654.143763665
 20
716.9509258658
 30
0.0
  0
VERTEX
  5
759
  8
0
  6
CONTINUOUS
 62
     7
 10
1658.070648761
 20
716.2901727619
 30
0.0
  0
VERTEX
  5
75A
  8
0
  6
CONTINUOUS
 62
     7
 10
1662.0437241688
 20
715.7289343869
 30
0.0
  0
VERTEX
  5
75B
  8
0
  6
CONTINUOUS
 62
     7
 10
1666.055421895
 20
715.2682706537
 30
0.0
  0
VERTEX
  5
75C
  8
0
  6
CONTINUOUS
 62
     7
 10
1670.0981028231
 20
714.909063556
 30
0.0
  0
VERTEX
  5
75D
  8
0
  6
CONTINUOUS
 62
     7
 10
1674.1640856901
 20
714.6520004405
 30
0.0
  0
VERTEX
  5
75E
  8
0
  6
CONTINUOUS
 62
     7
 10
1678.24561811
 20
714.4975664037
 30
0.0
  0
VERTEX
  5
75F
  8
0
  6
CONTINUOUS
 62
     7
 10
1682.3349371602
 20
714.4460579778
 30
0.0
  0
VERTEX
  5
760
  8
0
  6
CONTINUOUS
 62
     7
 10
1686.4242562104
 20
714.4975664037
 30
0.0
  0
VERTEX
  5
761
  8
0
  6
CONTINUOUS
 62
     7
 10
1690.5057886304
 20
714.6520004405
 30
0.0
  0
VERTEX
  5
762
  8
0
  6
CONTINUOUS
 62
     7
 10
1694.5717635948
 20
714.9090650767
 30
0.0
  0
VERTEX
  5
763
  8
0
  6
CONTINUOUS
 62
     7
 10
1698.6144524255
 20
715.2682706537
 30
0.0
  0
VERTEX
  5
764
  8
0
  6
CONTINUOUS
 62
     7
 10
1702.6261475175
 20
715.7289328662
 30
0.0
  0
VERTEX
  5
765
  8
0
  6
CONTINUOUS
 62
     7
 10
1706.5992202911
 20
716.2901758032
 30
0.0
  0
VERTEX
  5
766
  8
0
  6
CONTINUOUS
 62
     7
 10
1710.5261053871
 20
716.9509289071
 30
0.0
  0
VERTEX
  5
767
  8
0
  6
CONTINUOUS
 62
     7
 10
1714.3993270083
 20
717.7099360973
 30
0.0
  0
VERTEX
  5
768
  8
0
  6
CONTINUOUS
 62
     7
 10
1718.2115094561
 20
718.5657496877
 30
0.0
  0
VERTEX
  5
769
  8
0
  6
CONTINUOUS
 62
     7
 10
1721.9554034726
 20
719.5167455937
 30
0.0
  0
VERTEX
  5
76A
  8
0
  6
CONTINUOUS
 62
     7
 10
1725.6238704354
 20
720.5611142076
 30
0.0
  0
VERTEX
  5
76B
  8
0
  6
CONTINUOUS
 62
     7
 10
1729.2099403093
 20
721.6968573578
 30
0.0
  0
VERTEX
  5
76C
  8
0
  6
CONTINUOUS
 62
     7
 10
1732.7067800365
 20
722.9218248047
 30
0.0
  0
VERTEX
  5
76D
  8
0
  6
CONTINUOUS
 62
     7
 10
1736.1077251467
 20
724.2336777447
 30
0.0
  0
VERTEX
  5
76E
  8
0
  6
CONTINUOUS
 62
     7
 10
1739.4063219036
 20
725.6299253061
 30
0.0
  0
VERTEX
  5
76F
  8
0
  6
CONTINUOUS
 62
     7
 10
1742.5962746218
 20
727.1079002186
 30
0.0
  0
VERTEX
  5
770
  8
0
  6
CONTINUOUS
 62
     7
 10
1745.6715194234
 20
728.6647953097
 30
0.0
  0
VERTEX
  5
771
  8
0
  6
CONTINUOUS
 62
     7
 10
1748.6261978965
 20
730.2976482972
 30
0.0
  0
VERTEX
  5
772
  8
0
  6
CONTINUOUS
 62
     7
 10
1751.4546887051
 20
732.0033478729
 30
0.0
  0
VERTEX
  5
773
  8
0
  6
CONTINUOUS
 62
     7
 10
1754.1516023211
 20
733.7786489085
 30
0.0
  0
VERTEX
  5
774
  8
0
  6
CONTINUOUS
 62
     7
 10
1756.7118126338
 20
735.6201724562
 30
0.0
  0
VERTEX
  5
775
  8
0
  6
CONTINUOUS
 62
     7
 10
1759.1304411458
 20
737.5244087898
 30
0.0
  0
VERTEX
  5
776
  8
0
  6
CONTINUOUS
 62
     7
 10
1761.402888582
 20
739.4877356527
 30
0.0
  0
VERTEX
  5
777
  8
0
  6
CONTINUOUS
 62
     7
 10
1763.5248190855
 20
741.506415217
 30
0.0
  0
VERTEX
  5
778
  8
0
  6
CONTINUOUS
 62
     7
 10
1765.4922023639
 20
743.5766123313
 30
0.0
  0
VERTEX
  5
779
  8
0
  6
CONTINUOUS
 62
     7
 10
1767.3012952501
 20
745.6943717104
 30
0.0
  0
SEQEND
  5
C34
  8
0
  6
CONTINUOUS
 62
     7
  0
LINE
  5
3B8
  8
0
  6
CONTINUOUS
 62
     7
 10
1767.3012952501
 20
755.9011312506
 30
0.0
 11
1767.3012952501
 21
745.6943717104
 31
0.0
  0
ARC
  5
3B9
  8
0
  6
CONTINUOUS
 62
     7
 10
1622.3339689661
 20
768.2063377095
 30
0.0
 40
33.28061429554129
 50
159.8769470135
 51
170.5507261717
  0
POLYLINE
  5
3BA
  8
0
  6
CONTINUOUS
 62
     7
 66
     1
 10
0.0
 20
0.0
 30
0.0
 70
   128
  0
VERTEX
  5
77A
  8
0
  6
CONTINUOUS
 62
     7
 10
1791.9993023794
 20
767.649082858
 30
0.0
  0
VERTEX
  5
77B
  8
0
  6
CONTINUOUS
 62
     7
 10
1778.1684175967
 20
761.0702308398
 30
0.0
  0
VERTEX
  5
77C
  8
0
  6
CONTINUOUS
 62
     7
 10
1767.3012952501
 20
755.9011312506
 30
0.0
  0
SEQEND
  5
C35
  8
0
  6
CONTINUOUS
 62
     7
  0
POLYLINE
  5
3BB
  8
0
  6
CONTINUOUS
 62
     7
 66
     1
 10
0.0
 20
0.0
 30
0.0
 70
   128
  0
VERTEX
  5
77D
  8
0
  6
CONTINUOUS
 62
     7
 10
1791.9993023794
 20
768.0573540913
 30
0.0
  0
VERTEX
  5
77E
  8
0
  6
CONTINUOUS
 62
     7
 10
1777.914654056
 20
761.3181808296
 30
0.0
  0
VERTEX
  5
77F
  8
0
  6
CONTINUOUS
 62
     7
 10
1766.8481402374
 20
756.0231185679
 30
0.0
  0
SEQEND
  5
C36
  8
0
  6
CONTINUOUS
 62
     7
  0
LINE
  5
3BC
  8
0
  6
CONTINUOUS
 62
     7
 10
1791.9993023794
 20
768.0573540913
 30
0.0
 11
1791.9993023794
 21
767.649082858
 31
0.0
  0
LINE
  5
3BD
  8
0
  6
CONTINUOUS
 62
     7
 10
1771.1081039747
 20
752.5460987847
 30
0.0
 11
1767.3012952501
 21
745.6943717104
 31
0.0
  0
LINE
  5
3BE
  8
0
  6
CONTINUOUS
 62
     7
 10
1779.4993044372
 20
768.057353331
 30
0.0
 11
1774.8250187398
 21
759.8398653855
 31
0.0
  0
LINE
  5
3BF
  8
0
  6
CONTINUOUS
 62
     7
 10
1779.4993044372
 20
768.057353331
 30
0.0
 11
1791.9993023794
 21
768.0573540913
 31
0.0
  0
LINE
  5
3C0
  8
0
  6
CONTINUOUS
 62
     7
 10
1791.9993050135
 20
773.8439781851
 30
0.0
 11
1791.9993023794
 21
768.0573540913
 31
0.0
  0
LINE
  5
3C1
  8
0
  6
CONTINUOUS
 62
     7
 10
1779.4993057543
 20
773.8439766644
 30
0.0
 11
1779.4993044372
 21
768.057353331
 31
0.0
  0
POLYLINE
  5
3C2
  8
0
  6
CONTINUOUS
 62
     7
 66
     1
 10
0.0
 20
0.0
 30
0.0
 70
   128
  0
VERTEX
  5
780
  8
0
  6
CONTINUOUS
 62
     7
 10
1791.9993056721
 20
774.260163081
 30
0.0
  0
VERTEX
  5
781
  8
0
  6
CONTINUOUS
 62
     7
 10
1791.9993050135
 20
774.2558506914
 30
0.0
  0
VERTEX
  5
782
  8
0
  6
CONTINUOUS
 62
     7
 10
1791.9993069892
 20
774.130052317
 30
0.0
  0
VERTEX
  5
783
  8
0
  6
CONTINUOUS
 62
     7
 10
1791.9993050135
 20
773.8439781851
 30
0.0
  0
SEQEND
  5
C37
  8
0
  6
CONTINUOUS
 62
     7
  0
POLYLINE
  5
3C3
  8
0
  6
CONTINUOUS
 62
     7
 66
     1
 10
0.0
 20
0.0
 30
0.0
 70
   128
  0
VERTEX
  5
784
  8
0
  6
CONTINUOUS
 62
     7
 10
1779.499301803
 20
774.2601649819
 30
0.0
  0
VERTEX
  5
785
  8
0
  6
CONTINUOUS
 62
     7
 10
1779.4993070714
 20
774.2558499311
 30
0.0
  0
VERTEX
  5
786
  8
0
  6
CONTINUOUS
 62
     7
 10
1779.4993031201
 20
774.1300542179
 30
0.0
  0
VERTEX
  5
787
  8
0
  6
CONTINUOUS
 62
     7
 10
1779.4993057543
 20
773.8439766644
 30
0.0
  0
SEQEND
  5
C38
  8
0
  6
CONTINUOUS
 62
     7
  0
POLYLINE
  5
3C4
  8
0
  6
CONTINUOUS
 62
     7
 66
     1
 10
0.0
 20
0.0
 30
0.0
 70
   128
  0
VERTEX
  5
788
  8
0
  6
CONTINUOUS
 62
     7
 10
1588.5849413989
 20
989.0327912994
 30
0.0
  0
VERTEX
  5
789
  8
0
  6
CONTINUOUS
 62
     7
 10
1588.6741662772
 20
986.6720776609
 30
0.0
  0
VERTEX
  5
78A
  8
0
  6
CONTINUOUS
 62
     7
 10
1588.9416828614
 20
984.3158591484
 30
0.0
  0
VERTEX
  5
78B
  8
0
  6
CONTINUOUS
 62
     7
 10
1589.3869774868
 20
981.9686172017
 30
0.0
  0
VERTEX
  5
78C
  8
0
  6
CONTINUOUS
 62
     7
 10
1590.0092098506
 20
979.634827178
 30
0.0
  0
VERTEX
  5
78D
  8
0
  6
CONTINUOUS
 62
     7
 10
1590.8071893044
 20
977.3189233761
 30
0.0
  0
VERTEX
  5
78E
  8
0
  6
CONTINUOUS
 62
     7
 10
1591.7793880248
 20
975.025315764
 30
0.0
  0
VERTEX
  5
78F
  8
0
  6
CONTINUOUS
 62
     7
 10
1592.9239699898
 20
972.7583732513
 30
0.0
  0
VERTEX
  5
790
  8
0
  6
CONTINUOUS
 62
     7
 10
1594.2387593683
 20
970.5224176066
 30
0.0
  0
VERTEX
  5
791
  8
0
  6
CONTINUOUS
 62
     7
 10
1595.721235252
 20
968.3216900026
 30
0.0
  0
VERTEX
  5
792
  8
0
  6
CONTINUOUS
 62
     7
 10
1597.3685790704
 20
966.1603844708
 30
0.0
  0
VERTEX
  5
793
  8
0
  6
CONTINUOUS
 62
     7
 10
1599.1776745908
 20
964.042623571
 30
0.0
  0
VERTEX
  5
794
  8
0
  6
CONTINUOUS
 62
     7
 10
1601.1450539179
 20
961.9724287378
 30
0.0
  0
VERTEX
  5
795
  8
0
  6
CONTINUOUS
 62
     7
 10
1603.266993641
 20
959.9537499338
 30
0.0
  0
VERTEX
  5
796
  8
0
  6
CONTINUOUS
 62
     7
 10
1605.5394292234
 20
957.9904177485
 30
0.0
  0
VERTEX
  5
797
  8
0
  6
CONTINUOUS
 62
     7
 10
1607.9580583939
 20
956.0861810348
 30
0.0
  0
VERTEX
  5
798
  8
0
  6
CONTINUOUS
 62
     7
 10
1610.5182719994
 20
954.244661669
 30
0.0
  0
VERTEX
  5
799
  8
0
  6
CONTINUOUS
 62
     7
 10
1613.2151859446
 20
952.4693604433
 30
0.0
  0
VERTEX
  5
79A
  8
0
  6
CONTINUOUS
 62
     7
 10
1616.043676424
 20
950.7636610577
 30
0.0
  0
VERTEX
  5
79B
  8
0
  6
CONTINUOUS
 62
     7
 10
1618.9983545678
 20
949.1308082602
 30
0.0
  0
VERTEX
  5
79C
  8
0
  6
CONTINUOUS
 62
     7
 10
1622.0735996987
 20
947.5739129791
 30
0.0
  0
VERTEX
  5
79D
  8
0
  6
CONTINUOUS
 62
     7
 10
1625.2635504412
 20
946.0959331243
 30
0.0
  0
VERTEX
  5
79E
  8
0
  6
CONTINUOUS
 62
     7
 10
1628.5621425883
 20
944.6996882241
 30
0.0
  0
VERTEX
  5
79F
  8
0
  6
CONTINUOUS
 62
     7
 10
1631.9631021865
 20
943.3878390858
 30
0.0
  0
VERTEX
  5
7A0
  8
0
  6
CONTINUOUS
 62
     7
 10
1635.4599353283
 20
942.1628693579
 30
0.0
  0
VERTEX
  5
7A1
  8
0
  6
CONTINUOUS
 62
     7
 10
1639.0460065193
 20
941.0271254474
 30
0.0
  0
VERTEX
  5
7A2
  8
0
  6
CONTINUOUS
 62
     7
 10
1642.714473482
 20
939.9827568334
 30
0.0
  0
VERTEX
  5
7A3
  8
0
  6
CONTINUOUS
 62
     7
 10
1646.4583701327
 20
939.0317654895
 30
0.0
  0
VERTEX
  5
7A4
  8
0
  6
CONTINUOUS
 62
     7
 10
1650.2705552147
 20
938.1759503784
 30
0.0
  0
VERTEX
  5
7A5
  8
0
  6
CONTINUOUS
 62
     7
 10
1654.143763665
 20
937.4169386262
 30
0.0
  0
VERTEX
  5
7A6
  8
0
  6
CONTINUOUS
 62
     7
 10
1658.070648761
 20
936.7561855223
 30
0.0
  0
VERTEX
  5
7A7
  8
0
  6
CONTINUOUS
 62
     7
 10
1662.0437241688
 20
936.1949471473
 30
0.0
  0
VERTEX
  5
7A8
  8
0
  6
CONTINUOUS
 62
     7
 10
1666.055421895
 20
935.7342834142
 30
0.0
  0
VERTEX
  5
7A9
  8
0
  6
CONTINUOUS
 62
     7
 10
1670.0981028231
 20
935.3750763165
 30
0.0
  0
VERTEX
  5
7AA
  8
0
  6
CONTINUOUS
 62
     7
 10
1674.1640856901
 20
935.118013201
 30
0.0
  0
VERTEX
  5
7AB
  8
0
  6
CONTINUOUS
 62
     7
 10
1678.24561811
 20
934.9635791641
 30
0.0
  0
VERTEX
  5
7AC
  8
0
  6
CONTINUOUS
 62
     7
 10
1682.3349371602
 20
934.9120707383
 30
0.0
  0
VERTEX
  5
7AD
  8
0
  6
CONTINUOUS
 62
     7
 10
1686.4242562104
 20
934.9635791641
 30
0.0
  0
VERTEX
  5
7AE
  8
0
  6
CONTINUOUS
 62
     7
 10
1690.5057886304
 20
935.118013201
 30
0.0
  0
VERTEX
  5
7AF
  8
0
  6
CONTINUOUS
 62
     7
 10
1694.5717635948
 20
935.3750778371
 30
0.0
  0
VERTEX
  5
7B0
  8
0
  6
CONTINUOUS
 62
     7
 10
1698.6144524255
 20
935.7342834142
 30
0.0
  0
VERTEX
  5
7B1
  8
0
  6
CONTINUOUS
 62
     7
 10
1702.6261475175
 20
936.1949456266
 30
0.0
  0
VERTEX
  5
7B2
  8
0
  6
CONTINUOUS
 62
     7
 10
1706.5992202911
 20
936.7561885637
 30
0.0
  0
VERTEX
  5
7B3
  8
0
  6
CONTINUOUS
 62
     7
 10
1710.5261053871
 20
937.4169416675
 30
0.0
  0
VERTEX
  5
7B4
  8
0
  6
CONTINUOUS
 62
     7
 10
1714.3993270083
 20
938.1759488577
 30
0.0
  0
VERTEX
  5
7B5
  8
0
  6
CONTINUOUS
 62
     7
 10
1718.2115094561
 20
939.0317624482
 30
0.0
  0
VERTEX
  5
7B6
  8
0
  6
CONTINUOUS
 62
     7
 10
1721.9554034726
 20
939.9827583541
 30
0.0
  0
VERTEX
  5
7B7
  8
0
  6
CONTINUOUS
 62
     7
 10
1725.6238704354
 20
941.027126968
 30
0.0
  0
VERTEX
  5
7B8
  8
0
  6
CONTINUOUS
 62
     7
 10
1729.2099403093
 20
942.1628701182
 30
0.0
  0
VERTEX
  5
7B9
  8
0
  6
CONTINUOUS
 62
     7
 10
1732.7067800365
 20
943.3878375652
 30
0.0
  0
VERTEX
  5
7BA
  8
0
  6
CONTINUOUS
 62
     7
 10
1736.1077251467
 20
944.6996905051
 30
0.0
  0
VERTEX
  5
7BB
  8
0
  6
CONTINUOUS
 62
     7
 10
1739.4063219036
 20
946.0959380665
 30
0.0
  0
VERTEX
  5
7BC
  8
0
  6
CONTINUOUS
 62
     7
 10
1742.5962746218
 20
947.5739129791
 30
0.0
  0
VERTEX
  5
7BD
  8
0
  6
CONTINUOUS
 62
     7
 10
1745.6715194234
 20
949.1308080701
 30
0.0
  0
VERTEX
  5
7BE
  8
0
  6
CONTINUOUS
 62
     7
 10
1748.6261978965
 20
950.7636610577
 30
0.0
  0
VERTEX
  5
7BF
  8
0
  6
CONTINUOUS
 62
     7
 10
1751.4546887051
 20
952.4693606333
 30
0.0
  0
VERTEX
  5
7C0
  8
0
  6
CONTINUOUS
 62
     7
 10
1754.1516023211
 20
954.244661669
 30
0.0
  0
VERTEX
  5
7C1
  8
0
  6
CONTINUOUS
 62
     7
 10
1756.7118126338
 20
956.0861852167
 30
0.0
  0
VERTEX
  5
7C2
  8
0
  6
CONTINUOUS
 62
     7
 10
1759.1304411458
 20
957.9904215502
 30
0.0
  0
VERTEX
  5
7C3
  8
0
  6
CONTINUOUS
 62
     7
 10
1761.402888582
 20
959.9537484131
 30
0.0
  0
VERTEX
  5
7C4
  8
0
  6
CONTINUOUS
 62
     7
 10
1763.5248190855
 20
961.9724279775
 30
0.0
  0
VERTEX
  5
7C5
  8
0
  6
CONTINUOUS
 62
     7
 10
1765.4922023639
 20
964.0426250917
 30
0.0
  0
VERTEX
  5
7C6
  8
0
  6
CONTINUOUS
 62
     7
 10
1767.3012952501
 20
966.1603844708
 30
0.0
  0
SEQEND
  5
C39
  8
0
  6
CONTINUOUS
 62
     7
  0
POLYLINE
  5
3C5
  8
0
  6
CONTINUOUS
 62
     7
 66
     1
 10
0.0
 20
0.0
 30
0.0
 70
   128
  0
VERTEX
  5
7C7
  8
0
  6
CONTINUOUS
 62
     7
 10
1591.0849396702
 20
1011.6546082341
 30
0.0
  0
VERTEX
  5
7C8
  8
0
  6
CONTINUOUS
 62
     7
 10
1590.8071866702
 20
1010.9534324514
 30
0.0
  0
VERTEX
  5
7C9
  8
0
  6
CONTINUOUS
 62
     7
 10
1590.0092098506
 20
1008.6375301702
 30
0.0
  0
VERTEX
  5
7CA
  8
0
  6
CONTINUOUS
 62
     7
 10
1589.386980121
 20
1006.3037355844
 30
0.0
  0
VERTEX
  5
7CB
  8
0
  6
CONTINUOUS
 62
     7
 10
1588.9416828614
 20
1003.9564981998
 30
0.0
  0
VERTEX
  5
7CC
  8
0
  6
CONTINUOUS
 62
     7
 10
1588.6741662772
 20
1001.6002796873
 30
0.0
  0
VERTEX
  5
7CD
  8
0
  6
CONTINUOUS
 62
     7
 10
1588.5849413989
 20
999.2395660488
 30
0.0
  0
VERTEX
  5
7CE
  8
0
  6
CONTINUOUS
 62
     7
 10
1588.6741662772
 20
996.8788524103
 30
0.0
  0
VERTEX
  5
7CF
  8
0
  6
CONTINUOUS
 62
     7
 10
1588.9416828614
 20
994.5226338978
 30
0.0
  0
VERTEX
  5
7D0
  8
0
  6
CONTINUOUS
 62
     7
 10
1589.3869774868
 20
992.1753919512
 30
0.0
  0
VERTEX
  5
7D1
  8
0
  6
CONTINUOUS
 62
     7
 10
1590.0092098506
 20
989.8416019275
 30
0.0
  0
VERTEX
  5
7D2
  8
0
  6
CONTINUOUS
 62
     7
 10
1590.8071893044
 20
987.5256981256
 30
0.0
  0
VERTEX
  5
7D3
  8
0
  6
CONTINUOUS
 62
     7
 10
1591.7793880248
 20
985.2320905135
 30
0.0
  0
VERTEX
  5
7D4
  8
0
  6
CONTINUOUS
 62
     7
 10
1592.9239699898
 20
982.9651480007
 30
0.0
  0
VERTEX
  5
7D5
  8
0
  6
CONTINUOUS
 62
     7
 10
1594.2387593683
 20
980.7291923561
 30
0.0
  0
VERTEX
  5
7D6
  8
0
  6
CONTINUOUS
 62
     7
 10
1595.721235252
 20
978.528464752
 30
0.0
  0
VERTEX
  5
7D7
  8
0
  6
CONTINUOUS
 62
     7
 10
1597.3685790704
 20
976.3671592203
 30
0.0
  0
VERTEX
  5
7D8
  8
0
  6
CONTINUOUS
 62
     7
 10
1599.1776745908
 20
974.2493983205
 30
0.0
  0
VERTEX
  5
7D9
  8
0
  6
CONTINUOUS
 62
     7
 10
1601.1450539179
 20
972.1792034873
 30
0.0
  0
VERTEX
  5
7DA
  8
0
  6
CONTINUOUS
 62
     7
 10
1603.266993641
 20
970.1605246833
 30
0.0
  0
VERTEX
  5
7DB
  8
0
  6
CONTINUOUS
 62
     7
 10
1605.5394292234
 20
968.197192498
 30
0.0
  0
VERTEX
  5
7DC
  8
0
  6
CONTINUOUS
 62
     7
 10
1607.9580583939
 20
966.2929557843
 30
0.0
  0
VERTEX
  5
7DD
  8
0
  6
CONTINUOUS
 62
     7
 10
1610.5182719994
 20
964.4514364184
 30
0.0
  0
VERTEX
  5
7DE
  8
0
  6
CONTINUOUS
 62
     7
 10
1613.2151859446
 20
962.6761351927
 30
0.0
  0
VERTEX
  5
7DF
  8
0
  6
CONTINUOUS
 62
     7
 10
1616.043676424
 20
960.9704358071
 30
0.0
  0
VERTEX
  5
7E0
  8
0
  6
CONTINUOUS
 62
     7
 10
1618.9983545678
 20
959.3375830096
 30
0.0
  0
VERTEX
  5
7E1
  8
0
  6
CONTINUOUS
 62
     7
 10
1622.0735996987
 20
957.7806877285
 30
0.0
  0
VERTEX
  5
7E2
  8
0
  6
CONTINUOUS
 62
     7
 10
1625.2635504412
 20
956.3027078737
 30
0.0
  0
VERTEX
  5
7E3
  8
0
  6
CONTINUOUS
 62
     7
 10
1628.5621425883
 20
954.9064629735
 30
0.0
  0
VERTEX
  5
7E4
  8
0
  6
CONTINUOUS
 62
     7
 10
1631.9631021865
 20
953.5946138353
 30
0.0
  0
VERTEX
  5
7E5
  8
0
  6
CONTINUOUS
 62
     7
 10
1635.4599353283
 20
952.3696441074
 30
0.0
  0
VERTEX
  5
7E6
  8
0
  6
CONTINUOUS
 62
     7
 10
1639.0460065193
 20
951.2339001968
 30
0.0
  0
VERTEX
  5
7E7
  8
0
  6
CONTINUOUS
 62
     7
 10
1642.714473482
 20
950.1895315829
 30
0.0
  0
VERTEX
  5
7E8
  8
0
  6
CONTINUOUS
 62
     7
 10
1646.4583701327
 20
949.238540239
 30
0.0
  0
VERTEX
  5
7E9
  8
0
  6
CONTINUOUS
 62
     7
 10
1650.2705552147
 20
948.3827251279
 30
0.0
  0
VERTEX
  5
7EA
  8
0
  6
CONTINUOUS
 62
     7
 10
1654.143763665
 20
947.6237133756
 30
0.0
  0
VERTEX
  5
7EB
  8
0
  6
CONTINUOUS
 62
     7
 10
1658.070648761
 20
946.9629602718
 30
0.0
  0
VERTEX
  5
7EC
  8
0
  6
CONTINUOUS
 62
     7
 10
1662.0437241688
 20
946.4017218968
 30
0.0
  0
VERTEX
  5
7ED
  8
0
  6
CONTINUOUS
 62
     7
 10
1666.055421895
 20
945.9410581636
 30
0.0
  0
VERTEX
  5
7EE
  8
0
  6
CONTINUOUS
 62
     7
 10
1670.0981028231
 20
945.5818510659
 30
0.0
  0
VERTEX
  5
7EF
  8
0
  6
CONTINUOUS
 62
     7
 10
1674.1640856901
 20
945.3247879504
 30
0.0
  0
VERTEX
  5
7F0
  8
0
  6
CONTINUOUS
 62
     7
 10
1678.24561811
 20
945.1703539136
 30
0.0
  0
VERTEX
  5
7F1
  8
0
  6
CONTINUOUS
 62
     7
 10
1682.3349371602
 20
945.1188454877
 30
0.0
  0
VERTEX
  5
7F2
  8
0
  6
CONTINUOUS
 62
     7
 10
1686.4242562104
 20
945.1703539136
 30
0.0
  0
VERTEX
  5
7F3
  8
0
  6
CONTINUOUS
 62
     7
 10
1690.5057886304
 20
945.3247879504
 30
0.0
  0
VERTEX
  5
7F4
  8
0
  6
CONTINUOUS
 62
     7
 10
1694.5717635948
 20
945.5818525866
 30
0.0
  0
VERTEX
  5
7F5
  8
0
  6
CONTINUOUS
 62
     7
 10
1698.6144524255
 20
945.9410581636
 30
0.0
  0
VERTEX
  5
7F6
  8
0
  6
CONTINUOUS
 62
     7
 10
1702.6261475175
 20
946.4017203761
 30
0.0
  0
VERTEX
  5
7F7
  8
0
  6
CONTINUOUS
 62
     7
 10
1706.5992202911
 20
946.9629633131
 30
0.0
  0
VERTEX
  5
7F8
  8
0
  6
CONTINUOUS
 62
     7
 10
1710.5261053871
 20
947.623716417
 30
0.0
  0
VERTEX
  5
7F9
  8
0
  6
CONTINUOUS
 62
     7
 10
1714.3993270083
 20
948.3827236072
 30
0.0
  0
VERTEX
  5
7FA
  8
0
  6
CONTINUOUS
 62
     7
 10
1718.2115094561
 20
949.2385371976
 30
0.0
  0
VERTEX
  5
7FB
  8
0
  6
CONTINUOUS
 62
     7
 10
1721.9554034726
 20
950.1895331036
 30
0.0
  0
VERTEX
  5
7FC
  8
0
  6
CONTINUOUS
 62
     7
 10
1725.6238704354
 20
951.2339017175
 30
0.0
  0
VERTEX
  5
7FD
  8
0
  6
CONTINUOUS
 62
     7
 10
1729.2099403093
 20
952.3696448677
 30
0.0
  0
VERTEX
  5
7FE
  8
0
  6
CONTINUOUS
 62
     7
 10
1732.7067800365
 20
953.5946123146
 30
0.0
  0
VERTEX
  5
7FF
  8
0
  6
CONTINUOUS
 62
     7
 10
1736.1077251467
 20
954.9064652546
 30
0.0
  0
VERTEX
  5
800
  8
0
  6
CONTINUOUS
 62
     7
 10
1739.4063219036
 20
956.302712816
 30
0.0
  0
VERTEX
  5
801
  8
0
  6
CONTINUOUS
 62
     7
 10
1742.5962746218
 20
957.7806877285
 30
0.0
  0
VERTEX
  5
802
  8
0
  6
CONTINUOUS
 62
     7
 10
1745.6715194234
 20
959.3375828196
 30
0.0
  0
VERTEX
  5
803
  8
0
  6
CONTINUOUS
 62
     7
 10
1748.6261978965
 20
960.9704358071
 30
0.0
  0
VERTEX
  5
804
  8
0
  6
CONTINUOUS
 62
     7
 10
1751.4546887051
 20
962.6761353828
 30
0.0
  0
VERTEX
  5
805
  8
0
  6
CONTINUOUS
 62
     7
 10
1754.1516023211
 20
964.4514364184
 30
0.0
  0
VERTEX
  5
806
  8
0
  6
CONTINUOUS
 62
     7
 10
1756.7118126338
 20
966.2929599661
 30
0.0
  0
VERTEX
  5
807
  8
0
  6
CONTINUOUS
 62
     7
 10
1759.1304411458
 20
968.1971962997
 30
0.0
  0
VERTEX
  5
808
  8
0
  6
CONTINUOUS
 62
     7
 10
1761.402888582
 20
970.1605231626
 30
0.0
  0
VERTEX
  5
809
  8
0
  6
CONTINUOUS
 62
     7
 10
1763.5248190855
 20
972.1792027269
 30
0.0
  0
VERTEX
  5
80A
  8
0
  6
CONTINUOUS
 62
     7
 10
1765.4922023639
 20
974.2493998412
 30
0.0
  0
VERTEX
  5
80B
  8
0
  6
CONTINUOUS
 62
     7
 10
1767.3012952501
 20
976.3671592203
 30
0.0
  0
SEQEND
  5
C3A
  8
0
  6
CONTINUOUS
 62
     7
  0
LINE
  5
3C6
  8
0
  6
CONTINUOUS
 62
     7
 10
1767.3012952501
 20
976.3671592203
 30
0.0
 11
1767.3012952501
 21
966.1603844708
 31
0.0
  0
POLYLINE
  5
3C7
  8
0
  6
CONTINUOUS
 62
     7
 66
     1
 10
0.0
 20
0.0
 30
0.0
 70
   128
  0
VERTEX
  5
80C
  8
0
  6
CONTINUOUS
 62
     7
 10
1591.0849396702
 20
1010.3289049533
 30
0.0
  0
VERTEX
  5
80D
  8
0
  6
CONTINUOUS
 62
     7
 10
1590.5016114818
 20
1008.5874086032
 30
0.0
  0
VERTEX
  5
80E
  8
0
  6
CONTINUOUS
 62
     7
 10
1589.8827060848
 20
1006.2660622926
 30
0.0
  0
VERTEX
  5
80F
  8
0
  6
CONTINUOUS
 62
     7
 10
1589.4397795854
 20
1003.9313370515
 30
0.0
  0
VERTEX
  5
810
  8
0
  6
CONTINUOUS
 62
     7
 10
1589.1736907257
 20
1001.5876884684
 30
0.0
  0
VERTEX
  5
811
  8
0
  6
CONTINUOUS
 62
     7
 10
1589.0849347311
 20
999.2395630075
 30
0.0
  0
VERTEX
  5
812
  8
0
  6
CONTINUOUS
 62
     7
 10
1589.1736907257
 20
996.8914436292
 30
0.0
  0
VERTEX
  5
813
  8
0
  6
CONTINUOUS
 62
     7
 10
1589.4397795854
 20
994.5477889634
 30
0.0
  0
VERTEX
  5
814
  8
0
  6
CONTINUOUS
 62
     7
 10
1589.8827060848
 20
992.2130698051
 30
0.0
  0
VERTEX
  5
815
  8
0
  6
CONTINUOUS
 62
     7
 10
1590.5016114818
 20
989.8917234944
 30
0.0
  0
VERTEX
  5
816
  8
0
  6
CONTINUOUS
 62
     7
 10
1591.2953314696
 20
987.5881691235
 30
0.0
  0
VERTEX
  5
817
  8
0
  6
CONTINUOUS
 62
     7
 10
1592.262351396
 20
985.3067968915
 30
0.0
  0
VERTEX
  5
818
  8
0
  6
CONTINUOUS
 62
     7
 10
1593.4008378731
 20
983.0519498564
 30
0.0
  0
VERTEX
  5
819
  8
0
  6
CONTINUOUS
 62
     7
 10
1594.7085992646
 20
980.8279102493
 30
0.0
  0
VERTEX
  5
81A
  8
0
  6
CONTINUOUS
 62
     7
 10
1596.1831726142
 20
978.6389222842
 30
0.0
  0
VERTEX
  5
81B
  8
0
  6
CONTINUOUS
 62
     7
 10
1597.8217340831
 20
976.4891465376
 30
0.0
  0
VERTEX
  5
81C
  8
0
  6
CONTINUOUS
 62
     7
 10
1599.621175341
 20
974.3826766765
 30
0.0
  0
VERTEX
  5
81D
  8
0
  6
CONTINUOUS
 62
     7
 10
1601.5780653711
 20
972.3235250113
 30
0.0
  0
VERTEX
  5
81E
  8
0
  6
CONTINUOUS
 62
     7
 10
1603.6886886654
 20
970.3156126119
 30
0.0
  0
VERTEX
  5
81F
  8
0
  6
CONTINUOUS
 62
     7
 10
1605.949008346
 20
968.3627541005
 30
0.0
  0
VERTEX
  5
820
  8
0
  6
CONTINUOUS
 62
     7
 10
1608.3547418979
 20
966.4686747596
 30
0.0
  0
VERTEX
  5
821
  8
0
  6
CONTINUOUS
 62
     7
 10
1610.9012966318
 20
964.6369747957
 30
0.0
  0
VERTEX
  5
822
  8
0
  6
CONTINUOUS
 62
     7
 10
1613.5838299406
 20
962.8711432159
 30
0.0
  0
VERTEX
  5
823
  8
0
  6
CONTINUOUS
 62
     7
 10
1616.3972357994
 20
961.1745412901
 30
0.0
  0
VERTEX
  5
824
  8
0
  6
CONTINUOUS
 62
     7
 10
1619.3361549732
 20
959.5503966586
 30
0.0
  0
VERTEX
  5
825
  8
0
  6
CONTINUOUS
 62
     7
 10
1622.3949964189
 20
958.0018031422
 30
0.0
  0
VERTEX
  5
826
  8
0
  6
CONTINUOUS
 62
     7
 10
1625.5679376153
 20
956.5317083862
 30
0.0
  0
VERTEX
  5
827
  8
0
  6
CONTINUOUS
 62
     7
 10
1628.8489347703
 20
955.1429079681
 30
0.0
  0
VERTEX
  5
828
  8
0
  6
CONTINUOUS
 62
     7
 10
1632.2317514673
 20
953.8380531911
 30
0.0
  0
VERTEX
  5
829
  8
0
  6
CONTINUOUS
 62
     7
 10
1635.7099346286
 20
952.6196162985
 30
0.0
  0
VERTEX
  5
82A
  8
0
  6
CONTINUOUS
 62
     7
 10
1639.2768764187
 20
951.4899277302
 30
0.0
  0
VERTEX
  5
82B
  8
0
  6
CONTINUOUS
 62
     7
 10
1642.9257846096
 20
950.4511324034
 30
0.0
  0
VERTEX
  5
82C
  8
0
  6
CONTINUOUS
 62
     7
 10
1646.6497089224
 20
949.5052110019
 30
0.0
  0
VERTEX
  5
82D
  8
0
  6
CONTINUOUS
 62
     7
 10
1650.44155815
 20
948.6539579266
 30
0.0
  0
VERTEX
  5
82E
  8
0
  6
CONTINUOUS
 62
     7
 10
1654.2941251812
 20
947.899003345
 30
0.0
  0
VERTEX
  5
82F
  8
0
  6
CONTINUOUS
 62
     7
 10
1658.2000580252
 20
947.2417690914
 30
0.0
  0
VERTEX
  5
830
  8
0
  6
CONTINUOUS
 62
     7
 10
1662.1519388366
 20
946.6835203705
 30
0.0
  0
VERTEX
  5
831
  8
0
  6
CONTINUOUS
 62
     7
 10
1666.1422444029
 20
946.2253155747
 30
0.0
  0
VERTEX
  5
832
  8
0
  6
CONTINUOUS
 62
     7
 10
1670.1633698522
 20
945.8680290941
 30
0.0
  0
VERTEX
  5
833
  8
0
  6
CONTINUOUS
 62
     7
 10
1674.2076602631
 20
945.6123330686
 30
0.0
  0
VERTEX
  5
834
  8
0
  6
CONTINUOUS
 62
     7
 10
1678.2674291042
 20
945.4587232396
 30
0.0
  0
VERTEX
  5
835
  8
0
  6
CONTINUOUS
 62
     7
 10
1682.3349318919
 20
945.4074854945
 30
0.0
  0
VERTEX
  5
836
  8
0
  6
CONTINUOUS
 62
     7
 10
1686.4024452163
 20
945.4587232396
 30
0.0
  0
VERTEX
  5
837
  8
0
  6
CONTINUOUS
 62
     7
 10
1690.4622035207
 20
945.6123330686
 30
0.0
  0
VERTEX
  5
838
  8
0
  6
CONTINUOUS
 62
     7
 10
1694.5065044683
 20
945.8680290941
 30
0.0
  0
VERTEX
  5
839
  8
0
  6
CONTINUOUS
 62
     7
 10
1698.5276299176
 20
946.2253155747
 30
0.0
  0
VERTEX
  5
83A
  8
0
  6
CONTINUOUS
 62
     7
 10
1702.5179302156
 20
946.6835234119
 30
0.0
  0
VERTEX
  5
83B
  8
0
  6
CONTINUOUS
 62
     7
 10
1706.4698083928
 20
947.2417706121
 30
0.0
  0
VERTEX
  5
83C
  8
0
  6
CONTINUOUS
 62
     7
 10
1710.3757570418
 20
947.8990018243
 30
0.0
  0
VERTEX
  5
83D
  8
0
  6
CONTINUOUS
 62
     7
 10
1714.2283214388
 20
948.653960968
 30
0.0
  0
VERTEX
  5
83E
  8
0
  6
CONTINUOUS
 62
     7
 10
1718.0201680322
 20
949.5052125226
 30
0.0
  0
VERTEX
  5
83F
  8
0
  6
CONTINUOUS
 62
     7
 10
1721.7440897109
 20
950.4511324034
 30
0.0
  0
VERTEX
  5
840
  8
0
  6
CONTINUOUS
 62
     7
 10
1725.3930005359
 20
951.4899292509
 30
0.0
  0
VERTEX
  5
841
  8
0
  6
CONTINUOUS
 62
     7
 10
1728.9599357406
 20
952.6196201002
 30
0.0
  0
VERTEX
  5
842
  8
0
  6
CONTINUOUS
 62
     7
 10
1732.4381307558
 20
953.8380516705
 30
0.0
  0
VERTEX
  5
843
  8
0
  6
CONTINUOUS
 62
     7
 10
1735.8209421844
 20
955.1429094888
 30
0.0
  0
VERTEX
  5
844
  8
0
  6
CONTINUOUS
 62
     7
 10
1739.101942632
 20
956.531705725
 30
0.0
  0
VERTEX
  5
845
  8
0
  6
CONTINUOUS
 62
     7
 10
1742.2748838285
 20
958.001800481
 30
0.0
  0
VERTEX
  5
846
  8
0
  6
CONTINUOUS
 62
     7
 10
1745.3337229693
 20
959.5503926669
 30
0.0
  0
VERTEX
  5
847
  8
0
  6
CONTINUOUS
 62
     7
 10
1748.2726437894
 20
961.1745382487
 30
0.0
  0
VERTEX
  5
848
  8
0
  6
CONTINUOUS
 62
     7
 10
1751.0860512946
 20
962.8711411249
 30
0.0
  0
VERTEX
  5
849
  8
0
  6
CONTINUOUS
 62
     7
 10
1753.7685822985
 20
964.6369713742
 30
0.0
  0
VERTEX
  5
84A
  8
0
  6
CONTINUOUS
 62
     7
 10
1756.3151370324
 20
966.4686713381
 30
0.0
  0
VERTEX
  5
84B
  8
0
  6
CONTINUOUS
 62
     7
 10
1758.7208686087
 20
968.3627556212
 30
0.0
  0
VERTEX
  5
84C
  8
0
  6
CONTINUOUS
 62
     7
 10
1760.9811935576
 20
970.3156110912
 30
0.0
  0
VERTEX
  5
84D
  8
0
  6
CONTINUOUS
 62
     7
 10
1763.0918023639
 20
972.3235272924
 30
0.0
  0
VERTEX
  5
84E
  8
0
  6
CONTINUOUS
 62
     7
 10
1765.0487016137
 20
974.3826781972
 30
0.0
  0
VERTEX
  5
84F
  8
0
  6
CONTINUOUS
 62
     7
 10
1766.8481402374
 20
976.4891465376
 30
0.0
  0
SEQEND
  5
C3B
  8
0
  6
CONTINUOUS
 62
     7
  0
LINE
  5
3C8
  8
0
  6
CONTINUOUS
 62
     7
 10
1766.8481402374
 20
976.4891465376
 30
0.0
 11
1767.3012952501
 21
976.3671592203
 31
0.0
  0
ARC
  5
3C9
  8
0
  6
CONTINUOUS
 62
     7
 10
1622.3339689661
 20
988.6723504699
 30
0.0
 40
33.28061429554341
 50
159.8769470135
 51
170.5507261717
  0
POLYLINE
  5
3CA
  8
0
  6
CONTINUOUS
 62
     7
 66
     1
 10
0.0
 20
0.0
 30
0.0
 70
   128
  0
VERTEX
  5
850
  8
0
  6
CONTINUOUS
 62
     7
 10
1791.9993023794
 20
988.1150971394
 30
0.0
  0
VERTEX
  5
851
  8
0
  6
CONTINUOUS
 62
     7
 10
1778.1684175967
 20
981.5362512048
 30
0.0
  0
VERTEX
  5
852
  8
0
  6
CONTINUOUS
 62
     7
 10
1767.3012952501
 20
976.3671592203
 30
0.0
  0
SEQEND
  5
C3C
  8
0
  6
CONTINUOUS
 62
     7
  0
POLYLINE
  5
3CB
  8
0
  6
CONTINUOUS
 62
     7
 66
     1
 10
0.0
 20
0.0
 30
0.0
 70
   128
  0
VERTEX
  5
853
  8
0
  6
CONTINUOUS
 62
     7
 10
1791.9993023794
 20
988.523362289
 30
0.0
  0
VERTEX
  5
854
  8
0
  6
CONTINUOUS
 62
     7
 10
1777.914654056
 20
981.7842011947
 30
0.0
  0
VERTEX
  5
855
  8
0
  6
CONTINUOUS
 62
     7
 10
1766.8481402374
 20
976.4891465376
 30
0.0
  0
SEQEND
  5
C3D
  8
0
  6
CONTINUOUS
 62
     7
  0
LINE
  5
3CC
  8
0
  6
CONTINUOUS
 62
     7
 10
1791.9993023794
 20
988.523362289
 30
0.0
 11
1791.9993023794
 21
988.1150971394
 31
0.0
  0
LINE
  5
3CD
  8
0
  6
CONTINUOUS
 62
     7
 10
1771.1081039747
 20
973.0121130661
 30
0.0
 11
1767.3012952501
 21
966.1603844708
 31
0.0
  0
LINE
  5
3CE
  8
0
  6
CONTINUOUS
 62
     7
 10
1779.4993044372
 20
988.5233615287
 30
0.0
 11
1774.8250187398
 21
980.3058857506
 31
0.0
  0
LINE
  5
3CF
  8
0
  6
CONTINUOUS
 62
     7
 10
1779.4993044372
 20
988.5233615287
 30
0.0
 11
1791.9993023794
 21
988.523362289
 31
0.0
  0
LINE
  5
3D0
  8
0
  6
CONTINUOUS
 62
     7
 10
1791.9993050135
 20
994.310001592
 30
0.0
 11
1791.9993023794
 21
988.523362289
 31
0.0
  0
LINE
  5
3D1
  8
0
  6
CONTINUOUS
 62
     7
 10
1779.4993057543
 20
994.3100000714
 30
0.0
 11
1779.4993044372
 21
988.5233615287
 31
0.0
  0
POLYLINE
  5
3D2
  8
0
  6
CONTINUOUS
 62
     7
 66
     1
 10
0.0
 20
0.0
 30
0.0
 70
   128
  0
VERTEX
  5
856
  8
0
  6
CONTINUOUS
 62
     7
 10
1791.9993056721
 20
994.7261895298
 30
0.0
  0
VERTEX
  5
857
  8
0
  6
CONTINUOUS
 62
     7
 10
1791.9993050135
 20
994.7218725774
 30
0.0
  0
VERTEX
  5
858
  8
0
  6
CONTINUOUS
 62
     7
 10
1791.9993069892
 20
994.5960833286
 30
0.0
  0
VERTEX
  5
859
  8
0
  6
CONTINUOUS
 62
     7
 10
1791.9993050135
 20
994.310001592
 30
0.0
  0
SEQEND
  5
C3E
  8
0
  6
CONTINUOUS
 62
     7
  0
POLYLINE
  5
3D3
  8
0
  6
CONTINUOUS
 62
     7
 66
     1
 10
0.0
 20
0.0
 30
0.0
 70
   128
  0
VERTEX
  5
85A
  8
0
  6
CONTINUOUS
 62
     7
 10
1779.499301803
 20
994.7261914306
 30
0.0
  0
VERTEX
  5
85B
  8
0
  6
CONTINUOUS
 62
     7
 10
1779.4993070714
 20
994.7218718171
 30
0.0
  0
VERTEX
  5
85C
  8
0
  6
CONTINUOUS
 62
     7
 10
1779.4993031201
 20
994.5960852294
 30
0.0
  0
VERTEX
  5
85D
  8
0
  6
CONTINUOUS
 62
     7
 10
1779.4993057543
 20
994.3100000714
 30
0.0
  0
SEQEND
  5
C3F
  8
0
  6
CONTINUOUS
 62
     7
  0
POLYLINE
  5
3D4
  8
0
  6
CONTINUOUS
 62
     7
 66
     1
 10
0.0
 20
0.0
 30
0.0
 70
   128
  0
VERTEX
  5
85E
  8
0
  6
CONTINUOUS
 62
     7
 10
1704.5849407413
 20
1141.9790119492
 30
0.0
  0
VERTEX
  5
85F
  8
0
  6
CONTINUOUS
 62
     7
 10
1704.5793352104
 20
1141.6908007737
 30
0.0
  0
VERTEX
  5
860
  8
0
  6
CONTINUOUS
 62
     7
 10
1704.4450316434
 20
1140.5408651301
 30
0.0
  0
VERTEX
  5
861
  8
0
  6
CONTINUOUS
 62
     7
 10
1704.1327142764
 20
1139.4025086937
 30
0.0
  0
VERTEX
  5
862
  8
0
  6
CONTINUOUS
 62
     7
 10
1703.6448921637
 20
1138.2848973549
 30
0.0
  0
VERTEX
  5
863
  8
0
  6
CONTINUOUS
 62
     7
 10
1702.9854954991
 20
1137.1970274483
 30
0.0
  0
VERTEX
  5
864
  8
0
  6
CONTINUOUS
 62
     7
 10
1702.1598308343
 20
1136.1476603638
 30
0.0
  0
VERTEX
  5
865
  8
0
  6
CONTINUOUS
 62
     7
 10
1701.1745494687
 20
1135.145243471
 30
0.0
  0
VERTEX
  5
866
  8
0
  6
CONTINUOUS
 62
     7
 10
1700.0375842294
 20
1134.1978492924
 30
0.0
  0
VERTEX
  5
867
  8
0
  6
CONTINUOUS
 62
     7
 10
1698.7580862511
 20
1133.3131025103
 30
0.0
  0
VERTEX
  5
868
  8
0
  6
CONTINUOUS
 62
     7
 10
1697.3463564868
 20
1132.4981282646
 30
0.0
  0
VERTEX
  5
869
  8
0
  6
CONTINUOUS
 62
     7
 10
1695.8137640489
 20
1131.7594898041
 30
0.0
  0
VERTEX
  5
86A
  8
0
  6
CONTINUOUS
 62
     7
 10
1694.1726513787
 20
1131.1031337424
 30
0.0
  0
VERTEX
  5
86B
  8
0
  6
CONTINUOUS
 62
     7
 10
1692.4362262447
 20
1130.5343429171
 30
0.0
  0
VERTEX
  5
86C
  8
0
  6
CONTINUOUS
 62
     7
 10
1690.6184721811
 20
1130.0576968518
 30
0.0
  0
VERTEX
  5
86D
  8
0
  6
CONTINUOUS
 62
     7
 10
1688.7340220468
 20
1129.6770352599
 30
0.0
  0
VERTEX
  5
86E
  8
0
  6
CONTINUOUS
 62
     7
 10
1686.7980526586
 20
1129.3954215486
 30
0.0
  0
VERTEX
  5
86F
  8
0
  6
CONTINUOUS
 62
     7
 10
1684.8261478137
 20
1129.2151245703
 30
0.0
  0
VERTEX
  5
870
  8
0
  6
CONTINUOUS
 62
     7
 10
1682.8341850201
 20
1129.1375927714
 30
0.0
  0
VERTEX
  5
871
  8
0
  6
CONTINUOUS
 62
     7
 10
1680.8382004952
 20
1129.1634530517
 30
0.0
  0
VERTEX
  5
872
  8
0
  6
CONTINUOUS
 62
     7
 10
1678.8542726032
 20
1129.292498979
 30
0.0
  0
VERTEX
  5
873
  8
0
  6
CONTINUOUS
 62
     7
 10
1676.8983618287
 20
1129.5236858471
 30
0.0
  0
VERTEX
  5
874
  8
0
  6
CONTINUOUS
 62
     7
 10
1674.986229776
 20
1129.8551591885
 30
0.0
  0
VERTEX
  5
875
  8
0
  6
CONTINUOUS
 62
     7
 10
1673.1332593863
 20
1130.2842429889
 30
0.0
  0
VERTEX
  5
876
  8
0
  6
CONTINUOUS
 62
     7
 10
1671.3543801928
 20
1130.8074889197
 30
0.0
  0
VERTEX
  5
877
  8
0
  6
CONTINUOUS
 62
     7
 10
1669.6639053312
 20
1131.4206791884
 30
0.0
  0
VERTEX
  5
878
  8
0
  6
CONTINUOUS
 62
     7
 10
1668.0754563006
 20
1132.1188821394
 30
0.0
  0
VERTEX
  5
879
  8
0
  6
CONTINUOUS
 62
     7
 10
1666.6018136391
 20
1132.896471547
 30
0.0
  0
VERTEX
  5
87A
  8
0
  6
CONTINUOUS
 62
     7
 10
1665.2548433307
 20
1133.7471873475
 30
0.0
  0
VERTEX
  5
87B
  8
0
  6
CONTINUOUS
 62
     7
 10
1664.0453892986
 20
1134.6641794542
 30
0.0
  0
VERTEX
  5
87C
  8
0
  6
CONTINUOUS
 62
     7
 10
1662.9831975078
 20
1135.6400698194
 30
0.0
  0
VERTEX
  5
87D
  8
0
  6
CONTINUOUS
 62
     7
 10
1662.076810762
 20
1136.6669949191
 30
0.0
  0
VERTEX
  5
87E
  8
0
  6
CONTINUOUS
 62
     7
 10
1661.3335352835
 20
1137.7366919559
 30
0.0
  0
VERTEX
  5
87F
  8
0
  6
CONTINUOUS
 62
     7
 10
1660.7593444
 20
1138.8405422938
 30
0.0
  0
VERTEX
  5
880
  8
0
  6
CONTINUOUS
 62
     7
 10
1660.3588736066
 20
1139.9696655498
 30
0.0
  0
VERTEX
  5
881
  8
0
  6
CONTINUOUS
 62
     7
 10
1660.1353352831
 20
1141.1149627436
 30
0.0
  0
VERTEX
  5
882
  8
0
  6
CONTINUOUS
 62
     7
 10
1660.0849388476
 20
1141.9790119492
 30
0.0
  0
SEQEND
  5
C40
  8
0
  6
CONTINUOUS
 62
     7
  0
ARC
  5
3D5
  8
0
  6
CONTINUOUS
 62
     7
 10
1709.8941105742
 20
1190.8575755309
 30
0.0
 40
21.29292199247033
 50
146.7148835605
 51
163.4882027295
  0
ARC
  5
3D6
  8
0
  6
CONTINUOUS
 62
     7
 10
1667.7058213345
 20
1182.8384134271
 30
0.0
 40
17.38171965821815
 50
46.2754636256
 51
73.7299129071
  0
ARC
  5
3D7
  8
0
  6
CONTINUOUS
 62
     7
 10
1687.9532930063
 20
1174.4735499836
 30
0.0
 40
22.48758164762048
 50
86.1089638639
 51
111.4771103708
  0
POLYLINE
  5
3D8
  8
0
  6
CONTINUOUS
 62
     7
 66
     1
 10
0.0
 20
0.0
 30
0.0
 70
   128
  0
VERTEX
  5
883
  8
0
  6
CONTINUOUS
 62
     7
 10
1671.6546876837
 20
1160.0574256907
 30
0.0
  0
VERTEX
  5
884
  8
0
  6
CONTINUOUS
 62
     7
 10
1671.5766366594
 20
1159.2444900823
 30
0.0
  0
VERTEX
  5
885
  8
0
  6
CONTINUOUS
 62
     7
 10
1671.3494727192
 20
1158.5045737805
 30
0.0
  0
VERTEX
  5
886
  8
0
  6
CONTINUOUS
 62
     7
 10
1670.9831346168
 20
1157.8621621211
 30
0.0
  0
VERTEX
  5
887
  8
0
  6
CONTINUOUS
 62
     7
 10
1670.496670423
 20
1157.3346315544
 30
0.0
  0
VERTEX
  5
888
  8
0
  6
CONTINUOUS
 62
     7
 10
1669.8934462878
 20
1156.9324664692
 30
0.0
  0
VERTEX
  5
889
  8
0
  6
CONTINUOUS
 62
     7
 10
1669.2098831801
 20
1156.6839716611
 30
0.0
  0
VERTEX
  5
88A
  8
0
  6
CONTINUOUS
 62
     7
 10
1668.4574200178
 20
1156.6034879194
 30
0.0
  0
VERTEX
  5
88B
  8
0
  6
CONTINUOUS
 62
     7
 10
1667.6764739824
 20
1156.7023517874
 30
0.0
  0
VERTEX
  5
88C
  8
0
  6
CONTINUOUS
 62
     7
 10
1666.9151170737
 20
1156.9757032646
 30
0.0
  0
VERTEX
  5
88D
  8
0
  6
CONTINUOUS
 62
     7
 10
1666.178223447
 20
1157.4150523521
 30
0.0
  0
VERTEX
  5
88E
  8
0
  6
CONTINUOUS
 62
     7
 10
1665.5072159431
 20
1157.9910900657
 30
0.0
  0
VERTEX
  5
88F
  8
0
  6
CONTINUOUS
 62
     7
 10
1664.895550996
 20
1158.693389403
 30
0.0
  0
VERTEX
  5
890
  8
0
  6
CONTINUOUS
 62
     7
 10
1663.8839388807
 20
1160.408367048
 30
0.0
  0
VERTEX
  5
891
  8
0
  6
CONTINUOUS
 62
     7
 10
1663.4897058208
 20
1161.3941571609
 30
0.0
  0
VERTEX
  5
892
  8
0
  6
CONTINUOUS
 62
     7
 10
1663.1853137076
 20
1162.4068687387
 30
0.0
  0
VERTEX
  5
893
  8
0
  6
CONTINUOUS
 62
     7
 10
1662.9708270784
 20
1163.4219310312
 30
0.0
  0
VERTEX
  5
894
  8
0
  6
CONTINUOUS
 62
     7
 10
1662.8478731968
 20
1164.3985034486
 30
0.0
  0
VERTEX
  5
895
  8
0
  6
CONTINUOUS
 62
     7
 10
1662.8168649701
 20
1165.2743316618
 30
0.0
  0
VERTEX
  5
896
  8
0
  6
CONTINUOUS
 62
     7
 10
1662.8713792845
 20
1166.0574792904
 30
0.0
  0
VERTEX
  5
897
  8
0
  6
CONTINUOUS
 62
     7
 10
1663.2269485378
 20
1167.2417924827
 30
0.0
  0
VERTEX
  5
898
  8
0
  6
CONTINUOUS
 62
     7
 10
1663.9318575426
 20
1167.9074881875
 30
0.0
  0
VERTEX
  5
899
  8
0
  6
CONTINUOUS
 62
     7
 10
1664.4290584815
 20
1168.0231049434
 30
0.0
  0
VERTEX
  5
89A
  8
0
  6
CONTINUOUS
 62
     7
 10
1665.0109997752
 20
1167.9851655644
 30
0.0
  0
VERTEX
  5
89B
  8
0
  6
CONTINUOUS
 62
     7
 10
1665.6651287422
 20
1167.7975441887
 30
0.0
  0
VERTEX
  5
89C
  8
0
  6
CONTINUOUS
 62
     7
 10
1666.3802426968
 20
1167.4695785083
 30
0.0
  0
VERTEX
  5
89D
  8
0
  6
CONTINUOUS
 62
     7
 10
1667.1119095791
 20
1167.0278609516
 30
0.0
  0
VERTEX
  5
89E
  8
0
  6
CONTINUOUS
 62
     7
 10
1667.8611627897
 20
1166.47753855
 30
0.0
  0
VERTEX
  5
89F
  8
0
  6
CONTINUOUS
 62
     7
 10
1669.3047410835
 20
1165.1201968808
 30
0.0
  0
VERTEX
  5
8A0
  8
0
  6
CONTINUOUS
 62
     7
 10
1669.9746178253
 20
1164.315381836
 30
0.0
  0
VERTEX
  5
8A1
  8
0
  6
CONTINUOUS
 62
     7
 10
1670.5621310641
 20
1163.460044595
 30
0.0
  0
VERTEX
  5
8A2
  8
0
  6
CONTINUOUS
 62
     7
 10
1671.0527447469
 20
1162.5476793787
 30
0.0
  0
VERTEX
  5
8A3
  8
0
  6
CONTINUOUS
 62
     7
 10
1671.4092168648
 20
1161.6198217413
 30
0.0
  0
VERTEX
  5
8A4
  8
0
  6
CONTINUOUS
 62
     7
 10
1671.6546876837
 20
1160.0574256907
 30
0.0
  0
SEQEND
  5
C41
  8
0
  6
CONTINUOUS
 62
     7
  0
POLYLINE
  5
3D9
  8
0
  6
CONTINUOUS
 62
     7
 66
     1
 10
0.0
 20
0.0
 30
0.0
 70
   128
  0
VERTEX
  5
8A5
  8
0
  6
CONTINUOUS
 62
     7
 10
1667.7928773218
 20
1153.4384885869
 30
0.0
  0
VERTEX
  5
8A6
  8
0
  6
CONTINUOUS
 62
     7
 10
1667.7237115446
 20
1153.0345996916
 30
0.0
  0
VERTEX
  5
8A7
  8
0
  6
CONTINUOUS
 62
     7
 10
1667.5256015179
 20
1152.7462698221
 30
0.0
  0
VERTEX
  5
8A8
  8
0
  6
CONTINUOUS
 62
     7
 10
1667.2240951468
 20
1152.6078815123
 30
0.0
  0
VERTEX
  5
8A9
  8
0
  6
CONTINUOUS
 62
     7
 10
1666.8573064353
 20
1152.6382525269
 30
0.0
  0
VERTEX
  5
8AA
  8
0
  6
CONTINUOUS
 62
     7
 10
1666.4707886359
 20
1152.8357176393
 30
0.0
  0
VERTEX
  5
8AB
  8
0
  6
CONTINUOUS
 62
     7
 10
1666.1087391401
 20
1153.1773659487
 30
0.0
  0
VERTEX
  5
8AC
  8
0
  6
CONTINUOUS
 62
     7
 10
1665.8083983927
 20
1153.624032539
 30
0.0
  0
VERTEX
  5
8AD
  8
0
  6
CONTINUOUS
 62
     7
 10
1665.5991116309
 20
1154.1241858953
 30
0.0
  0
VERTEX
  5
8AE
  8
0
  6
CONTINUOUS
 62
     7
 10
1665.5009687429
 20
1154.6181682047
 30
0.0
  0
VERTEX
  5
8AF
  8
0
  6
CONTINUOUS
 62
     7
 10
1665.5226085154
 20
1155.0477971029
 30
0.0
  0
VERTEX
  5
8B0
  8
0
  6
CONTINUOUS
 62
     7
 10
1665.6615307843
 20
1155.3658643846
 30
0.0
  0
VERTEX
  5
8B1
  8
0
  6
CONTINUOUS
 62
     7
 10
1665.9057763812
 20
1155.5393336099
 30
0.0
  0
VERTEX
  5
8B2
  8
0
  6
CONTINUOUS
 62
     7
 10
1666.2329780067
 20
1155.5505454076
 30
0.0
  0
VERTEX
  5
8B3
  8
0
  6
CONTINUOUS
 62
     7
 10
1666.6093604254
 20
1155.400088688
 30
0.0
  0
VERTEX
  5
8B4
  8
0
  6
CONTINUOUS
 62
     7
 10
1666.9932119118
 20
1155.1066465158
 30
0.0
  0
VERTEX
  5
8B5
  8
0
  6
CONTINUOUS
 62
     7
 10
1667.3406171065
 20
1154.7022509881
 30
0.0
  0
VERTEX
  5
8B6
  8
0
  6
CONTINUOUS
 62
     7
 10
1667.6094214745
 20
1154.2289297697
 30
0.0
  0
VERTEX
  5
8B7
  8
0
  6
CONTINUOUS
 62
     7
 10
1667.7641773759
 20
1153.7375355805
 30
0.0
  0
VERTEX
  5
8B8
  8
0
  6
CONTINUOUS
 62
     7
 10
1667.7928773218
 20
1153.4384885869
 30
0.0
  0
SEQEND
  5
C42
  8
0
  6
CONTINUOUS
 62
     7
  0
LINE
  5
3DA
  8
0
  6
CONTINUOUS
 62
     7
 10
1679.7199260662
 20
1195.3996819049
 30
0.0
 11
1679.7199260662
 21
1198.3531981003
 31
0.0
  0
LINE
  5
3DB
  8
0
  6
CONTINUOUS
 62
     7
 10
1679.7199260662
 20
1198.3531981003
 30
0.0
 11
1689.4792823785
 21
1199.8628118719
 31
0.0
  0
LINE
  5
3DC
  8
0
  6
CONTINUOUS
 62
     7
 10
1689.4792823785
 20
1196.9092956765
 30
0.0
 11
1689.4792823785
 21
1199.8628118719
 31
0.0
  0
LINE
  5
3DD
  8
0
  6
CONTINUOUS
 62
     7
 10
1675.1905919419
 20
1208.1114972827
 30
0.0
 11
1672.5755808479
 21
1202.4775408057
 31
0.0
  0
LINE
  5
3DE
  8
0
  6
CONTINUOUS
 62
     7
 10
1684.9499482543
 20
1209.6211110543
 30
0.0
 11
1675.1905919419
 21
1208.1114972827
 31
0.0
  0
LINE
  5
3DF
  8
0
  6
CONTINUOUS
 62
     7
 10
1692.0942934726
 20
1205.4967683488
 30
0.0
 11
1684.9499482543
 21
1209.6211110543
 31
0.0
  0
LINE
  5
3E0
  8
0
  6
CONTINUOUS
 62
     7
 10
1689.4792823785
 20
1199.8628118719
 30
0.0
 11
1692.0942934726
 21
1205.4967683488
 31
0.0
  0
LINE
  5
3E1
  8
0
  6
CONTINUOUS
 62
     7
 10
1672.5755808479
 20
1202.4775408057
 30
0.0
 11
1679.7199260662
 21
1198.3531981003
 31
0.0
  0
LINE
  5
3E2
  8
0
  6
CONTINUOUS
 62
     7
 10
1672.5755808479
 20
1199.5240246104
 30
0.0
 11
1672.5755808479
 21
1202.4775408057
 31
0.0
  0
POLYLINE
  5
3E3
  8
0
  6
CONTINUOUS
 62
     7
 66
     1
 10
0.0
 20
0.0
 30
0.0
 70
   128
  0
VERTEX
  5
8B9
  8
0
  6
CONTINUOUS
 62
     7
 10
1671.082432098
 20
1158.0362977939
 30
0.0
  0
VERTEX
  5
8BA
  8
0
  6
CONTINUOUS
 62
     7
 10
1670.9435849032
 20
1158.0184233977
 30
0.0
  0
VERTEX
  5
8BB
  8
0
  6
CONTINUOUS
 62
     7
 10
1670.1460079025
 20
1158.1031521004
 30
0.0
  0
VERTEX
  5
8BC
  8
0
  6
CONTINUOUS
 62
     7
 10
1669.3797280648
 20
1158.365603794
 30
0.0
  0
VERTEX
  5
8BD
  8
0
  6
CONTINUOUS
 62
     7
 10
1668.6427167028
 20
1158.7974103764
 30
0.0
  0
VERTEX
  5
8BE
  8
0
  6
CONTINUOUS
 62
     7
 10
1667.3883326074
 20
1160.0533794772
 30
0.0
  0
VERTEX
  5
8BF
  8
0
  6
CONTINUOUS
 62
     7
 10
1666.4114873615
 20
1161.7506050992
 30
0.0
  0
VERTEX
  5
8C0
  8
0
  6
CONTINUOUS
 62
     7
 10
1666.0299454421
 20
1162.7415121951
 30
0.0
  0
VERTEX
  5
8C1
  8
0
  6
CONTINUOUS
 62
     7
 10
1665.7365529978
 20
1163.7621301395
 30
0.0
  0
VERTEX
  5
8C2
  8
0
  6
CONTINUOUS
 62
     7
 10
1665.5279955742
 20
1164.7944688461
 30
0.0
  0
VERTEX
  5
8C3
  8
0
  6
CONTINUOUS
 62
     7
 10
1665.4063018174
 20
1165.7890794259
 30
0.0
  0
VERTEX
  5
8C4
  8
0
  6
CONTINUOUS
 62
     7
 10
1665.3707670851
 20
1166.6702998001
 30
0.0
  0
VERTEX
  5
8C5
  8
0
  6
CONTINUOUS
 62
     7
 10
1665.4130028371
 20
1167.4578163467
 30
0.0
  0
VERTEX
  5
8C6
  8
0
  6
CONTINUOUS
 62
     7
 10
1665.5124074964
 20
1167.8413262668
 30
0.0
  0
SEQEND
  5
C43
  8
0
  6
CONTINUOUS
 62
     7
  0
LINE
  5
3E4
  8
0
  6
CONTINUOUS
 62
     7
 10
1692.0942934726
 20
1202.5432521535
 30
0.0
 11
1692.0942934726
 21
1205.4967683488
 31
0.0
  0
LINE
  5
3E5
  8
0
  6
CONTINUOUS
 62
     7
 10
1784.9846593129
 20
1149.2076856543
 30
0.0
 11
1784.9846614532
 21
1137.18559414
 31
0.0
  0
LINE
  5
3E6
  8
0
  6
CONTINUOUS
 62
     7
 10
1778.9923476553
 20
1133.7263050176
 30
0.0
 11
1784.9846614532
 21
1137.18559414
 31
0.0
  0
LINE
  5
3E7
  8
0
  6
CONTINUOUS
 62
     7
 10
1764.8502110306
 20
1133.7263057779
 30
0.0
 11
1778.9923476553
 21
1133.7263050176
 31
0.0
  0
LINE
  5
3E8
  8
0
  6
CONTINUOUS
 62
     7
 10
1764.8502110306
 20
1133.7263057779
 30
0.0
 11
1704.5849381071
 21
1168.5167073021
 31
0.0
  0
LINE
  5
3E9
  8
0
  6
CONTINUOUS
 62
     7
 10
1707.9543868444
 20
1193.676315409
 30
0.0
 11
1702.3913470951
 21
1193.6763164544
 31
0.0
  0
LINE
  5
3EA
  8
0
  6
CONTINUOUS
 62
     7
 10
1764.8502110306
 20
1133.0730620707
 30
0.0
 11
1764.8502110306
 21
1133.7263057779
 31
0.0
  0
LINE
  5
3EB
  8
0
  6
CONTINUOUS
 62
     7
 10
1778.9923476553
 20
1133.0730613103
 30
0.0
 11
1778.9923476553
 21
1133.7263050176
 31
0.0
  0
LINE
  5
3EC
  8
0
  6
CONTINUOUS
 62
     7
 10
1764.8502110306
 20
1133.0730620707
 30
0.0
 11
1778.9923476553
 21
1133.0730613103
 31
0.0
  0
LINE
  5
3ED
  8
0
  6
CONTINUOUS
 62
     7
 10
1764.8502110306
 20
1133.0730620707
 30
0.0
 11
1704.5849381071
 21
1167.8634635949
 31
0.0
  0
LINE
  5
3EE
  8
0
  6
CONTINUOUS
 62
     7
 10
1784.9846614532
 20
1136.5323504328
 30
0.0
 11
1784.9846614532
 21
1137.18559414
 31
0.0
  0
LINE
  5
3EF
  8
0
  6
CONTINUOUS
 62
     7
 10
1778.9923476553
 20
1133.0730613103
 30
0.0
 11
1784.9846614532
 21
1136.5323504328
 31
0.0
  0
LINE
  5
3F0
  8
0
  6
CONTINUOUS
 62
     7
 10
1785.820017259
 20
1078.1700902057
 30
0.0
 11
1785.0200173907
 21
1078.1700902057
 31
0.0
  0
LINE
  5
3F1
  8
0
  6
CONTINUOUS
 62
     7
 10
1785.0200173907
 20
1136.5238998934
 30
0.0
 11
1785.0200173907
 21
1078.1700902057
 31
0.0
  0
LINE
  5
3F2
  8
0
  6
CONTINUOUS
 62
     7
 10
1785.820017259
 20
1136.5238998934
 30
0.0
 11
1785.0200173907
 21
1136.5238998934
 31
0.0
  0
LINE
  5
3F3
  8
0
  6
CONTINUOUS
 62
     7
 10
1785.820017259
 20
1136.5238998934
 30
0.0
 11
1785.820017259
 21
1078.1700902057
 31
0.0
  0
LINE
  5
3F4
  8
0
  6
CONTINUOUS
 62
     7
 10
1785.8200152011
 20
1148.5051703587
 30
0.0
 11
1785.0200152504
 21
1148.5051703111
 31
0.0
  0
LINE
  5
3F5
  8
0
  6
CONTINUOUS
 62
     7
 10
1785.8200152011
 20
1148.5051703587
 30
0.0
 11
1785.820017259
 21
1136.5238998934
 31
0.0
  0
LINE
  5
3F6
  8
0
  6
CONTINUOUS
 62
     7
 10
1785.0200152504
 20
1148.5051703111
 30
0.0
 11
1785.0200173907
 21
1136.5238998934
 31
0.0
  0
ARC
  5
3F7
  8
0
  6
CONTINUOUS
 62
     7
 10
1784.8879339224
 20
1149.3066682781
 30
0.0
 40
0.4906260351830014
 50
325.6106493288
 51
63.557652494
  0
POLYLINE
  5
3F8
  8
0
  6
CONTINUOUS
 62
     7
 66
     1
 10
0.0
 20
0.0
 30
0.0
 70
   128
  0
VERTEX
  5
8C7
  8
0
  6
CONTINUOUS
 62
     7
 10
1784.9846593129
 20
1149.2076856543
 30
0.0
  0
VERTEX
  5
8C8
  8
0
  6
CONTINUOUS
 62
     7
 10
1785.0837221053
 20
1149.6041425678
 30
0.0
  0
VERTEX
  5
8C9
  8
0
  6
CONTINUOUS
 62
     7
 10
1785.1064108981
 20
1149.7459649119
 30
0.0
  0
SEQEND
  5
C44
  8
0
  6
CONTINUOUS
 62
     7
  0
POLYLINE
  5
3F9
  8
0
  6
CONTINUOUS
 62
     7
 66
     1
 10
0.0
 20
0.0
 30
0.0
 70
   128
  0
VERTEX
  5
8CA
  8
0
  6
CONTINUOUS
 62
     7
 10
1707.9543868444
 20
1193.676315409
 30
0.0
  0
VERTEX
  5
8CB
  8
0
  6
CONTINUOUS
 62
     7
 10
1708.8388456221
 20
1193.619372871
 30
0.0
  0
VERTEX
  5
8CC
  8
0
  6
CONTINUOUS
 62
     7
 10
1709.6469304002
 20
1193.3077957637
 30
0.0
  0
SEQEND
  5
C45
  8
0
  6
CONTINUOUS
 62
     7
  0
LINE
  5
3FA
  8
0
  6
CONTINUOUS
 62
     7
 10
1785.8200165593
 20
1148.8305675948
 30
0.0
 11
1785.0200166498
 21
1148.830567571
 31
0.0
  0
POLYLINE
  5
3FB
  8
0
  6
CONTINUOUS
 62
     7
 66
     1
 10
0.0
 20
0.0
 30
0.0
 70
   128
  0
VERTEX
  5
8CD
  8
0
  6
CONTINUOUS
 62
     7
 10
1785.8200165593
 20
1148.8305675948
 30
0.0
  0
VERTEX
  5
8CE
  8
0
  6
CONTINUOUS
 62
     7
 10
1785.8200150364
 20
1148.7149175674
 30
0.0
  0
VERTEX
  5
8CF
  8
0
  6
CONTINUOUS
 62
     7
 10
1785.8200152011
 20
1148.5051703587
 30
0.0
  0
SEQEND
  5
C46
  8
0
  6
CONTINUOUS
 62
     7
  0
POLYLINE
  5
3FC
  8
0
  6
CONTINUOUS
 62
     7
 66
     1
 10
0.0
 20
0.0
 30
0.0
 70
   128
  0
VERTEX
  5
8D0
  8
0
  6
CONTINUOUS
 62
     7
 10
1785.2928075993
 20
1149.0295560046
 30
0.0
  0
VERTEX
  5
8D1
  8
0
  6
CONTINUOUS
 62
     7
 10
1785.6885737303
 20
1148.9828538637
 30
0.0
  0
VERTEX
  5
8D2
  8
0
  6
CONTINUOUS
 62
     7
 10
1785.8200165593
 20
1148.8305675948
 30
0.0
  0
SEQEND
  5
C47
  8
0
  6
CONTINUOUS
 62
     7
  0
LINE
  5
3FD
  8
0
  6
CONTINUOUS
 62
     7
 10
1785.2928075993
 20
1149.0295560046
 30
0.0
 11
1784.9846600538
 21
1148.851666213
 31
0.0
  0
POLYLINE
  5
3FE
  8
0
  6
CONTINUOUS
 62
     7
 66
     1
 10
0.0
 20
0.0
 30
0.0
 70
   128
  0
VERTEX
  5
8D3
  8
0
  6
CONTINUOUS
 62
     7
 10
1779.349987743
 20
1106.8973959158
 30
0.0
  0
VERTEX
  5
8D4
  8
0
  6
CONTINUOUS
 62
     7
 10
1779.4128181574
 20
1107.342491616
 30
0.0
  0
VERTEX
  5
8D5
  8
0
  6
CONTINUOUS
 62
     7
 10
1779.5957249432
 20
1107.6754881021
 30
0.0
  0
VERTEX
  5
8D6
  8
0
  6
CONTINUOUS
 62
     7
 10
1779.882455222
 20
1107.8668079263
 30
0.0
  0
VERTEX
  5
8D7
  8
0
  6
CONTINUOUS
 62
     7
 10
1780.2475312238
 20
1107.8994508313
 30
0.0
  0
VERTEX
  5
8D8
  8
0
  6
CONTINUOUS
 62
     7
 10
1780.6585183145
 20
1107.7705072845
 30
0.0
  0
VERTEX
  5
8D9
  8
0
  6
CONTINUOUS
 62
     7
 10
1781.0788936158
 20
1107.4914492439
 30
0.0
  0
VERTEX
  5
8DA
  8
0
  6
CONTINUOUS
 62
     7
 10
1781.4713097513
 20
1107.0870734209
 30
0.0
  0
VERTEX
  5
8DB
  8
0
  6
CONTINUOUS
 62
     7
 10
1781.8008928383
 20
1106.593305373
 30
0.0
  0
VERTEX
  5
8DC
  8
0
  6
CONTINUOUS
 62
     7
 10
1782.0383639879
 20
1106.054010415
 30
0.0
  0
VERTEX
  5
8DD
  8
0
  6
CONTINUOUS
 62
     7
 10
1782.1626207999
 20
1105.5170942083
 30
0.0
  0
VERTEX
  5
8DE
  8
0
  6
CONTINUOUS
 62
     7
 10
1782.1626207999
 20
1105.0303006186
 30
0.0
  0
VERTEX
  5
8DF
  8
0
  6
CONTINUOUS
 62
     7
 10
1782.0383639879
 20
1104.636872608
 30
0.0
  0
VERTEX
  5
8E0
  8
0
  6
CONTINUOUS
 62
     7
 10
1781.8008928383
 20
1104.3717560033
 30
0.0
  0
VERTEX
  5
8E1
  8
0
  6
CONTINUOUS
 62
     7
 10
1781.4713097513
 20
1104.258492153
 30
0.0
  0
VERTEX
  5
8E2
  8
0
  6
CONTINUOUS
 62
     7
 10
1781.0788936158
 20
1104.3071903563
 30
0.0
  0
VERTEX
  5
8E3
  8
0
  6
CONTINUOUS
 62
     7
 10
1780.6585183145
 20
1104.5134873074
 30
0.0
  0
VERTEX
  5
8E4
  8
0
  6
CONTINUOUS
 62
     7
 10
1780.2475312238
 20
1104.8590593552
 30
0.0
  0
VERTEX
  5
8E5
  8
0
  6
CONTINUOUS
 62
     7
 10
1779.882455222
 20
1105.3132100398
 30
0.0
  0
VERTEX
  5
8E6
  8
0
  6
CONTINUOUS
 62
     7
 10
1779.5957249432
 20
1105.8355815972
 30
0.0
  0
VERTEX
  5
8E7
  8
0
  6
CONTINUOUS
 62
     7
 10
1779.4128181574
 20
1106.3797577632
 30
0.0
  0
VERTEX
  5
8E8
  8
0
  6
CONTINUOUS
 62
     7
 10
1779.349987743
 20
1106.8973959158
 30
0.0
  0
SEQEND
  5
C48
  8
0
  6
CONTINUOUS
 62
     7
  0
POLYLINE
  5
3FF
  8
0
  6
CONTINUOUS
 62
     7
 66
     1
 10
0.0
 20
0.0
 30
0.0
 70
   128
  0
VERTEX
  5
8E9
  8
0
  6
CONTINUOUS
 62
     7
 10
1779.349987743
 20
1074.2357702541
 30
0.0
  0
VERTEX
  5
8EA
  8
0
  6
CONTINUOUS
 62
     7
 10
1779.4128181574
 20
1074.6808659543
 30
0.0
  0
VERTEX
  5
8EB
  8
0
  6
CONTINUOUS
 62
     7
 10
1779.5957249432
 20
1075.0138624405
 30
0.0
  0
VERTEX
  5
8EC
  8
0
  6
CONTINUOUS
 62
     7
 10
1779.882455222
 20
1075.2051822646
 30
0.0
  0
VERTEX
  5
8ED
  8
0
  6
CONTINUOUS
 62
     7
 10
1780.2475312238
 20
1075.2378251696
 30
0.0
  0
VERTEX
  5
8EE
  8
0
  6
CONTINUOUS
 62
     7
 10
1780.6585183145
 20
1075.1088816228
 30
0.0
  0
VERTEX
  5
8EF
  8
0
  6
CONTINUOUS
 62
     7
 10
1781.0788936158
 20
1074.8298235822
 30
0.0
  0
VERTEX
  5
8F0
  8
0
  6
CONTINUOUS
 62
     7
 10
1781.4713097513
 20
1074.4254477593
 30
0.0
  0
VERTEX
  5
8F1
  8
0
  6
CONTINUOUS
 62
     7
 10
1781.8008928383
 20
1073.9316553765
 30
0.0
  0
VERTEX
  5
8F2
  8
0
  6
CONTINUOUS
 62
     7
 10
1782.0383639879
 20
1073.3923604185
 30
0.0
  0
VERTEX
  5
8F3
  8
0
  6
CONTINUOUS
 62
     7
 10
1782.1626207999
 20
1072.8554685466
 30
0.0
  0
VERTEX
  5
8F4
  8
0
  6
CONTINUOUS
 62
     7
 10
1782.1626207999
 20
1072.368674957
 30
0.0
  0
VERTEX
  5
8F5
  8
0
  6
CONTINUOUS
 62
     7
 10
1782.0383639879
 20
1071.9752226115
 30
0.0
  0
VERTEX
  5
8F6
  8
0
  6
CONTINUOUS
 62
     7
 10
1781.8008928383
 20
1071.7101060068
 30
0.0
  0
VERTEX
  5
8F7
  8
0
  6
CONTINUOUS
 62
     7
 10
1781.4713097513
 20
1071.5968664914
 30
0.0
  0
VERTEX
  5
8F8
  8
0
  6
CONTINUOUS
 62
     7
 10
1781.0788936158
 20
1071.6455646946
 30
0.0
  0
VERTEX
  5
8F9
  8
0
  6
CONTINUOUS
 62
     7
 10
1780.6585183145
 20
1071.8518616457
 30
0.0
  0
VERTEX
  5
8FA
  8
0
  6
CONTINUOUS
 62
     7
 10
1780.2475312238
 20
1072.1974336935
 30
0.0
  0
VERTEX
  5
8FB
  8
0
  6
CONTINUOUS
 62
     7
 10
1779.882455222
 20
1072.6515843782
 30
0.0
  0
VERTEX
  5
8FC
  8
0
  6
CONTINUOUS
 62
     7
 10
1779.5957249432
 20
1073.1739559356
 30
0.0
  0
VERTEX
  5
8FD
  8
0
  6
CONTINUOUS
 62
     7
 10
1779.4128181574
 20
1073.7181321015
 30
0.0
  0
VERTEX
  5
8FE
  8
0
  6
CONTINUOUS
 62
     7
 10
1779.349987743
 20
1074.2357702541
 30
0.0
  0
SEQEND
  5
C49
  8
0
  6
CONTINUOUS
 62
     7
  0
POLYLINE
  5
400
  8
0
  6
CONTINUOUS
 62
     7
 66
     1
 10
0.0
 20
0.0
 30
0.0
 70
   128
  0
VERTEX
  5
8FF
  8
0
  6
CONTINUOUS
 62
     7
 10
1779.349987743
 20
1041.5741445924
 30
0.0
  0
VERTEX
  5
900
  8
0
  6
CONTINUOUS
 62
     7
 10
1779.4128181574
 20
1042.0192159579
 30
0.0
  0
VERTEX
  5
901
  8
0
  6
CONTINUOUS
 62
     7
 10
1779.5957249432
 20
1042.352212444
 30
0.0
  0
VERTEX
  5
902
  8
0
  6
CONTINUOUS
 62
     7
 10
1779.882455222
 20
1042.5435322681
 30
0.0
  0
VERTEX
  5
903
  8
0
  6
CONTINUOUS
 62
     7
 10
1780.2475312238
 20
1042.5761751731
 30
0.0
  0
VERTEX
  5
904
  8
0
  6
CONTINUOUS
 62
     7
 10
1780.6585183145
 20
1042.4472559611
 30
0.0
  0
VERTEX
  5
905
  8
0
  6
CONTINUOUS
 62
     7
 10
1781.0788936158
 20
1042.1681979206
 30
0.0
  0
VERTEX
  5
906
  8
0
  6
CONTINUOUS
 62
     7
 10
1781.4713097513
 20
1041.7638220976
 30
0.0
  0
VERTEX
  5
907
  8
0
  6
CONTINUOUS
 62
     7
 10
1781.8008928383
 20
1041.2700297148
 30
0.0
  0
VERTEX
  5
908
  8
0
  6
CONTINUOUS
 62
     7
 10
1782.0383639879
 20
1040.7307347569
 30
0.0
  0
VERTEX
  5
909
  8
0
  6
CONTINUOUS
 62
     7
 10
1782.1626207999
 20
1040.1938428849
 30
0.0
  0
VERTEX
  5
90A
  8
0
  6
CONTINUOUS
 62
     7
 10
1782.1626207999
 20
1039.7070492953
 30
0.0
  0
VERTEX
  5
90B
  8
0
  6
CONTINUOUS
 62
     7
 10
1782.0383639879
 20
1039.3135969498
 30
0.0
  0
VERTEX
  5
90C
  8
0
  6
CONTINUOUS
 62
     7
 10
1781.8008928383
 20
1039.0484803452
 30
0.0
  0
VERTEX
  5
90D
  8
0
  6
CONTINUOUS
 62
     7
 10
1781.4713097513
 20
1038.9352408297
 30
0.0
  0
VERTEX
  5
90E
  8
0
  6
CONTINUOUS
 62
     7
 10
1781.0788936158
 20
1038.9839146981
 30
0.0
  0
VERTEX
  5
90F
  8
0
  6
CONTINUOUS
 62
     7
 10
1780.6585183145
 20
1039.1902116492
 30
0.0
  0
VERTEX
  5
910
  8
0
  6
CONTINUOUS
 62
     7
 10
1780.2475312238
 20
1039.5358080319
 30
0.0
  0
VERTEX
  5
911
  8
0
  6
CONTINUOUS
 62
     7
 10
1779.882455222
 20
1039.9899587165
 30
0.0
  0
VERTEX
  5
912
  8
0
  6
CONTINUOUS
 62
     7
 10
1779.5957249432
 20
1040.5123302739
 30
0.0
  0
VERTEX
  5
913
  8
0
  6
CONTINUOUS
 62
     7
 10
1779.4128181574
 20
1041.0565064398
 30
0.0
  0
VERTEX
  5
914
  8
0
  6
CONTINUOUS
 62
     7
 10
1779.349987743
 20
1041.5741445924
 30
0.0
  0
SEQEND
  5
C4A
  8
0
  6
CONTINUOUS
 62
     7
  0
POLYLINE
  5
401
  8
0
  6
CONTINUOUS
 62
     7
 66
     1
 10
0.0
 20
0.0
 30
0.0
 70
   128
  0
VERTEX
  5
915
  8
0
  6
CONTINUOUS
 62
     7
 10
1779.349987743
 20
1008.9124945959
 30
0.0
  0
VERTEX
  5
916
  8
0
  6
CONTINUOUS
 62
     7
 10
1779.4128181574
 20
1009.3575902962
 30
0.0
  0
VERTEX
  5
917
  8
0
  6
CONTINUOUS
 62
     7
 10
1779.5957249432
 20
1009.6905867823
 30
0.0
  0
VERTEX
  5
918
  8
0
  6
CONTINUOUS
 62
     7
 10
1779.882455222
 20
1009.8819066064
 30
0.0
  0
VERTEX
  5
919
  8
0
  6
CONTINUOUS
 62
     7
 10
1780.2475312238
 20
1009.9145495114
 30
0.0
  0
VERTEX
  5
91A
  8
0
  6
CONTINUOUS
 62
     7
 10
1780.6585183145
 20
1009.7856059646
 30
0.0
  0
VERTEX
  5
91B
  8
0
  6
CONTINUOUS
 62
     7
 10
1781.0788936158
 20
1009.5065722589
 30
0.0
  0
VERTEX
  5
91C
  8
0
  6
CONTINUOUS
 62
     7
 10
1781.4713097513
 20
1009.1021721011
 30
0.0
  0
VERTEX
  5
91D
  8
0
  6
CONTINUOUS
 62
     7
 10
1781.8008928383
 20
1008.6084040531
 30
0.0
  0
VERTEX
  5
91E
  8
0
  6
CONTINUOUS
 62
     7
 10
1782.0383639879
 20
1008.0691090952
 30
0.0
  0
VERTEX
  5
91F
  8
0
  6
CONTINUOUS
 62
     7
 10
1782.1626207999
 20
1007.5321928884
 30
0.0
  0
VERTEX
  5
920
  8
0
  6
CONTINUOUS
 62
     7
 10
1782.1626207999
 20
1007.0453992988
 30
0.0
  0
VERTEX
  5
921
  8
0
  6
CONTINUOUS
 62
     7
 10
1782.0383639879
 20
1006.6519712882
 30
0.0
  0
VERTEX
  5
922
  8
0
  6
CONTINUOUS
 62
     7
 10
1781.8008928383
 20
1006.3868546835
 30
0.0
  0
VERTEX
  5
923
  8
0
  6
CONTINUOUS
 62
     7
 10
1781.4713097513
 20
1006.2735908332
 30
0.0
  0
VERTEX
  5
924
  8
0
  6
CONTINUOUS
 62
     7
 10
1781.0788936158
 20
1006.3222890364
 30
0.0
  0
VERTEX
  5
925
  8
0
  6
CONTINUOUS
 62
     7
 10
1780.6585183145
 20
1006.5285859875
 30
0.0
  0
VERTEX
  5
926
  8
0
  6
CONTINUOUS
 62
     7
 10
1780.2475312238
 20
1006.8741580354
 30
0.0
  0
VERTEX
  5
927
  8
0
  6
CONTINUOUS
 62
     7
 10
1779.882455222
 20
1007.32830872
 30
0.0
  0
VERTEX
  5
928
  8
0
  6
CONTINUOUS
 62
     7
 10
1779.5957249432
 20
1007.8507046122
 30
0.0
  0
VERTEX
  5
929
  8
0
  6
CONTINUOUS
 62
     7
 10
1779.4128181574
 20
1008.3948807781
 30
0.0
  0
VERTEX
  5
92A
  8
0
  6
CONTINUOUS
 62
     7
 10
1779.349987743
 20
1008.9124945959
 30
0.0
  0
SEQEND
  5
C4B
  8
0
  6
CONTINUOUS
 62
     7
  0
POLYLINE
  5
402
  8
0
  6
CONTINUOUS
 62
     7
 66
     1
 10
0.0
 20
0.0
 30
0.0
 70
   128
  0
VERTEX
  5
92B
  8
0
  6
CONTINUOUS
 62
     7
 10
1779.349987743
 20
976.2508689342
 30
0.0
  0
VERTEX
  5
92C
  8
0
  6
CONTINUOUS
 62
     7
 10
1779.4128181574
 20
976.6959646345
 30
0.0
  0
VERTEX
  5
92D
  8
0
  6
CONTINUOUS
 62
     7
 10
1779.5957249432
 20
977.0289611206
 30
0.0
  0
VERTEX
  5
92E
  8
0
  6
CONTINUOUS
 62
     7
 10
1779.882455222
 20
977.2202809447
 30
0.0
  0
VERTEX
  5
92F
  8
0
  6
CONTINUOUS
 62
     7
 10
1780.2475312238
 20
977.2529238497
 30
0.0
  0
VERTEX
  5
930
  8
0
  6
CONTINUOUS
 62
     7
 10
1780.6585183145
 20
977.123980303
 30
0.0
  0
VERTEX
  5
931
  8
0
  6
CONTINUOUS
 62
     7
 10
1781.0788936158
 20
976.8449222624
 30
0.0
  0
VERTEX
  5
932
  8
0
  6
CONTINUOUS
 62
     7
 10
1781.4713097513
 20
976.4405464394
 30
0.0
  0
VERTEX
  5
933
  8
0
  6
CONTINUOUS
 62
     7
 10
1781.8008928383
 20
975.9467783914
 30
0.0
  0
VERTEX
  5
934
  8
0
  6
CONTINUOUS
 62
     7
 10
1782.0383639879
 20
975.4074590987
 30
0.0
  0
VERTEX
  5
935
  8
0
  6
CONTINUOUS
 62
     7
 10
1782.1626207999
 20
974.8705672267
 30
0.0
  0
VERTEX
  5
936
  8
0
  6
CONTINUOUS
 62
     7
 10
1782.1626207999
 20
974.3837736371
 30
0.0
  0
VERTEX
  5
937
  8
0
  6
CONTINUOUS
 62
     7
 10
1782.0383639879
 20
973.9903334591
 30
0.0
  0
VERTEX
  5
938
  8
0
  6
CONTINUOUS
 62
     7
 10
1781.8008928383
 20
973.7252168544
 30
0.0
  0
VERTEX
  5
939
  8
0
  6
CONTINUOUS
 62
     7
 10
1781.4713097513
 20
973.6119651715
 30
0.0
  0
VERTEX
  5
93A
  8
0
  6
CONTINUOUS
 62
     7
 10
1781.0788936158
 20
973.6606512073
 30
0.0
  0
VERTEX
  5
93B
  8
0
  6
CONTINUOUS
 62
     7
 10
1780.6585183145
 20
973.8669603259
 30
0.0
  0
VERTEX
  5
93C
  8
0
  6
CONTINUOUS
 62
     7
 10
1780.2475312238
 20
974.2125323737
 30
0.0
  0
VERTEX
  5
93D
  8
0
  6
CONTINUOUS
 62
     7
 10
1779.882455222
 20
974.6666830583
 30
0.0
  0
VERTEX
  5
93E
  8
0
  6
CONTINUOUS
 62
     7
 10
1779.5957249432
 20
975.1890546157
 30
0.0
  0
VERTEX
  5
93F
  8
0
  6
CONTINUOUS
 62
     7
 10
1779.4128181574
 20
975.733242949
 30
0.0
  0
VERTEX
  5
940
  8
0
  6
CONTINUOUS
 62
     7
 10
1779.349987743
 20
976.2508689342
 30
0.0
  0
SEQEND
  5
C4C
  8
0
  6
CONTINUOUS
 62
     7
  0
POLYLINE
  5
403
  8
0
  6
CONTINUOUS
 62
     7
 66
     1
 10
0.0
 20
0.0
 30
0.0
 70
   128
  0
VERTEX
  5
941
  8
0
  6
CONTINUOUS
 62
     7
 10
1779.349987743
 20
943.5892311052
 30
0.0
  0
VERTEX
  5
942
  8
0
  6
CONTINUOUS
 62
     7
 10
1779.4128181574
 20
944.0343268054
 30
0.0
  0
VERTEX
  5
943
  8
0
  6
CONTINUOUS
 62
     7
 10
1779.5957249432
 20
944.3673232915
 30
0.0
  0
VERTEX
  5
944
  8
0
  6
CONTINUOUS
 62
     7
 10
1779.882455222
 20
944.5586431157
 30
0.0
  0
VERTEX
  5
945
  8
0
  6
CONTINUOUS
 62
     7
 10
1780.2475312238
 20
944.5912860207
 30
0.0
  0
VERTEX
  5
946
  8
0
  6
CONTINUOUS
 62
     7
 10
1780.6585183145
 20
944.4623546413
 30
0.0
  0
VERTEX
  5
947
  8
0
  6
CONTINUOUS
 62
     7
 10
1781.0788936158
 20
944.1832966007
 30
0.0
  0
VERTEX
  5
948
  8
0
  6
CONTINUOUS
 62
     7
 10
1781.4713097513
 20
943.7789086103
 30
0.0
  0
VERTEX
  5
949
  8
0
  6
CONTINUOUS
 62
     7
 10
1781.8008928383
 20
943.2851405623
 30
0.0
  0
VERTEX
  5
94A
  8
0
  6
CONTINUOUS
 62
     7
 10
1782.0383639879
 20
942.745833437
 30
0.0
  0
VERTEX
  5
94B
  8
0
  6
CONTINUOUS
 62
     7
 10
1782.1626207999
 20
942.208941565
 30
0.0
  0
VERTEX
  5
94C
  8
0
  6
CONTINUOUS
 62
     7
 10
1782.1626207999
 20
941.722135808
 30
0.0
  0
VERTEX
  5
94D
  8
0
  6
CONTINUOUS
 62
     7
 10
1782.0383639879
 20
941.3287077974
 30
0.0
  0
VERTEX
  5
94E
  8
0
  6
CONTINUOUS
 62
     7
 10
1781.8008928383
 20
941.0635790253
 30
0.0
  0
VERTEX
  5
94F
  8
0
  6
CONTINUOUS
 62
     7
 10
1781.4713097513
 20
940.9503273424
 30
0.0
  0
VERTEX
  5
950
  8
0
  6
CONTINUOUS
 62
     7
 10
1781.0788936158
 20
940.9990255456
 30
0.0
  0
VERTEX
  5
951
  8
0
  6
CONTINUOUS
 62
     7
 10
1780.6585183145
 20
941.2053224968
 30
0.0
  0
VERTEX
  5
952
  8
0
  6
CONTINUOUS
 62
     7
 10
1780.2475312238
 20
941.550906712
 30
0.0
  0
VERTEX
  5
953
  8
0
  6
CONTINUOUS
 62
     7
 10
1779.882455222
 20
942.0050573966
 30
0.0
  0
VERTEX
  5
954
  8
0
  6
CONTINUOUS
 62
     7
 10
1779.5957249432
 20
942.527428954
 30
0.0
  0
VERTEX
  5
955
  8
0
  6
CONTINUOUS
 62
     7
 10
1779.4128181574
 20
943.0716051199
 30
0.0
  0
VERTEX
  5
956
  8
0
  6
CONTINUOUS
 62
     7
 10
1779.349987743
 20
943.5892311052
 30
0.0
  0
SEQEND
  5
C4D
  8
0
  6
CONTINUOUS
 62
     7
  0
POLYLINE
  5
404
  8
0
  6
CONTINUOUS
 62
     7
 66
     1
 10
0.0
 20
0.0
 30
0.0
 70
   128
  0
VERTEX
  5
957
  8
0
  6
CONTINUOUS
 62
     7
 10
1779.349987743
 20
910.9276054435
 30
0.0
  0
VERTEX
  5
958
  8
0
  6
CONTINUOUS
 62
     7
 10
1779.4128181574
 20
911.3726889763
 30
0.0
  0
VERTEX
  5
959
  8
0
  6
CONTINUOUS
 62
     7
 10
1779.5957249432
 20
911.7056854624
 30
0.0
  0
VERTEX
  5
95A
  8
0
  6
CONTINUOUS
 62
     7
 10
1779.882455222
 20
911.897017454
 30
0.0
  0
VERTEX
  5
95B
  8
0
  6
CONTINUOUS
 62
     7
 10
1780.2475312238
 20
911.929660359
 30
0.0
  0
VERTEX
  5
95C
  8
0
  6
CONTINUOUS
 62
     7
 10
1780.6585183145
 20
911.8007168122
 30
0.0
  0
VERTEX
  5
95D
  8
0
  6
CONTINUOUS
 62
     7
 10
1781.0788936158
 20
911.5216587716
 30
0.0
  0
VERTEX
  5
95E
  8
0
  6
CONTINUOUS
 62
     7
 10
1781.4713097513
 20
911.1172829486
 30
0.0
  0
VERTEX
  5
95F
  8
0
  6
CONTINUOUS
 62
     7
 10
1781.8008928383
 20
910.6235027333
 30
0.0
  0
VERTEX
  5
960
  8
0
  6
CONTINUOUS
 62
     7
 10
1782.0383639879
 20
910.0842077753
 30
0.0
  0
VERTEX
  5
961
  8
0
  6
CONTINUOUS
 62
     7
 10
1782.1626207999
 20
909.5473037359
 30
0.0
  0
VERTEX
  5
962
  8
0
  6
CONTINUOUS
 62
     7
 10
1782.1626207999
 20
909.0605101463
 30
0.0
  0
VERTEX
  5
963
  8
0
  6
CONTINUOUS
 62
     7
 10
1782.0383639879
 20
908.6670699683
 30
0.0
  0
VERTEX
  5
964
  8
0
  6
CONTINUOUS
 62
     7
 10
1781.8008928383
 20
908.4019533636
 30
0.0
  0
VERTEX
  5
965
  8
0
  6
CONTINUOUS
 62
     7
 10
1781.4713097513
 20
908.2887016807
 30
0.0
  0
VERTEX
  5
966
  8
0
  6
CONTINUOUS
 62
     7
 10
1781.0788936158
 20
908.3373877165
 30
0.0
  0
VERTEX
  5
967
  8
0
  6
CONTINUOUS
 62
     7
 10
1780.6585183145
 20
908.5436846677
 30
0.0
  0
VERTEX
  5
968
  8
0
  6
CONTINUOUS
 62
     7
 10
1780.2475312238
 20
908.8892688829
 30
0.0
  0
VERTEX
  5
969
  8
0
  6
CONTINUOUS
 62
     7
 10
1779.882455222
 20
909.3434195675
 30
0.0
  0
VERTEX
  5
96A
  8
0
  6
CONTINUOUS
 62
     7
 10
1779.5957249432
 20
909.8657911249
 30
0.0
  0
VERTEX
  5
96B
  8
0
  6
CONTINUOUS
 62
     7
 10
1779.4128181574
 20
910.4099794583
 30
0.0
  0
VERTEX
  5
96C
  8
0
  6
CONTINUOUS
 62
     7
 10
1779.349987743
 20
910.9276054435
 30
0.0
  0
SEQEND
  5
C4E
  8
0
  6
CONTINUOUS
 62
     7
  0
POLYLINE
  5
405
  8
0
  6
CONTINUOUS
 62
     7
 66
     1
 10
0.0
 20
0.0
 30
0.0
 70
   128
  0
VERTEX
  5
96D
  8
0
  6
CONTINUOUS
 62
     7
 10
1779.349987743
 20
878.2659676144
 30
0.0
  0
VERTEX
  5
96E
  8
0
  6
CONTINUOUS
 62
     7
 10
1779.4128181574
 20
878.7110633146
 30
0.0
  0
VERTEX
  5
96F
  8
0
  6
CONTINUOUS
 62
     7
 10
1779.5957249432
 20
879.0440598007
 30
0.0
  0
VERTEX
  5
970
  8
0
  6
CONTINUOUS
 62
     7
 10
1779.882455222
 20
879.2353796249
 30
0.0
  0
VERTEX
  5
971
  8
0
  6
CONTINUOUS
 62
     7
 10
1780.2475312238
 20
879.2680225299
 30
0.0
  0
VERTEX
  5
972
  8
0
  6
CONTINUOUS
 62
     7
 10
1780.6585183145
 20
879.1390911505
 30
0.0
  0
VERTEX
  5
973
  8
0
  6
CONTINUOUS
 62
     7
 10
1781.0788936158
 20
878.8600331099
 30
0.0
  0
VERTEX
  5
974
  8
0
  6
CONTINUOUS
 62
     7
 10
1781.4713097513
 20
878.4556451195
 30
0.0
  0
VERTEX
  5
975
  8
0
  6
CONTINUOUS
 62
     7
 10
1781.8008928383
 20
877.9618770716
 30
0.0
  0
VERTEX
  5
976
  8
0
  6
CONTINUOUS
 62
     7
 10
1782.0383639879
 20
877.4225699462
 30
0.0
  0
VERTEX
  5
977
  8
0
  6
CONTINUOUS
 62
     7
 10
1782.1626207999
 20
876.8856659069
 30
0.0
  0
VERTEX
  5
978
  8
0
  6
CONTINUOUS
 62
     7
 10
1782.1626207999
 20
876.3988723172
 30
0.0
  0
VERTEX
  5
979
  8
0
  6
CONTINUOUS
 62
     7
 10
1782.0383639879
 20
876.0054321392
 30
0.0
  0
VERTEX
  5
97A
  8
0
  6
CONTINUOUS
 62
     7
 10
1781.8008928383
 20
875.7403155345
 30
0.0
  0
VERTEX
  5
97B
  8
0
  6
CONTINUOUS
 62
     7
 10
1781.4713097513
 20
875.6270638516
 30
0.0
  0
VERTEX
  5
97C
  8
0
  6
CONTINUOUS
 62
     7
 10
1781.0788936158
 20
875.6757620548
 30
0.0
  0
VERTEX
  5
97D
  8
0
  6
CONTINUOUS
 62
     7
 10
1780.6585183145
 20
875.882059006
 30
0.0
  0
VERTEX
  5
97E
  8
0
  6
CONTINUOUS
 62
     7
 10
1780.2475312238
 20
876.2276432212
 30
0.0
  0
VERTEX
  5
97F
  8
0
  6
CONTINUOUS
 62
     7
 10
1779.882455222
 20
876.6817939058
 30
0.0
  0
VERTEX
  5
980
  8
0
  6
CONTINUOUS
 62
     7
 10
1779.5957249432
 20
877.2041654632
 30
0.0
  0
VERTEX
  5
981
  8
0
  6
CONTINUOUS
 62
     7
 10
1779.4128181574
 20
877.7483416292
 30
0.0
  0
VERTEX
  5
982
  8
0
  6
CONTINUOUS
 62
     7
 10
1779.349987743
 20
878.2659676144
 30
0.0
  0
SEQEND
  5
C4F
  8
0
  6
CONTINUOUS
 62
     7
  0
POLYLINE
  5
406
  8
0
  6
CONTINUOUS
 62
     7
 66
     1
 10
0.0
 20
0.0
 30
0.0
 70
   128
  0
VERTEX
  5
983
  8
0
  6
CONTINUOUS
 62
     7
 10
1779.349987743
 20
845.6043419527
 30
0.0
  0
VERTEX
  5
984
  8
0
  6
CONTINUOUS
 62
     7
 10
1779.4128181574
 20
846.0494254855
 30
0.0
  0
VERTEX
  5
985
  8
0
  6
CONTINUOUS
 62
     7
 10
1779.5957249432
 20
846.3824280553
 30
0.0
  0
VERTEX
  5
986
  8
0
  6
CONTINUOUS
 62
     7
 10
1779.882455222
 20
846.5737478795
 30
0.0
  0
VERTEX
  5
987
  8
0
  6
CONTINUOUS
 62
     7
 10
1780.2475312238
 20
846.6063907845
 30
0.0
  0
VERTEX
  5
988
  8
0
  6
CONTINUOUS
 62
     7
 10
1780.6585183145
 20
846.4774533214
 30
0.0
  0
VERTEX
  5
989
  8
0
  6
CONTINUOUS
 62
     7
 10
1781.0788936158
 20
846.1984013645
 30
0.0
  0
VERTEX
  5
98A
  8
0
  6
CONTINUOUS
 62
     7
 10
1781.4713097513
 20
845.7940133741
 30
0.0
  0
VERTEX
  5
98B
  8
0
  6
CONTINUOUS
 62
     7
 10
1781.8008928383
 20
845.3002392425
 30
0.0
  0
VERTEX
  5
98C
  8
0
  6
CONTINUOUS
 62
     7
 10
1782.0383639879
 20
844.7609382008
 30
0.0
  0
VERTEX
  5
98D
  8
0
  6
CONTINUOUS
 62
     7
 10
1782.1626207999
 20
844.2240402452
 30
0.0
  0
VERTEX
  5
98E
  8
0
  6
CONTINUOUS
 62
     7
 10
1782.1626207999
 20
843.7372405718
 30
0.0
  0
VERTEX
  5
98F
  8
0
  6
CONTINUOUS
 62
     7
 10
1782.0383639879
 20
843.3438064775
 30
0.0
  0
VERTEX
  5
990
  8
0
  6
CONTINUOUS
 62
     7
 10
1781.8008928383
 20
843.0786837891
 30
0.0
  0
VERTEX
  5
991
  8
0
  6
CONTINUOUS
 62
     7
 10
1781.4713097513
 20
842.9654381899
 30
0.0
  0
VERTEX
  5
992
  8
0
  6
CONTINUOUS
 62
     7
 10
1781.0788936158
 20
843.0141242258
 30
0.0
  0
VERTEX
  5
993
  8
0
  6
CONTINUOUS
 62
     7
 10
1780.6585183145
 20
843.2204272606
 30
0.0
  0
VERTEX
  5
994
  8
0
  6
CONTINUOUS
 62
     7
 10
1780.2475312238
 20
843.5660053921
 30
0.0
  0
VERTEX
  5
995
  8
0
  6
CONTINUOUS
 62
     7
 10
1779.882455222
 20
844.0201560768
 30
0.0
  0
VERTEX
  5
996
  8
0
  6
CONTINUOUS
 62
     7
 10
1779.5957249432
 20
844.5425276342
 30
0.0
  0
VERTEX
  5
997
  8
0
  6
CONTINUOUS
 62
     7
 10
1779.4128181574
 20
845.0867098838
 30
0.0
  0
VERTEX
  5
998
  8
0
  6
CONTINUOUS
 62
     7
 10
1779.349987743
 20
845.6043419527
 30
0.0
  0
SEQEND
  5
C50
  8
0
  6
CONTINUOUS
 62
     7
  0
POLYLINE
  5
407
  8
0
  6
CONTINUOUS
 62
     7
 66
     1
 10
0.0
 20
0.0
 30
0.0
 70
   128
  0
VERTEX
  5
999
  8
0
  6
CONTINUOUS
 62
     7
 10
1774.577017834
 20
1109.6527727944
 30
0.0
  0
VERTEX
  5
99A
  8
0
  6
CONTINUOUS
 62
     7
 10
1774.6443000093
 20
1110.0045296971
 30
0.0
  0
VERTEX
  5
99B
  8
0
  6
CONTINUOUS
 62
     7
 10
1774.8359022168
 20
1110.225043891
 30
0.0
  0
VERTEX
  5
99C
  8
0
  6
CONTINUOUS
 62
     7
 10
1775.122653569
 20
1110.2807579744
 30
0.0
  0
VERTEX
  5
99D
  8
0
  6
CONTINUOUS
 62
     7
 10
1775.4609004675
 20
1110.1631932526
 30
0.0
  0
VERTEX
  5
99E
  8
0
  6
CONTINUOUS
 62
     7
 10
1775.7991473661
 20
1109.890226418
 30
0.0
  0
VERTEX
  5
99F
  8
0
  6
CONTINUOUS
 62
     7
 10
1776.0859013525
 20
1109.5034347499
 30
0.0
  0
VERTEX
  5
9A0
  8
0
  6
CONTINUOUS
 62
     7
 10
1776.27750356
 20
1109.061701356
 30
0.0
  0
VERTEX
  5
9A1
  8
0
  6
CONTINUOUS
 62
     7
 10
1776.3447857353
 20
1108.6322621072
 30
0.0
  0
VERTEX
  5
9A2
  8
0
  6
CONTINUOUS
 62
     7
 10
1776.27750356
 20
1108.2805052045
 30
0.0
  0
VERTEX
  5
9A3
  8
0
  6
CONTINUOUS
 62
     7
 10
1776.0859013525
 20
1108.0599910106
 30
0.0
  0
VERTEX
  5
9A4
  8
0
  6
CONTINUOUS
 62
     7
 10
1775.7991473661
 20
1108.0042784479
 30
0.0
  0
VERTEX
  5
9A5
  8
0
  6
CONTINUOUS
 62
     7
 10
1775.4609004675
 20
1108.1218431697
 30
0.0
  0
VERTEX
  5
9A6
  8
0
  6
CONTINUOUS
 62
     7
 10
1775.122653569
 20
1108.3948100042
 30
0.0
  0
VERTEX
  5
9A7
  8
0
  6
CONTINUOUS
 62
     7
 10
1774.8359022168
 20
1108.7816001517
 30
0.0
  0
VERTEX
  5
9A8
  8
0
  6
CONTINUOUS
 62
     7
 10
1774.6443000093
 20
1109.2233335456
 30
0.0
  0
VERTEX
  5
9A9
  8
0
  6
CONTINUOUS
 62
     7
 10
1774.577017834
 20
1109.6527727944
 30
0.0
  0
SEQEND
  5
C51
  8
0
  6
CONTINUOUS
 62
     7
  0
POLYLINE
  5
408
  8
0
  6
CONTINUOUS
 62
     7
 66
     1
 10
0.0
 20
0.0
 30
0.0
 70
   128
  0
VERTEX
  5
9AA
  8
0
  6
CONTINUOUS
 62
     7
 10
1774.577017834
 20
1076.9911471327
 30
0.0
  0
VERTEX
  5
9AB
  8
0
  6
CONTINUOUS
 62
     7
 10
1774.6443000093
 20
1077.3429040354
 30
0.0
  0
VERTEX
  5
9AC
  8
0
  6
CONTINUOUS
 62
     7
 10
1774.8359022168
 20
1077.5634182294
 30
0.0
  0
VERTEX
  5
9AD
  8
0
  6
CONTINUOUS
 62
     7
 10
1775.122653569
 20
1077.6191323127
 30
0.0
  0
VERTEX
  5
9AE
  8
0
  6
CONTINUOUS
 62
     7
 10
1775.4609004675
 20
1077.5015675909
 30
0.0
  0
VERTEX
  5
9AF
  8
0
  6
CONTINUOUS
 62
     7
 10
1775.7991473661
 20
1077.2286007564
 30
0.0
  0
VERTEX
  5
9B0
  8
0
  6
CONTINUOUS
 62
     7
 10
1776.0859013525
 20
1076.8418090882
 30
0.0
  0
VERTEX
  5
9B1
  8
0
  6
CONTINUOUS
 62
     7
 10
1776.27750356
 20
1076.4000756943
 30
0.0
  0
VERTEX
  5
9B2
  8
0
  6
CONTINUOUS
 62
     7
 10
1776.3447857353
 20
1075.9706364455
 30
0.0
  0
VERTEX
  5
9B3
  8
0
  6
CONTINUOUS
 62
     7
 10
1776.27750356
 20
1075.6188795428
 30
0.0
  0
VERTEX
  5
9B4
  8
0
  6
CONTINUOUS
 62
     7
 10
1776.0859013525
 20
1075.3983653489
 30
0.0
  0
VERTEX
  5
9B5
  8
0
  6
CONTINUOUS
 62
     7
 10
1775.7991473661
 20
1075.3426527862
 30
0.0
  0
VERTEX
  5
9B6
  8
0
  6
CONTINUOUS
 62
     7
 10
1775.4609004675
 20
1075.460217508
 30
0.0
  0
VERTEX
  5
9B7
  8
0
  6
CONTINUOUS
 62
     7
 10
1775.122653569
 20
1075.7331843425
 30
0.0
  0
VERTEX
  5
9B8
  8
0
  6
CONTINUOUS
 62
     7
 10
1774.8359022168
 20
1076.11997449
 30
0.0
  0
VERTEX
  5
9B9
  8
0
  6
CONTINUOUS
 62
     7
 10
1774.6443000093
 20
1076.561707884
 30
0.0
  0
VERTEX
  5
9BA
  8
0
  6
CONTINUOUS
 62
     7
 10
1774.577017834
 20
1076.9911471327
 30
0.0
  0
SEQEND
  5
C52
  8
0
  6
CONTINUOUS
 62
     7
  0
POLYLINE
  5
409
  8
0
  6
CONTINUOUS
 62
     7
 66
     1
 10
0.0
 20
0.0
 30
0.0
 70
   128
  0
VERTEX
  5
9BB
  8
0
  6
CONTINUOUS
 62
     7
 10
1774.577017834
 20
1044.329521471
 30
0.0
  0
VERTEX
  5
9BC
  8
0
  6
CONTINUOUS
 62
     7
 10
1774.6443000093
 20
1044.6812540389
 30
0.0
  0
VERTEX
  5
9BD
  8
0
  6
CONTINUOUS
 62
     7
 10
1774.8359022168
 20
1044.9017925677
 30
0.0
  0
VERTEX
  5
9BE
  8
0
  6
CONTINUOUS
 62
     7
 10
1775.122653569
 20
1044.957506651
 30
0.0
  0
VERTEX
  5
9BF
  8
0
  6
CONTINUOUS
 62
     7
 10
1775.4609004675
 20
1044.8399419292
 30
0.0
  0
VERTEX
  5
9C0
  8
0
  6
CONTINUOUS
 62
     7
 10
1775.7991473661
 20
1044.5669750947
 30
0.0
  0
VERTEX
  5
9C1
  8
0
  6
CONTINUOUS
 62
     7
 10
1776.0859013525
 20
1044.1801834265
 30
0.0
  0
VERTEX
  5
9C2
  8
0
  6
CONTINUOUS
 62
     7
 10
1776.27750356
 20
1043.7384256978
 30
0.0
  0
VERTEX
  5
9C3
  8
0
  6
CONTINUOUS
 62
     7
 10
1776.3447857353
 20
1043.3090107838
 30
0.0
  0
VERTEX
  5
9C4
  8
0
  6
CONTINUOUS
 62
     7
 10
1776.27750356
 20
1042.9572538811
 30
0.0
  0
VERTEX
  5
9C5
  8
0
  6
CONTINUOUS
 62
     7
 10
1776.0859013525
 20
1042.7367153524
 30
0.0
  0
VERTEX
  5
9C6
  8
0
  6
CONTINUOUS
 62
     7
 10
1775.7991473661
 20
1042.6810027897
 30
0.0
  0
VERTEX
  5
9C7
  8
0
  6
CONTINUOUS
 62
     7
 10
1775.4609004675
 20
1042.7985918463
 30
0.0
  0
VERTEX
  5
9C8
  8
0
  6
CONTINUOUS
 62
     7
 10
1775.122653569
 20
1043.071534346
 30
0.0
  0
VERTEX
  5
9C9
  8
0
  6
CONTINUOUS
 62
     7
 10
1774.8359022168
 20
1043.4583244935
 30
0.0
  0
VERTEX
  5
9CA
  8
0
  6
CONTINUOUS
 62
     7
 10
1774.6443000093
 20
1043.9000822223
 30
0.0
  0
VERTEX
  5
9CB
  8
0
  6
CONTINUOUS
 62
     7
 10
1774.577017834
 20
1044.329521471
 30
0.0
  0
SEQEND
  5
C53
  8
0
  6
CONTINUOUS
 62
     7
  0
POLYLINE
  5
40A
  8
0
  6
CONTINUOUS
 62
     7
 66
     1
 10
0.0
 20
0.0
 30
0.0
 70
   128
  0
VERTEX
  5
9CC
  8
0
  6
CONTINUOUS
 62
     7
 10
1774.577017834
 20
1011.6678714745
 30
0.0
  0
VERTEX
  5
9CD
  8
0
  6
CONTINUOUS
 62
     7
 10
1774.6443000093
 20
1012.0196283772
 30
0.0
  0
VERTEX
  5
9CE
  8
0
  6
CONTINUOUS
 62
     7
 10
1774.8359022168
 20
1012.2401425712
 30
0.0
  0
VERTEX
  5
9CF
  8
0
  6
CONTINUOUS
 62
     7
 10
1775.122653569
 20
1012.2958809894
 30
0.0
  0
VERTEX
  5
9D0
  8
0
  6
CONTINUOUS
 62
     7
 10
1775.4609004675
 20
1012.1782919327
 30
0.0
  0
VERTEX
  5
9D1
  8
0
  6
CONTINUOUS
 62
     7
 10
1775.7991473661
 20
1011.905349433
 30
0.0
  0
VERTEX
  5
9D2
  8
0
  6
CONTINUOUS
 62
     7
 10
1776.0859013525
 20
1011.51853343
 30
0.0
  0
VERTEX
  5
9D3
  8
0
  6
CONTINUOUS
 62
     7
 10
1776.27750356
 20
1011.0768000361
 30
0.0
  0
VERTEX
  5
9D4
  8
0
  6
CONTINUOUS
 62
     7
 10
1776.3447857353
 20
1010.6473607873
 30
0.0
  0
VERTEX
  5
9D5
  8
0
  6
CONTINUOUS
 62
     7
 10
1776.27750356
 20
1010.2956038846
 30
0.0
  0
VERTEX
  5
9D6
  8
0
  6
CONTINUOUS
 62
     7
 10
1776.0859013525
 20
1010.0750896907
 30
0.0
  0
VERTEX
  5
9D7
  8
0
  6
CONTINUOUS
 62
     7
 10
1775.7991473661
 20
1010.019377128
 30
0.0
  0
VERTEX
  5
9D8
  8
0
  6
CONTINUOUS
 62
     7
 10
1775.4609004675
 20
1010.1369418498
 30
0.0
  0
VERTEX
  5
9D9
  8
0
  6
CONTINUOUS
 62
     7
 10
1775.122653569
 20
1010.4099086844
 30
0.0
  0
VERTEX
  5
9DA
  8
0
  6
CONTINUOUS
 62
     7
 10
1774.8359022168
 20
1010.7966988318
 30
0.0
  0
VERTEX
  5
9DB
  8
0
  6
CONTINUOUS
 62
     7
 10
1774.6443000093
 20
1011.2384322258
 30
0.0
  0
VERTEX
  5
9DC
  8
0
  6
CONTINUOUS
 62
     7
 10
1774.577017834
 20
1011.6678714745
 30
0.0
  0
SEQEND
  5
C54
  8
0
  6
CONTINUOUS
 62
     7
  0
POLYLINE
  5
40B
  8
0
  6
CONTINUOUS
 62
     7
 66
     1
 10
0.0
 20
0.0
 30
0.0
 70
   128
  0
VERTEX
  5
9DD
  8
0
  6
CONTINUOUS
 62
     7
 10
1775.9055945004
 20
979.121363113
 30
0.0
  0
VERTEX
  5
9DE
  8
0
  6
CONTINUOUS
 62
     7
 10
1776.0859013525
 20
978.8569077684
 30
0.0
  0
VERTEX
  5
9DF
  8
0
  6
CONTINUOUS
 62
     7
 10
1776.27750356
 20
978.4151743744
 30
0.0
  0
VERTEX
  5
9E0
  8
0
  6
CONTINUOUS
 62
     7
 10
1776.3447857353
 20
977.9857351256
 30
0.0
  0
VERTEX
  5
9E1
  8
0
  6
CONTINUOUS
 62
     7
 10
1776.27750356
 20
977.6339782229
 30
0.0
  0
VERTEX
  5
9E2
  8
0
  6
CONTINUOUS
 62
     7
 10
1776.0859013525
 20
977.413464029
 30
0.0
  0
VERTEX
  5
9E3
  8
0
  6
CONTINUOUS
 62
     7
 10
1775.7991473661
 20
977.3577392989
 30
0.0
  0
VERTEX
  5
9E4
  8
0
  6
CONTINUOUS
 62
     7
 10
1775.4609004675
 20
977.4753161881
 30
0.0
  0
VERTEX
  5
9E5
  8
0
  6
CONTINUOUS
 62
     7
 10
1775.122653569
 20
977.7482708553
 30
0.0
  0
VERTEX
  5
9E6
  8
0
  6
CONTINUOUS
 62
     7
 10
1774.8601024104
 20
978.0941883931
 30
0.0
  0
SEQEND
  5
C55
  8
0
  6
CONTINUOUS
 62
     7
  0
POLYLINE
  5
40C
  8
0
  6
CONTINUOUS
 62
     7
 66
     1
 10
0.0
 20
0.0
 30
0.0
 70
   128
  0
VERTEX
  5
9E7
  8
0
  6
CONTINUOUS
 62
     7
 10
1774.577017834
 20
946.3446079838
 30
0.0
  0
VERTEX
  5
9E8
  8
0
  6
CONTINUOUS
 62
     7
 10
1774.6443000093
 20
946.6963648865
 30
0.0
  0
VERTEX
  5
9E9
  8
0
  6
CONTINUOUS
 62
     7
 10
1774.8359022168
 20
946.9168912478
 30
0.0
  0
VERTEX
  5
9EA
  8
0
  6
CONTINUOUS
 62
     7
 10
1775.122653569
 20
946.9726053312
 30
0.0
  0
VERTEX
  5
9EB
  8
0
  6
CONTINUOUS
 62
     7
 10
1775.4609004675
 20
946.8550406094
 30
0.0
  0
VERTEX
  5
9EC
  8
0
  6
CONTINUOUS
 62
     7
 10
1775.7991473661
 20
946.5820737748
 30
0.0
  0
VERTEX
  5
9ED
  8
0
  6
CONTINUOUS
 62
     7
 10
1776.0859013525
 20
946.1952821067
 30
0.0
  0
VERTEX
  5
9EE
  8
0
  6
CONTINUOUS
 62
     7
 10
1776.27750356
 20
945.7535365453
 30
0.0
  0
VERTEX
  5
9EF
  8
0
  6
CONTINUOUS
 62
     7
 10
1776.3447857353
 20
945.3240972966
 30
0.0
  0
VERTEX
  5
9F0
  8
0
  6
CONTINUOUS
 62
     7
 10
1776.27750356
 20
944.9723525613
 30
0.0
  0
VERTEX
  5
9F1
  8
0
  6
CONTINUOUS
 62
     7
 10
1776.0859013525
 20
944.7518261999
 30
0.0
  0
VERTEX
  5
9F2
  8
0
  6
CONTINUOUS
 62
     7
 10
1775.7991473661
 20
944.6961136372
 30
0.0
  0
VERTEX
  5
9F3
  8
0
  6
CONTINUOUS
 62
     7
 10
1775.4609004675
 20
944.813678359
 30
0.0
  0
VERTEX
  5
9F4
  8
0
  6
CONTINUOUS
 62
     7
 10
1775.122653569
 20
945.0866451936
 30
0.0
  0
VERTEX
  5
9F5
  8
0
  6
CONTINUOUS
 62
     7
 10
1774.8359022168
 20
945.4734353411
 30
0.0
  0
VERTEX
  5
9F6
  8
0
  6
CONTINUOUS
 62
     7
 10
1774.6443000093
 20
945.9151809024
 30
0.0
  0
VERTEX
  5
9F7
  8
0
  6
CONTINUOUS
 62
     7
 10
1774.577017834
 20
946.3446079838
 30
0.0
  0
SEQEND
  5
C56
  8
0
  6
CONTINUOUS
 62
     7
  0
POLYLINE
  5
40D
  8
0
  6
CONTINUOUS
 62
     7
 66
     1
 10
0.0
 20
0.0
 30
0.0
 70
   128
  0
VERTEX
  5
9F8
  8
0
  6
CONTINUOUS
 62
     7
 10
1774.577017834
 20
913.6829823221
 30
0.0
  0
VERTEX
  5
9F9
  8
0
  6
CONTINUOUS
 62
     7
 10
1774.6443000093
 20
914.0347392248
 30
0.0
  0
VERTEX
  5
9FA
  8
0
  6
CONTINUOUS
 62
     7
 10
1774.8359022168
 20
914.2552534187
 30
0.0
  0
VERTEX
  5
9FB
  8
0
  6
CONTINUOUS
 62
     7
 10
1775.122653569
 20
914.3109796695
 30
0.0
  0
VERTEX
  5
9FC
  8
0
  6
CONTINUOUS
 62
     7
 10
1775.4609004675
 20
914.1934027803
 30
0.0
  0
VERTEX
  5
9FD
  8
0
  6
CONTINUOUS
 62
     7
 10
1775.7991473661
 20
913.9204481131
 30
0.0
  0
VERTEX
  5
9FE
  8
0
  6
CONTINUOUS
 62
     7
 10
1776.0859013525
 20
913.5336442776
 30
0.0
  0
VERTEX
  5
9FF
  8
0
  6
CONTINUOUS
 62
     7
 10
1776.27750356
 20
913.0919108836
 30
0.0
  0
VERTEX
  5
A00
  8
0
  6
CONTINUOUS
 62
     7
 10
1776.3447857353
 20
912.6624716349
 30
0.0
  0
VERTEX
  5
A01
  8
0
  6
CONTINUOUS
 62
     7
 10
1776.27750356
 20
912.3107147322
 30
0.0
  0
VERTEX
  5
A02
  8
0
  6
CONTINUOUS
 62
     7
 10
1776.0859013525
 20
912.0901883708
 30
0.0
  0
VERTEX
  5
A03
  8
0
  6
CONTINUOUS
 62
     7
 10
1775.7991473661
 20
912.0344758081
 30
0.0
  0
VERTEX
  5
A04
  8
0
  6
CONTINUOUS
 62
     7
 10
1775.4609004675
 20
912.1520526974
 30
0.0
  0
VERTEX
  5
A05
  8
0
  6
CONTINUOUS
 62
     7
 10
1775.122653569
 20
912.4250073645
 30
0.0
  0
VERTEX
  5
A06
  8
0
  6
CONTINUOUS
 62
     7
 10
1774.8359022168
 20
912.811797512
 30
0.0
  0
VERTEX
  5
A07
  8
0
  6
CONTINUOUS
 62
     7
 10
1774.6443000093
 20
913.2535430733
 30
0.0
  0
VERTEX
  5
A08
  8
0
  6
CONTINUOUS
 62
     7
 10
1774.577017834
 20
913.6829823221
 30
0.0
  0
SEQEND
  5
C57
  8
0
  6
CONTINUOUS
 62
     7
  0
POLYLINE
  5
40E
  8
0
  6
CONTINUOUS
 62
     7
 66
     1
 10
0.0
 20
0.0
 30
0.0
 70
   128
  0
VERTEX
  5
A09
  8
0
  6
CONTINUOUS
 62
     7
 10
1774.577017834
 20
881.021344493
 30
0.0
  0
VERTEX
  5
A0A
  8
0
  6
CONTINUOUS
 62
     7
 10
1774.6443000093
 20
881.3731013957
 30
0.0
  0
VERTEX
  5
A0B
  8
0
  6
CONTINUOUS
 62
     7
 10
1774.8359022168
 20
881.593627757
 30
0.0
  0
VERTEX
  5
A0C
  8
0
  6
CONTINUOUS
 62
     7
 10
1775.122653569
 20
881.6493418404
 30
0.0
  0
VERTEX
  5
A0D
  8
0
  6
CONTINUOUS
 62
     7
 10
1775.4609004675
 20
881.5317649512
 30
0.0
  0
VERTEX
  5
A0E
  8
0
  6
CONTINUOUS
 62
     7
 10
1775.7991473661
 20
881.2588102841
 30
0.0
  0
VERTEX
  5
A0F
  8
0
  6
CONTINUOUS
 62
     7
 10
1776.0859013525
 20
880.8720186159
 30
0.0
  0
VERTEX
  5
A10
  8
0
  6
CONTINUOUS
 62
     7
 10
1776.27750356
 20
880.4302730546
 30
0.0
  0
VERTEX
  5
A11
  8
0
  6
CONTINUOUS
 62
     7
 10
1776.3447857353
 20
880.0008338058
 30
0.0
  0
VERTEX
  5
A12
  8
0
  6
CONTINUOUS
 62
     7
 10
1776.27750356
 20
879.6490890705
 30
0.0
  0
VERTEX
  5
A13
  8
0
  6
CONTINUOUS
 62
     7
 10
1776.0859013525
 20
879.4285627091
 30
0.0
  0
VERTEX
  5
A14
  8
0
  6
CONTINUOUS
 62
     7
 10
1775.7991473661
 20
879.3728501465
 30
0.0
  0
VERTEX
  5
A15
  8
0
  6
CONTINUOUS
 62
     7
 10
1775.4609004675
 20
879.4904148683
 30
0.0
  0
VERTEX
  5
A16
  8
0
  6
CONTINUOUS
 62
     7
 10
1775.122653569
 20
879.7633817028
 30
0.0
  0
VERTEX
  5
A17
  8
0
  6
CONTINUOUS
 62
     7
 10
1774.8359022168
 20
880.1501718503
 30
0.0
  0
VERTEX
  5
A18
  8
0
  6
CONTINUOUS
 62
     7
 10
1774.6443000093
 20
880.5919174116
 30
0.0
  0
VERTEX
  5
A19
  8
0
  6
CONTINUOUS
 62
     7
 10
1774.577017834
 20
881.021344493
 30
0.0
  0
SEQEND
  5
C58
  8
0
  6
CONTINUOUS
 62
     7
  0
POLYLINE
  5
40F
  8
0
  6
CONTINUOUS
 62
     7
 66
     1
 10
0.0
 20
0.0
 30
0.0
 70
   128
  0
VERTEX
  5
A1A
  8
0
  6
CONTINUOUS
 62
     7
 10
1774.577017834
 20
848.3597188313
 30
0.0
  0
VERTEX
  5
A1B
  8
0
  6
CONTINUOUS
 62
     7
 10
1774.6443000093
 20
848.7114696503
 30
0.0
  0
VERTEX
  5
A1C
  8
0
  6
CONTINUOUS
 62
     7
 10
1774.8359022168
 20
848.931989928
 30
0.0
  0
VERTEX
  5
A1D
  8
0
  6
CONTINUOUS
 62
     7
 10
1775.122653569
 20
848.987710095
 30
0.0
  0
VERTEX
  5
A1E
  8
0
  6
CONTINUOUS
 62
     7
 10
1775.4609004675
 20
848.8701392895
 30
0.0
  0
VERTEX
  5
A1F
  8
0
  6
CONTINUOUS
 62
     7
 10
1775.7991473661
 20
848.5971785387
 30
0.0
  0
VERTEX
  5
A20
  8
0
  6
CONTINUOUS
 62
     7
 10
1776.0859013525
 20
848.2103807868
 30
0.0
  0
VERTEX
  5
A21
  8
0
  6
CONTINUOUS
 62
     7
 10
1776.27750356
 20
847.7686413092
 30
0.0
  0
VERTEX
  5
A22
  8
0
  6
CONTINUOUS
 62
     7
 10
1776.3447857353
 20
847.3392081441
 30
0.0
  0
VERTEX
  5
A23
  8
0
  6
CONTINUOUS
 62
     7
 10
1776.27750356
 20
846.9874512414
 30
0.0
  0
VERTEX
  5
A24
  8
0
  6
CONTINUOUS
 62
     7
 10
1776.0859013525
 20
846.7669309638
 30
0.0
  0
VERTEX
  5
A25
  8
0
  6
CONTINUOUS
 62
     7
 10
1775.7991473661
 20
846.7112123174
 30
0.0
  0
VERTEX
  5
A26
  8
0
  6
CONTINUOUS
 62
     7
 10
1775.4609004675
 20
846.8287831229
 30
0.0
  0
VERTEX
  5
A27
  8
0
  6
CONTINUOUS
 62
     7
 10
1775.122653569
 20
847.1017438737
 30
0.0
  0
VERTEX
  5
A28
  8
0
  6
CONTINUOUS
 62
     7
 10
1774.8359022168
 20
847.4885401049
 30
0.0
  0
VERTEX
  5
A29
  8
0
  6
CONTINUOUS
 62
     7
 10
1774.6443000093
 20
847.9302795825
 30
0.0
  0
VERTEX
  5
A2A
  8
0
  6
CONTINUOUS
 62
     7
 10
1774.577017834
 20
848.3597188313
 30
0.0
  0
SEQEND
  5
C59
  8
0
  6
CONTINUOUS
 62
     7
  0
POLYLINE
  5
410
  8
0
  6
CONTINUOUS
 62
     7
 66
     1
 10
0.0
 20
0.0
 30
0.0
 70
   128
  0
VERTEX
  5
A2B
  8
0
  6
CONTINUOUS
 62
     7
 10
1779.349987743
 20
780.2810738992
 30
0.0
  0
VERTEX
  5
A2C
  8
0
  6
CONTINUOUS
 62
     7
 10
1779.4128181574
 20
780.7261619948
 30
0.0
  0
VERTEX
  5
A2D
  8
0
  6
CONTINUOUS
 62
     7
 10
1779.5957249432
 20
781.0591607623
 30
0.0
  0
VERTEX
  5
A2E
  8
0
  6
CONTINUOUS
 62
     7
 10
1779.882455222
 20
781.2504821073
 30
0.0
  0
VERTEX
  5
A2F
  8
0
  6
CONTINUOUS
 62
     7
 10
1780.2475312238
 20
781.2831257728
 30
0.0
  0
VERTEX
  5
A30
  8
0
  6
CONTINUOUS
 62
     7
 10
1780.6585183145
 20
781.1541905911
 30
0.0
  0
VERTEX
  5
A31
  8
0
  6
CONTINUOUS
 62
     7
 10
1781.0788936158
 20
780.8751348319
 30
0.0
  0
VERTEX
  5
A32
  8
0
  6
CONTINUOUS
 62
     7
 10
1781.4713097513
 20
780.4707514043
 30
0.0
  0
VERTEX
  5
A33
  8
0
  6
CONTINUOUS
 62
     7
 10
1781.8008928383
 20
779.9769742308
 30
0.0
  0
VERTEX
  5
A34
  8
0
  6
CONTINUOUS
 62
     7
 10
1782.0383639879
 20
779.4376747101
 30
0.0
  0
VERTEX
  5
A35
  8
0
  6
CONTINUOUS
 62
     7
 10
1782.0867643751
 20
779.2795037307
 30
0.0
  0
SEQEND
  5
C5A
  8
0
  6
CONTINUOUS
 62
     7
  0
ARC
  5
411
  8
0
  6
CONTINUOUS
 62
     7
 10
1782.318083718
 20
780.3667863363
 30
0.0
 40
2.969333315557144
 50
181.6541232108
 51
240.6146114082
  0
POLYLINE
  5
412
  8
0
  6
CONTINUOUS
 62
     7
 66
     1
 10
0.0
 20
0.0
 30
0.0
 70
   128
  0
VERTEX
  5
A36
  8
0
  6
CONTINUOUS
 62
     7
 10
1774.577017834
 20
783.0364507778
 30
0.0
  0
VERTEX
  5
A37
  8
0
  6
CONTINUOUS
 62
     7
 10
1774.6443000093
 20
783.3882053991
 30
0.0
  0
VERTEX
  5
A38
  8
0
  6
CONTINUOUS
 62
     7
 10
1774.8359022168
 20
783.6087271976
 30
0.0
  0
VERTEX
  5
A39
  8
0
  6
CONTINUOUS
 62
     7
 10
1775.122653569
 20
783.6644435624
 30
0.0
  0
VERTEX
  5
A3A
  8
0
  6
CONTINUOUS
 62
     7
 10
1775.4609004675
 20
783.5468727569
 30
0.0
  0
VERTEX
  5
A3B
  8
0
  6
CONTINUOUS
 62
     7
 10
1775.7991473661
 20
783.273912006
 30
0.0
  0
VERTEX
  5
A3C
  8
0
  6
CONTINUOUS
 62
     7
 10
1776.0859013525
 20
782.8871180565
 30
0.0
  0
VERTEX
  5
A3D
  8
0
  6
CONTINUOUS
 62
     7
 10
1776.27750356
 20
782.4453770579
 30
0.0
  0
VERTEX
  5
A3E
  8
0
  6
CONTINUOUS
 62
     7
 10
1776.3447857353
 20
782.0159400906
 30
0.0
  0
VERTEX
  5
A3F
  8
0
  6
CONTINUOUS
 62
     7
 10
1776.27750356
 20
781.6641854692
 30
0.0
  0
VERTEX
  5
A40
  8
0
  6
CONTINUOUS
 62
     7
 10
1776.0859013525
 20
781.4436644311
 30
0.0
  0
VERTEX
  5
A41
  8
0
  6
CONTINUOUS
 62
     7
 10
1775.7991473661
 20
781.3879488266
 30
0.0
  0
VERTEX
  5
A42
  8
0
  6
CONTINUOUS
 62
     7
 10
1775.4609004675
 20
781.5055203926
 30
0.0
  0
VERTEX
  5
A43
  8
0
  6
CONTINUOUS
 62
     7
 10
1775.122653569
 20
781.778480383
 30
0.0
  0
VERTEX
  5
A44
  8
0
  6
CONTINUOUS
 62
     7
 10
1774.8359022168
 20
782.1652735723
 30
0.0
  0
VERTEX
  5
A45
  8
0
  6
CONTINUOUS
 62
     7
 10
1774.6443000093
 20
782.6070138104
 30
0.0
  0
VERTEX
  5
A46
  8
0
  6
CONTINUOUS
 62
     7
 10
1774.577017834
 20
783.0364507778
 30
0.0
  0
SEQEND
  5
C5B
  8
0
  6
CONTINUOUS
 62
     7
  0
POLYLINE
  5
413
  8
0
  6
CONTINUOUS
 62
     7
 66
     1
 10
0.0
 20
0.0
 30
0.0
 70
   128
  0
VERTEX
  5
A47
  8
0
  6
CONTINUOUS
 62
     7
 10
1774.577017834
 20
815.6980840441
 30
0.0
  0
VERTEX
  5
A48
  8
0
  6
CONTINUOUS
 62
     7
 10
1774.6443000093
 20
816.0498379049
 30
0.0
  0
VERTEX
  5
A49
  8
0
  6
CONTINUOUS
 62
     7
 10
1774.8359022168
 20
816.2703581826
 30
0.0
  0
VERTEX
  5
A4A
  8
0
  6
CONTINUOUS
 62
     7
 10
1775.122653569
 20
816.3260753078
 30
0.0
  0
VERTEX
  5
A4B
  8
0
  6
CONTINUOUS
 62
     7
 10
1775.4609004675
 20
816.2085045023
 30
0.0
  0
VERTEX
  5
A4C
  8
0
  6
CONTINUOUS
 62
     7
 10
1775.7991473661
 20
815.9355437514
 30
0.0
  0
VERTEX
  5
A4D
  8
0
  6
CONTINUOUS
 62
     7
 10
1776.0859013525
 20
815.5487490414
 30
0.0
  0
VERTEX
  5
A4E
  8
0
  6
CONTINUOUS
 62
     7
 10
1776.27750356
 20
815.1070095638
 30
0.0
  0
VERTEX
  5
A4F
  8
0
  6
CONTINUOUS
 62
     7
 10
1776.3447857353
 20
814.6775733569
 30
0.0
  0
VERTEX
  5
A50
  8
0
  6
CONTINUOUS
 62
     7
 10
1776.27750356
 20
814.325819496
 30
0.0
  0
VERTEX
  5
A51
  8
0
  6
CONTINUOUS
 62
     7
 10
1776.0859013525
 20
814.1052961765
 30
0.0
  0
VERTEX
  5
A52
  8
0
  6
CONTINUOUS
 62
     7
 10
1775.7991473661
 20
814.049580572
 30
0.0
  0
VERTEX
  5
A53
  8
0
  6
CONTINUOUS
 62
     7
 10
1775.4609004675
 20
814.1671513775
 30
0.0
  0
VERTEX
  5
A54
  8
0
  6
CONTINUOUS
 62
     7
 10
1775.122653569
 20
814.4401121283
 30
0.0
  0
VERTEX
  5
A55
  8
0
  6
CONTINUOUS
 62
     7
 10
1774.8359022168
 20
814.8269053177
 30
0.0
  0
VERTEX
  5
A56
  8
0
  6
CONTINUOUS
 62
     7
 10
1774.6443000093
 20
815.2686478372
 30
0.0
  0
VERTEX
  5
A57
  8
0
  6
CONTINUOUS
 62
     7
 10
1774.577017834
 20
815.6980840441
 30
0.0
  0
SEQEND
  5
C5C
  8
0
  6
CONTINUOUS
 62
     7
  0
POLYLINE
  5
414
  8
0
  6
CONTINUOUS
 62
     7
 66
     1
 10
0.0
 20
0.0
 30
0.0
 70
   128
  0
VERTEX
  5
A58
  8
0
  6
CONTINUOUS
 62
     7
 10
1779.349987743
 20
812.9427071655
 30
0.0
  0
VERTEX
  5
A59
  8
0
  6
CONTINUOUS
 62
     7
 10
1779.4128181574
 20
813.3877937402
 30
0.0
  0
VERTEX
  5
A5A
  8
0
  6
CONTINUOUS
 62
     7
 10
1779.5957249432
 20
813.7207932681
 30
0.0
  0
VERTEX
  5
A5B
  8
0
  6
CONTINUOUS
 62
     7
 10
1779.882455222
 20
813.9121130923
 30
0.0
  0
VERTEX
  5
A5C
  8
0
  6
CONTINUOUS
 62
     7
 10
1780.2475312238
 20
813.9447590391
 30
0.0
  0
VERTEX
  5
A5D
  8
0
  6
CONTINUOUS
 62
     7
 10
1780.6585183145
 20
813.8158246179
 30
0.0
  0
VERTEX
  5
A5E
  8
0
  6
CONTINUOUS
 62
     7
 10
1781.0788936158
 20
813.5367665773
 30
0.0
  0
VERTEX
  5
A5F
  8
0
  6
CONTINUOUS
 62
     7
 10
1781.4713097513
 20
813.1323846706
 30
0.0
  0
VERTEX
  5
A60
  8
0
  6
CONTINUOUS
 62
     7
 10
1781.8008928383
 20
812.6386074971
 30
0.0
  0
VERTEX
  5
A61
  8
0
  6
CONTINUOUS
 62
     7
 10
1782.0383639879
 20
812.0993064555
 30
0.0
  0
VERTEX
  5
A62
  8
0
  6
CONTINUOUS
 62
     7
 10
1782.1626207999
 20
811.5624054579
 30
0.0
  0
VERTEX
  5
A63
  8
0
  6
CONTINUOUS
 62
     7
 10
1782.1626207999
 20
811.0756088265
 30
0.0
  0
VERTEX
  5
A64
  8
0
  6
CONTINUOUS
 62
     7
 10
1782.0383639879
 20
810.6821716903
 30
0.0
  0
VERTEX
  5
A65
  8
0
  6
CONTINUOUS
 62
     7
 10
1781.8008928383
 20
810.4170520438
 30
0.0
  0
VERTEX
  5
A66
  8
0
  6
CONTINUOUS
 62
     7
 10
1781.4713097513
 20
810.3038034027
 30
0.0
  0
VERTEX
  5
A67
  8
0
  6
CONTINUOUS
 62
     7
 10
1781.0788936158
 20
810.3524924804
 30
0.0
  0
VERTEX
  5
A68
  8
0
  6
CONTINUOUS
 62
     7
 10
1780.6585183145
 20
810.5587924734
 30
0.0
  0
VERTEX
  5
A69
  8
0
  6
CONTINUOUS
 62
     7
 10
1780.2475312238
 20
810.9043736467
 30
0.0
  0
VERTEX
  5
A6A
  8
0
  6
CONTINUOUS
 62
     7
 10
1779.882455222
 20
811.3585243314
 30
0.0
  0
VERTEX
  5
A6B
  8
0
  6
CONTINUOUS
 62
     7
 10
1779.5957249432
 20
811.8808989306
 30
0.0
  0
VERTEX
  5
A6C
  8
0
  6
CONTINUOUS
 62
     7
 10
1779.4128181574
 20
812.4250750966
 30
0.0
  0
VERTEX
  5
A6D
  8
0
  6
CONTINUOUS
 62
     7
 10
1779.349987743
 20
812.9427071655
 30
0.0
  0
SEQEND
  5
C5D
  8
0
  6
CONTINUOUS
 62
     7
  0
LINE
  5
415
  8
0
  6
CONTINUOUS
 62
     7
 10
1776.0577946729
 20
774.016208568
 30
0.0
 11
1773.584938972
 21
775.4437577779
 31
0.0
  0
LINE
  5
416
  8
0
  6
CONTINUOUS
 62
     7
 10
1785.0200134394
 20
1077.9308498045
 30
0.0
 11
1785.8200133077
 21
1077.9308498045
 31
0.0
  0
LINE
  5
417
  8
0
  6
CONTINUOUS
 62
     7
 10
1785.0200173907
 20
1078.1700902057
 30
0.0
 11
1785.0200134394
 21
1077.9308498045
 31
0.0
  0
LINE
  5
418
  8
0
  6
CONTINUOUS
 62
     7
 10
1785.8200133077
 20
1077.9308498045
 30
0.0
 11
1785.820017259
 21
1078.1700902057
 31
0.0
  0
LINE
  5
419
  8
0
  6
CONTINUOUS
 62
     7
 10
1785.8200133077
 20
1075.8894997216
 30
0.0
 11
1785.0200134394
 21
1075.8894997216
 31
0.0
  0
LINE
  5
41A
  8
0
  6
CONTINUOUS
 62
     7
 10
1785.0200173907
 20
1074.4956551895
 30
0.0
 11
1785.820017259
 21
1074.4956551895
 31
0.0
  0
LINE
  5
41B
  8
0
  6
CONTINUOUS
 62
     7
 10
1785.0200134394
 20
1075.8894997216
 30
0.0
 11
1785.0200173907
 21
1074.4956551895
 31
0.0
  0
LINE
  5
41C
  8
0
  6
CONTINUOUS
 62
     7
 10
1785.820017259
 20
1074.4956551895
 30
0.0
 11
1785.8200133077
 21
1075.8894997216
 31
0.0
  0
LINE
  5
41D
  8
0
  6
CONTINUOUS
 62
     7
 10
1785.820017259
 20
1004.6814385506
 30
0.0
 11
1785.0200173907
 21
1004.6814385506
 31
0.0
  0
LINE
  5
41E
  8
0
  6
CONTINUOUS
 62
     7
 10
1785.0200173907
 20
1074.4956551895
 30
0.0
 11
1785.0200173907
 21
1004.6814385506
 31
0.0
  0
LINE
  5
41F
  8
0
  6
CONTINUOUS
 62
     7
 10
1785.820017259
 20
1074.4956551895
 30
0.0
 11
1785.820017259
 21
1004.6814385506
 31
0.0
  0
LINE
  5
420
  8
0
  6
CONTINUOUS
 62
     7
 10
1785.0200180493
 20
1077.6213606719
 30
0.0
 11
1785.8200179175
 21
1077.6213606719
 31
0.0
  0
LINE
  5
421
  8
0
  6
CONTINUOUS
 62
     7
 10
1785.0200180493
 20
1077.6213606719
 30
0.0
 11
1785.0200134394
 21
1075.8894997216
 31
0.0
  0
LINE
  5
422
  8
0
  6
CONTINUOUS
 62
     7
 10
1785.8200179175
 20
1077.6213606719
 30
0.0
 11
1785.8200133077
 21
1075.8894997216
 31
0.0
  0
LINE
  5
423
  8
0
  6
CONTINUOUS
 62
     7
 10
1785.0200127809
 20
1077.9308496324
 30
0.0
 11
1785.0200127809
 21
1077.6213594868
 31
0.0
  0
LINE
  5
424
  8
0
  6
CONTINUOUS
 62
     7
 10
1785.8200179175
 20
1077.930846591
 30
0.0
 11
1785.8200179175
 21
1077.6213564454
 31
0.0
  0
POLYLINE
  5
425
  8
0
  6
CONTINUOUS
 62
     7
 66
     1
 10
0.0
 20
0.0
 30
0.0
 70
   128
  0
VERTEX
  5
A6E
  8
0
  6
CONTINUOUS
 62
     7
 10
1779.9156731536
 20
1107.2239591523
 30
0.0
  0
VERTEX
  5
A6F
  8
0
  6
CONTINUOUS
 62
     7
 10
1779.9785035681
 20
1107.6690548525
 30
0.0
  0
VERTEX
  5
A70
  8
0
  6
CONTINUOUS
 62
     7
 10
1780.0879483969
 20
1107.9056542531
 30
0.0
  0
SEQEND
  5
C5E
  8
0
  6
CONTINUOUS
 62
     7
  0
POLYLINE
  5
426
  8
0
  6
CONTINUOUS
 62
     7
 66
     1
 10
0.0
 20
0.0
 30
0.0
 70
   128
  0
VERTEX
  5
A71
  8
0
  6
CONTINUOUS
 62
     7
 10
1782.0061410347
 20
1104.582888217
 30
0.0
  0
VERTEX
  5
A72
  8
0
  6
CONTINUOUS
 62
     7
 10
1781.6445790264
 20
1104.6337535927
 30
0.0
  0
VERTEX
  5
A73
  8
0
  6
CONTINUOUS
 62
     7
 10
1781.2242037252
 20
1104.8400505439
 30
0.0
  0
VERTEX
  5
A74
  8
0
  6
CONTINUOUS
 62
     7
 10
1780.8132166345
 20
1105.1856225917
 30
0.0
  0
VERTEX
  5
A75
  8
0
  6
CONTINUOUS
 62
     7
 10
1780.4481406327
 20
1105.6397732763
 30
0.0
  0
VERTEX
  5
A76
  8
0
  6
CONTINUOUS
 62
     7
 10
1780.1614103539
 20
1106.1621448337
 30
0.0
  0
VERTEX
  5
A77
  8
0
  6
CONTINUOUS
 62
     7
 10
1779.9785035681
 20
1106.7063209997
 30
0.0
  0
VERTEX
  5
A78
  8
0
  6
CONTINUOUS
 62
     7
 10
1779.9156731536
 20
1107.2239591523
 30
0.0
  0
SEQEND
  5
C5F
  8
0
  6
CONTINUOUS
 62
     7
  0
LINE
  5
427
  8
0
  6
CONTINUOUS
 62
     7
 10
1775.1427032446
 20
1109.9793360309
 30
0.0
 11
1775.1864411367
 21
1110.2711936252
 31
0.0
  0
ARC
  5
428
  8
0
  6
CONTINUOUS
 62
     7
 10
1776.904418696
 20
1109.9956583895
 30
0.0
 40
1.761791063349017
 50
180.5308323206
 51
249.972245915
  0
POLYLINE
  5
429
  8
0
  6
CONTINUOUS
 62
     7
 66
     1
 10
0.0
 20
0.0
 30
0.0
 70
   128
  0
VERTEX
  5
A79
  8
0
  6
CONTINUOUS
 62
     7
 10
1779.9156731536
 20
1074.5623334906
 30
0.0
  0
VERTEX
  5
A7A
  8
0
  6
CONTINUOUS
 62
     7
 10
1779.9785035681
 20
1075.0074291908
 30
0.0
  0
VERTEX
  5
A7B
  8
0
  6
CONTINUOUS
 62
     7
 10
1780.0879483969
 20
1075.2440285914
 30
0.0
  0
SEQEND
  5
C60
  8
0
  6
CONTINUOUS
 62
     7
  0
POLYLINE
  5
42A
  8
0
  6
CONTINUOUS
 62
     7
 66
     1
 10
0.0
 20
0.0
 30
0.0
 70
   128
  0
VERTEX
  5
A7C
  8
0
  6
CONTINUOUS
 62
     7
 10
1782.0061410347
 20
1071.9212625553
 30
0.0
  0
VERTEX
  5
A7D
  8
0
  6
CONTINUOUS
 62
     7
 10
1781.6445790264
 20
1071.972127931
 30
0.0
  0
VERTEX
  5
A7E
  8
0
  6
CONTINUOUS
 62
     7
 10
1781.2242037252
 20
1072.1784248822
 30
0.0
  0
VERTEX
  5
A7F
  8
0
  6
CONTINUOUS
 62
     7
 10
1780.8132166345
 20
1072.52399693
 30
0.0
  0
VERTEX
  5
A80
  8
0
  6
CONTINUOUS
 62
     7
 10
1780.4481406327
 20
1072.9781476146
 30
0.0
  0
VERTEX
  5
A81
  8
0
  6
CONTINUOUS
 62
     7
 10
1780.1614103539
 20
1073.500519172
 30
0.0
  0
VERTEX
  5
A82
  8
0
  6
CONTINUOUS
 62
     7
 10
1779.9785035681
 20
1074.044695338
 30
0.0
  0
VERTEX
  5
A83
  8
0
  6
CONTINUOUS
 62
     7
 10
1779.9156731536
 20
1074.5623334906
 30
0.0
  0
SEQEND
  5
C61
  8
0
  6
CONTINUOUS
 62
     7
  0
LINE
  5
42B
  8
0
  6
CONTINUOUS
 62
     7
 10
1775.1427032446
 20
1077.3177103692
 30
0.0
 11
1775.1864411367
 21
1077.6095436287
 31
0.0
  0
ARC
  5
42C
  8
0
  6
CONTINUOUS
 62
     7
 10
1776.904418696
 20
1077.3340327278
 30
0.0
 40
1.761791063349295
 50
180.5308323206
 51
249.972245915
  0
LINE
  5
42D
  8
0
  6
CONTINUOUS
 62
     7
 10
1785.0200134394
 20
1004.4421738146
 30
0.0
 11
1785.8200133077
 21
1004.4421738146
 31
0.0
  0
LINE
  5
42E
  8
0
  6
CONTINUOUS
 62
     7
 10
1785.0200173907
 20
1004.6814385506
 30
0.0
 11
1785.0200134394
 21
1004.4421738146
 31
0.0
  0
LINE
  5
42F
  8
0
  6
CONTINUOUS
 62
     7
 10
1785.8200133077
 20
1004.4421738146
 30
0.0
 11
1785.820017259
 21
1004.6814385506
 31
0.0
  0
LINE
  5
430
  8
0
  6
CONTINUOUS
 62
     7
 10
1785.8200133077
 20
1002.4008237317
 30
0.0
 11
1785.0200134394
 21
1002.4008237317
 31
0.0
  0
LINE
  5
431
  8
0
  6
CONTINUOUS
 62
     7
 10
1785.0200173907
 20
1001.0070035344
 30
0.0
 11
1785.820017259
 21
1001.0070035344
 31
0.0
  0
LINE
  5
432
  8
0
  6
CONTINUOUS
 62
     7
 10
1785.0200134394
 20
1002.4008237317
 30
0.0
 11
1785.0200173907
 21
1001.0070035344
 31
0.0
  0
LINE
  5
433
  8
0
  6
CONTINUOUS
 62
     7
 10
1785.820017259
 20
1001.0070035344
 30
0.0
 11
1785.8200133077
 21
1002.4008237317
 31
0.0
  0
LINE
  5
434
  8
0
  6
CONTINUOUS
 62
     7
 10
1785.820017259
 20
931.1927503933
 30
0.0
 11
1785.0200173907
 21
931.1927503933
 31
0.0
  0
LINE
  5
435
  8
0
  6
CONTINUOUS
 62
     7
 10
1785.0200173907
 20
1001.0070035344
 30
0.0
 11
1785.0200173907
 21
994.7261884234
 31
0.0
  0
LINE
  5
436
  8
0
  6
CONTINUOUS
 62
     7
 10
1785.0200173907
 20
984.7952974434
 30
0.0
 11
1785.0200173907
 21
931.1927503933
 31
0.0
  0
LINE
  5
437
  8
0
  6
CONTINUOUS
 62
     7
 10
1785.820017259
 20
1001.0070035344
 30
0.0
 11
1785.820017259
 21
994.7261884234
 31
0.0
  0
LINE
  5
438
  8
0
  6
CONTINUOUS
 62
     7
 10
1785.820017259
 20
985.1758452416
 30
0.0
 11
1785.820017259
 21
931.1927503933
 31
0.0
  0
LINE
  5
439
  8
0
  6
CONTINUOUS
 62
     7
 10
1785.0200180493
 20
1004.132684682
 30
0.0
 11
1785.8200179175
 21
1004.132684682
 31
0.0
  0
LINE
  5
43A
  8
0
  6
CONTINUOUS
 62
     7
 10
1785.0200180493
 20
1004.132684682
 30
0.0
 11
1785.0200134394
 21
1002.4008237317
 31
0.0
  0
LINE
  5
43B
  8
0
  6
CONTINUOUS
 62
     7
 10
1785.8200179175
 20
1004.132684682
 30
0.0
 11
1785.8200133077
 21
1002.4008237317
 31
0.0
  0
POLYLINE
  5
43C
  8
0
  6
CONTINUOUS
 62
     7
 66
     1
 10
0.0
 20
0.0
 30
0.0
 70
   128
  0
VERTEX
  5
A84
  8
0
  6
CONTINUOUS
 62
     7
 10
1779.9156731536
 20
1041.9007078289
 30
0.0
  0
VERTEX
  5
A85
  8
0
  6
CONTINUOUS
 62
     7
 10
1779.9785035681
 20
1042.3457791943
 30
0.0
  0
VERTEX
  5
A86
  8
0
  6
CONTINUOUS
 62
     7
 10
1780.0879483969
 20
1042.5823785949
 30
0.0
  0
SEQEND
  5
C62
  8
0
  6
CONTINUOUS
 62
     7
  0
POLYLINE
  5
43D
  8
0
  6
CONTINUOUS
 62
     7
 66
     1
 10
0.0
 20
0.0
 30
0.0
 70
   128
  0
VERTEX
  5
A87
  8
0
  6
CONTINUOUS
 62
     7
 10
1782.0061410347
 20
1039.2596368936
 30
0.0
  0
VERTEX
  5
A88
  8
0
  6
CONTINUOUS
 62
     7
 10
1781.6445790264
 20
1039.3104779346
 30
0.0
  0
VERTEX
  5
A89
  8
0
  6
CONTINUOUS
 62
     7
 10
1781.2242037252
 20
1039.5167748857
 30
0.0
  0
VERTEX
  5
A8A
  8
0
  6
CONTINUOUS
 62
     7
 10
1780.8132166345
 20
1039.8623712683
 30
0.0
  0
VERTEX
  5
A8B
  8
0
  6
CONTINUOUS
 62
     7
 10
1780.4481406327
 20
1040.316521953
 30
0.0
  0
VERTEX
  5
A8C
  8
0
  6
CONTINUOUS
 62
     7
 10
1780.1614103539
 20
1040.8388935104
 30
0.0
  0
VERTEX
  5
A8D
  8
0
  6
CONTINUOUS
 62
     7
 10
1779.9785035681
 20
1041.3830696763
 30
0.0
  0
VERTEX
  5
A8E
  8
0
  6
CONTINUOUS
 62
     7
 10
1779.9156731536
 20
1041.9007078289
 30
0.0
  0
SEQEND
  5
C63
  8
0
  6
CONTINUOUS
 62
     7
  0
LINE
  5
43E
  8
0
  6
CONTINUOUS
 62
     7
 10
1785.0200127809
 20
1004.4421736425
 30
0.0
 11
1785.0200127809
 21
1004.1326834969
 31
0.0
  0
LINE
  5
43F
  8
0
  6
CONTINUOUS
 62
     7
 10
1785.8200179175
 20
1004.4421706011
 30
0.0
 11
1785.8200179175
 21
1004.1326804555
 31
0.0
  0
LINE
  5
440
  8
0
  6
CONTINUOUS
 62
     7
 10
1775.1427032446
 20
1044.6560847075
 30
0.0
 11
1775.1864411367
 21
1044.947917967
 31
0.0
  0
ARC
  5
441
  8
0
  6
CONTINUOUS
 62
     7
 10
1776.9043972218
 20
1044.6723918888
 30
0.0
 40
1.761769449552586
 50
180.5303452198
 51
249.9727330158
  0
POLYLINE
  5
442
  8
0
  6
CONTINUOUS
 62
     7
 66
     1
 10
0.0
 20
0.0
 30
0.0
 70
   128
  0
VERTEX
  5
A8F
  8
0
  6
CONTINUOUS
 62
     7
 10
1779.9156731536
 20
1009.2390578324
 30
0.0
  0
VERTEX
  5
A90
  8
0
  6
CONTINUOUS
 62
     7
 10
1779.9785035681
 20
1009.6841535326
 30
0.0
  0
VERTEX
  5
A91
  8
0
  6
CONTINUOUS
 62
     7
 10
1780.0879483969
 20
1009.9207529332
 30
0.0
  0
SEQEND
  5
C64
  8
0
  6
CONTINUOUS
 62
     7
  0
POLYLINE
  5
443
  8
0
  6
CONTINUOUS
 62
     7
 66
     1
 10
0.0
 20
0.0
 30
0.0
 70
   128
  0
VERTEX
  5
A92
  8
0
  6
CONTINUOUS
 62
     7
 10
1782.0061410347
 20
1006.5979868971
 30
0.0
  0
VERTEX
  5
A93
  8
0
  6
CONTINUOUS
 62
     7
 10
1781.6445790264
 20
1006.6488522729
 30
0.0
  0
VERTEX
  5
A94
  8
0
  6
CONTINUOUS
 62
     7
 10
1781.2242037252
 20
1006.855149224
 30
0.0
  0
VERTEX
  5
A95
  8
0
  6
CONTINUOUS
 62
     7
 10
1780.8132166345
 20
1007.2007212718
 30
0.0
  0
VERTEX
  5
A96
  8
0
  6
CONTINUOUS
 62
     7
 10
1780.4481406327
 20
1007.6548719565
 30
0.0
  0
VERTEX
  5
A97
  8
0
  6
CONTINUOUS
 62
     7
 10
1780.1614103539
 20
1008.1772678487
 30
0.0
  0
VERTEX
  5
A98
  8
0
  6
CONTINUOUS
 62
     7
 10
1779.9785035681
 20
1008.7214440146
 30
0.0
  0
VERTEX
  5
A99
  8
0
  6
CONTINUOUS
 62
     7
 10
1779.9156731536
 20
1009.2390578324
 30
0.0
  0
SEQEND
  5
C65
  8
0
  6
CONTINUOUS
 62
     7
  0
LINE
  5
444
  8
0
  6
CONTINUOUS
 62
     7
 10
1775.1427032446
 20
1011.994434711
 30
0.0
 11
1775.1864411367
 21
1012.2862923053
 31
0.0
  0
ARC
  5
445
  8
0
  6
CONTINUOUS
 62
     7
 10
1776.9043234949
 20
1012.0107143606
 30
0.0
 40
1.761695471127709
 50
180.5294720377
 51
249.9744081529
  0
POLYLINE
  5
446
  8
0
  6
CONTINUOUS
 62
     7
 66
     1
 10
0.0
 20
0.0
 30
0.0
 70
   128
  0
VERTEX
  5
A9A
  8
0
  6
CONTINUOUS
 62
     7
 10
1779.9156731536
 20
976.5774321707
 30
0.0
  0
VERTEX
  5
A9B
  8
0
  6
CONTINUOUS
 62
     7
 10
1779.9785035681
 20
977.022527871
 30
0.0
  0
VERTEX
  5
A9C
  8
0
  6
CONTINUOUS
 62
     7
 10
1780.0879483969
 20
977.2591272715
 30
0.0
  0
SEQEND
  5
C66
  8
0
  6
CONTINUOUS
 62
     7
  0
POLYLINE
  5
447
  8
0
  6
CONTINUOUS
 62
     7
 66
     1
 10
0.0
 20
0.0
 30
0.0
 70
   128
  0
VERTEX
  5
A9D
  8
0
  6
CONTINUOUS
 62
     7
 10
1782.0061410347
 20
973.9363612354
 30
0.0
  0
VERTEX
  5
A9E
  8
0
  6
CONTINUOUS
 62
     7
 10
1781.6445790264
 20
973.9872144438
 30
0.0
  0
VERTEX
  5
A9F
  8
0
  6
CONTINUOUS
 62
     7
 10
1781.2242037252
 20
974.1935235623
 30
0.0
  0
VERTEX
  5
AA0
  8
0
  6
CONTINUOUS
 62
     7
 10
1780.8132166345
 20
974.5390956102
 30
0.0
  0
VERTEX
  5
AA1
  8
0
  6
CONTINUOUS
 62
     7
 10
1780.4481406327
 20
974.9932462948
 30
0.0
  0
VERTEX
  5
AA2
  8
0
  6
CONTINUOUS
 62
     7
 10
1780.1614103539
 20
975.5156178522
 30
0.0
  0
VERTEX
  5
AA3
  8
0
  6
CONTINUOUS
 62
     7
 10
1779.9785035681
 20
976.0598061855
 30
0.0
  0
VERTEX
  5
AA4
  8
0
  6
CONTINUOUS
 62
     7
 10
1779.9156731536
 20
976.5774321707
 30
0.0
  0
SEQEND
  5
C67
  8
0
  6
CONTINUOUS
 62
     7
  0
LINE
  5
448
  8
0
  6
CONTINUOUS
 62
     7
 10
1785.0200134394
 20
930.9534978247
 30
0.0
 11
1785.8200133077
 21
930.9534978247
 31
0.0
  0
LINE
  5
449
  8
0
  6
CONTINUOUS
 62
     7
 10
1785.0200173907
 20
931.1927503933
 30
0.0
 11
1785.0200134394
 21
930.9534978247
 31
0.0
  0
LINE
  5
44A
  8
0
  6
CONTINUOUS
 62
     7
 10
1785.8200133077
 20
930.9534978247
 30
0.0
 11
1785.820017259
 21
931.1927503933
 31
0.0
  0
LINE
  5
44B
  8
0
  6
CONTINUOUS
 62
     7
 10
1785.8200133077
 20
928.9121477418
 30
0.0
 11
1785.0200134394
 21
928.9121477418
 31
0.0
  0
LINE
  5
44C
  8
0
  6
CONTINUOUS
 62
     7
 10
1785.0200173907
 20
927.5183153771
 30
0.0
 11
1785.820017259
 21
927.5183153771
 31
0.0
  0
LINE
  5
44D
  8
0
  6
CONTINUOUS
 62
     7
 10
1785.0200134394
 20
928.9121477418
 30
0.0
 11
1785.0200173907
 21
927.5183153771
 31
0.0
  0
LINE
  5
44E
  8
0
  6
CONTINUOUS
 62
     7
 10
1785.820017259
 20
927.5183153771
 30
0.0
 11
1785.8200133077
 21
928.9121477418
 31
0.0
  0
LINE
  5
44F
  8
0
  6
CONTINUOUS
 62
     7
 10
1785.820017259
 20
857.7040804871
 30
0.0
 11
1785.0200173907
 21
857.7040804871
 31
0.0
  0
LINE
  5
450
  8
0
  6
CONTINUOUS
 62
     7
 10
1785.0200173907
 20
927.5183153771
 30
0.0
 11
1785.0200173907
 21
857.7040804871
 31
0.0
  0
LINE
  5
451
  8
0
  6
CONTINUOUS
 62
     7
 10
1785.820017259
 20
927.5183153771
 30
0.0
 11
1785.820017259
 21
857.7040804871
 31
0.0
  0
LINE
  5
452
  8
0
  6
CONTINUOUS
 62
     7
 10
1785.0200180493
 20
930.6440086921
 30
0.0
 11
1785.8200179175
 21
930.6440086921
 31
0.0
  0
LINE
  5
453
  8
0
  6
CONTINUOUS
 62
     7
 10
1785.0200180493
 20
930.6440086921
 30
0.0
 11
1785.0200134394
 21
928.9121477418
 31
0.0
  0
LINE
  5
454
  8
0
  6
CONTINUOUS
 62
     7
 10
1785.8200179175
 20
930.6440086921
 30
0.0
 11
1785.8200133077
 21
928.9121477418
 31
0.0
  0
ARC
  5
455
  8
0
  6
CONTINUOUS
 62
     7
 10
1776.8289619057
 20
979.2336301305
 30
0.0
 40
1.627722601035488
 50
203.7914412673
 51
251.0752408578
  0
LINE
  5
456
  8
0
  6
CONTINUOUS
 62
     7
 10
1785.0200127809
 20
930.95350982
 30
0.0
 11
1785.0200127809
 21
930.6440196744
 31
0.0
  0
LINE
  5
457
  8
0
  6
CONTINUOUS
 62
     7
 10
1785.8200179175
 20
930.9535067786
 30
0.0
 11
1785.8200179175
 21
930.644016633
 31
0.0
  0
POLYLINE
  5
458
  8
0
  6
CONTINUOUS
 62
     7
 66
     1
 10
0.0
 20
0.0
 30
0.0
 70
   128
  0
VERTEX
  5
AA5
  8
0
  6
CONTINUOUS
 62
     7
 10
1779.9156731536
 20
943.9157943416
 30
0.0
  0
VERTEX
  5
AA6
  8
0
  6
CONTINUOUS
 62
     7
 10
1779.9785035681
 20
944.3608900419
 30
0.0
  0
VERTEX
  5
AA7
  8
0
  6
CONTINUOUS
 62
     7
 10
1780.0879483969
 20
944.5974894424
 30
0.0
  0
SEQEND
  5
C68
  8
0
  6
CONTINUOUS
 62
     7
  0
POLYLINE
  5
459
  8
0
  6
CONTINUOUS
 62
     7
 66
     1
 10
0.0
 20
0.0
 30
0.0
 70
   128
  0
VERTEX
  5
AA8
  8
0
  6
CONTINUOUS
 62
     7
 10
1782.0061410347
 20
941.2747234064
 30
0.0
  0
VERTEX
  5
AA9
  8
0
  6
CONTINUOUS
 62
     7
 10
1781.6445790264
 20
941.3255887821
 30
0.0
  0
VERTEX
  5
AAA
  8
0
  6
CONTINUOUS
 62
     7
 10
1781.2242037252
 20
941.5318857332
 30
0.0
  0
VERTEX
  5
AAB
  8
0
  6
CONTINUOUS
 62
     7
 10
1780.8132166345
 20
941.8774699485
 30
0.0
  0
VERTEX
  5
AAC
  8
0
  6
CONTINUOUS
 62
     7
 10
1780.4481406327
 20
942.3316206331
 30
0.0
  0
VERTEX
  5
AAD
  8
0
  6
CONTINUOUS
 62
     7
 10
1780.1614103539
 20
942.8539921905
 30
0.0
  0
VERTEX
  5
AAE
  8
0
  6
CONTINUOUS
 62
     7
 10
1779.9785035681
 20
943.3981683564
 30
0.0
  0
VERTEX
  5
AAF
  8
0
  6
CONTINUOUS
 62
     7
 10
1779.9156731536
 20
943.9157943416
 30
0.0
  0
SEQEND
  5
C69
  8
0
  6
CONTINUOUS
 62
     7
  0
LINE
  5
45A
  8
0
  6
CONTINUOUS
 62
     7
 10
1775.1427032446
 20
946.6711712203
 30
0.0
 11
1775.1864411367
 21
946.9630166472
 31
0.0
  0
ARC
  5
45B
  8
0
  6
CONTINUOUS
 62
     7
 10
1776.9043796232
 20
946.6874782518
 30
0.0
 40
1.761751850287262
 50
180.5303456469
 51
249.9731335642
  0
POLYLINE
  5
45C
  8
0
  6
CONTINUOUS
 62
     7
 66
     1
 10
0.0
 20
0.0
 30
0.0
 70
   128
  0
VERTEX
  5
AB0
  8
0
  6
CONTINUOUS
 62
     7
 10
1779.9156731536
 20
911.25416868
 30
0.0
  0
VERTEX
  5
AB1
  8
0
  6
CONTINUOUS
 62
     7
 10
1779.9785035681
 20
911.6992522128
 30
0.0
  0
VERTEX
  5
AB2
  8
0
  6
CONTINUOUS
 62
     7
 10
1780.0879483969
 20
911.9358637808
 30
0.0
  0
SEQEND
  5
C6A
  8
0
  6
CONTINUOUS
 62
     7
  0
POLYLINE
  5
45D
  8
0
  6
CONTINUOUS
 62
     7
 66
     1
 10
0.0
 20
0.0
 30
0.0
 70
   128
  0
VERTEX
  5
AB3
  8
0
  6
CONTINUOUS
 62
     7
 10
1782.0061410347
 20
908.6130977447
 30
0.0
  0
VERTEX
  5
AB4
  8
0
  6
CONTINUOUS
 62
     7
 10
1781.6445790264
 20
908.663950953
 30
0.0
  0
VERTEX
  5
AB5
  8
0
  6
CONTINUOUS
 62
     7
 10
1781.2242037252
 20
908.8702479042
 30
0.0
  0
VERTEX
  5
AB6
  8
0
  6
CONTINUOUS
 62
     7
 10
1780.8132166345
 20
909.2158321194
 30
0.0
  0
VERTEX
  5
AB7
  8
0
  6
CONTINUOUS
 62
     7
 10
1780.4481406327
 20
909.669982804
 30
0.0
  0
VERTEX
  5
AB8
  8
0
  6
CONTINUOUS
 62
     7
 10
1780.1614103539
 20
910.1923543614
 30
0.0
  0
VERTEX
  5
AB9
  8
0
  6
CONTINUOUS
 62
     7
 10
1779.9785035681
 20
910.7365426947
 30
0.0
  0
VERTEX
  5
ABA
  8
0
  6
CONTINUOUS
 62
     7
 10
1779.9156731536
 20
911.25416868
 30
0.0
  0
SEQEND
  5
C6B
  8
0
  6
CONTINUOUS
 62
     7
  0
LINE
  5
45E
  8
0
  6
CONTINUOUS
 62
     7
 10
1775.1427032446
 20
914.0095455586
 30
0.0
 11
1775.1864411367
 21
914.3013909855
 31
0.0
  0
ARC
  5
45F
  8
0
  6
CONTINUOUS
 62
     7
 10
1776.9044079587
 20
914.0258603284
 30
0.0
 40
1.761780256244251
 50
180.5305887674
 51
249.9724894682
  0
LINE
  5
460
  8
0
  6
CONTINUOUS
 62
     7
 10
1785.0200134394
 20
857.4648279186
 30
0.0
 11
1785.8200133077
 21
857.4648279186
 31
0.0
  0
LINE
  5
461
  8
0
  6
CONTINUOUS
 62
     7
 10
1785.0200173907
 20
857.7040804871
 30
0.0
 11
1785.0200134394
 21
857.4648279186
 31
0.0
  0
LINE
  5
462
  8
0
  6
CONTINUOUS
 62
     7
 10
1785.8200133077
 20
857.4648279186
 30
0.0
 11
1785.820017259
 21
857.7040804871
 31
0.0
  0
LINE
  5
463
  8
0
  6
CONTINUOUS
 62
     7
 10
1785.8200133077
 20
855.4234778356
 30
0.0
 11
1785.0200134394
 21
855.4234778356
 31
0.0
  0
LINE
  5
464
  8
0
  6
CONTINUOUS
 62
     7
 10
1785.0200173907
 20
854.0296454709
 30
0.0
 11
1785.820017259
 21
854.0296454709
 31
0.0
  0
LINE
  5
465
  8
0
  6
CONTINUOUS
 62
     7
 10
1785.0200134394
 20
855.4234778356
 30
0.0
 11
1785.0200173907
 21
854.0296454709
 31
0.0
  0
LINE
  5
466
  8
0
  6
CONTINUOUS
 62
     7
 10
1785.820017259
 20
854.0296454709
 30
0.0
 11
1785.8200133077
 21
855.4234778356
 31
0.0
  0
LINE
  5
467
  8
0
  6
CONTINUOUS
 62
     7
 10
1785.820017259
 20
784.2154075391
 30
0.0
 11
1785.0200173907
 21
784.2154075391
 31
0.0
  0
LINE
  5
468
  8
0
  6
CONTINUOUS
 62
     7
 10
1785.0200173907
 20
854.0296454709
 30
0.0
 11
1785.0200173907
 21
784.2154075391
 31
0.0
  0
LINE
  5
469
  8
0
  6
CONTINUOUS
 62
     7
 10
1785.820017259
 20
854.0296454709
 30
0.0
 11
1785.820017259
 21
784.2154075391
 31
0.0
  0
LINE
  5
46A
  8
0
  6
CONTINUOUS
 62
     7
 10
1785.0200180493
 20
857.1553387859
 30
0.0
 11
1785.8200179175
 21
857.1553387859
 31
0.0
  0
LINE
  5
46B
  8
0
  6
CONTINUOUS
 62
     7
 10
1785.0200180493
 20
857.1553387859
 30
0.0
 11
1785.0200134394
 21
855.4234778356
 31
0.0
  0
LINE
  5
46C
  8
0
  6
CONTINUOUS
 62
     7
 10
1785.8200179175
 20
857.1553387859
 30
0.0
 11
1785.8200133077
 21
855.4234778356
 31
0.0
  0
LINE
  5
46D
  8
0
  6
CONTINUOUS
 62
     7
 10
1785.0200127809
 20
857.4648338301
 30
0.0
 11
1785.0200127809
 21
857.1553436845
 31
0.0
  0
LINE
  5
46E
  8
0
  6
CONTINUOUS
 62
     7
 10
1785.8200179175
 20
857.4648307887
 30
0.0
 11
1785.8200179175
 21
857.1553406431
 31
0.0
  0
POLYLINE
  5
46F
  8
0
  6
CONTINUOUS
 62
     7
 66
     1
 10
0.0
 20
0.0
 30
0.0
 70
   128
  0
VERTEX
  5
ABB
  8
0
  6
CONTINUOUS
 62
     7
 10
1779.9156731536
 20
878.5925308509
 30
0.0
  0
VERTEX
  5
ABC
  8
0
  6
CONTINUOUS
 62
     7
 10
1779.9785035681
 20
879.0376265511
 30
0.0
  0
VERTEX
  5
ABD
  8
0
  6
CONTINUOUS
 62
     7
 10
1780.0879483969
 20
879.2742259517
 30
0.0
  0
SEQEND
  5
C6C
  8
0
  6
CONTINUOUS
 62
     7
  0
POLYLINE
  5
470
  8
0
  6
CONTINUOUS
 62
     7
 66
     1
 10
0.0
 20
0.0
 30
0.0
 70
   128
  0
VERTEX
  5
ABE
  8
0
  6
CONTINUOUS
 62
     7
 10
1782.0061410347
 20
875.9514599156
 30
0.0
  0
VERTEX
  5
ABF
  8
0
  6
CONTINUOUS
 62
     7
 10
1781.6445790264
 20
876.0023252913
 30
0.0
  0
VERTEX
  5
AC0
  8
0
  6
CONTINUOUS
 62
     7
 10
1781.2242037252
 20
876.2086222425
 30
0.0
  0
VERTEX
  5
AC1
  8
0
  6
CONTINUOUS
 62
     7
 10
1780.8132166345
 20
876.5542064577
 30
0.0
  0
VERTEX
  5
AC2
  8
0
  6
CONTINUOUS
 62
     7
 10
1780.4481406327
 20
877.0083571423
 30
0.0
  0
VERTEX
  5
AC3
  8
0
  6
CONTINUOUS
 62
     7
 10
1780.1614103539
 20
877.5307286997
 30
0.0
  0
VERTEX
  5
AC4
  8
0
  6
CONTINUOUS
 62
     7
 10
1779.9785035681
 20
878.0749048657
 30
0.0
  0
VERTEX
  5
AC5
  8
0
  6
CONTINUOUS
 62
     7
 10
1779.9156731536
 20
878.5925308509
 30
0.0
  0
SEQEND
  5
C6D
  8
0
  6
CONTINUOUS
 62
     7
  0
LINE
  5
471
  8
0
  6
CONTINUOUS
 62
     7
 10
1775.1427032446
 20
881.3479077295
 30
0.0
 11
1775.1864411367
 21
881.6397531564
 31
0.0
  0
ARC
  5
472
  8
0
  6
CONTINUOUS
 62
     7
 10
1776.9043796232
 20
881.364214761
 30
0.0
 40
1.761751850287779
 50
180.5303456469
 51
249.9731335642
  0
POLYLINE
  5
473
  8
0
  6
CONTINUOUS
 62
     7
 66
     1
 10
0.0
 20
0.0
 30
0.0
 70
   128
  0
VERTEX
  5
AC6
  8
0
  6
CONTINUOUS
 62
     7
 10
1779.9156731536
 20
845.9309051892
 30
0.0
  0
VERTEX
  5
AC7
  8
0
  6
CONTINUOUS
 62
     7
 10
1779.9785035681
 20
846.375988722
 30
0.0
  0
VERTEX
  5
AC8
  8
0
  6
CONTINUOUS
 62
     7
 10
1780.0879483969
 20
846.6125942063
 30
0.0
  0
SEQEND
  5
C6E
  8
0
  6
CONTINUOUS
 62
     7
  0
POLYLINE
  5
474
  8
0
  6
CONTINUOUS
 62
     7
 66
     1
 10
0.0
 20
0.0
 30
0.0
 70
   128
  0
VERTEX
  5
AC9
  8
0
  6
CONTINUOUS
 62
     7
 10
1782.0061410347
 20
843.2898281702
 30
0.0
  0
VERTEX
  5
ACA
  8
0
  6
CONTINUOUS
 62
     7
 10
1781.6445790264
 20
843.3406874622
 30
0.0
  0
VERTEX
  5
ACB
  8
0
  6
CONTINUOUS
 62
     7
 10
1781.2242037252
 20
843.5469904971
 30
0.0
  0
VERTEX
  5
ACC
  8
0
  6
CONTINUOUS
 62
     7
 10
1780.8132166345
 20
843.8925686286
 30
0.0
  0
VERTEX
  5
ACD
  8
0
  6
CONTINUOUS
 62
     7
 10
1780.4481406327
 20
844.3467193132
 30
0.0
  0
VERTEX
  5
ACE
  8
0
  6
CONTINUOUS
 62
     7
 10
1780.1614103539
 20
844.8690908706
 30
0.0
  0
VERTEX
  5
ACF
  8
0
  6
CONTINUOUS
 62
     7
 10
1779.9785035681
 20
845.4132731203
 30
0.0
  0
VERTEX
  5
AD0
  8
0
  6
CONTINUOUS
 62
     7
 10
1779.9156731536
 20
845.9309051892
 30
0.0
  0
SEQEND
  5
C6F
  8
0
  6
CONTINUOUS
 62
     7
  0
LINE
  5
475
  8
0
  6
CONTINUOUS
 62
     7
 10
1775.1427032446
 20
848.6862820678
 30
0.0
 11
1775.1864411367
 21
848.9781274947
 31
0.0
  0
ARC
  5
476
  8
0
  6
CONTINUOUS
 62
     7
 10
1776.9043747984
 20
848.7025795451
 30
0.0
 40
1.761746937271183
 50
180.5300363873
 51
249.9732423356
  0
LINE
  5
477
  8
0
  6
CONTINUOUS
 62
     7
 10
1785.0200134394
 20
783.9761580124
 30
0.0
 11
1785.8200133077
 21
783.9761580124
 31
0.0
  0
LINE
  5
478
  8
0
  6
CONTINUOUS
 62
     7
 10
1785.0200173907
 20
784.2154075391
 30
0.0
 11
1785.0200134394
 21
783.9761580124
 31
0.0
  0
LINE
  5
479
  8
0
  6
CONTINUOUS
 62
     7
 10
1785.8200133077
 20
783.9761580124
 30
0.0
 11
1785.820017259
 21
784.2154075391
 31
0.0
  0
LINE
  5
47A
  8
0
  6
CONTINUOUS
 62
     7
 10
1785.8200133077
 20
781.9348048876
 30
0.0
 11
1785.0200134394
 21
781.9348048876
 31
0.0
  0
LINE
  5
47B
  8
0
  6
CONTINUOUS
 62
     7
 10
1785.0200173907
 20
780.5409740438
 30
0.0
 11
1785.820017259
 21
780.5409740438
 31
0.0
  0
LINE
  5
47C
  8
0
  6
CONTINUOUS
 62
     7
 10
1785.0200134394
 20
781.9348048876
 30
0.0
 11
1785.0200173907
 21
780.5409740438
 31
0.0
  0
LINE
  5
47D
  8
0
  6
CONTINUOUS
 62
     7
 10
1785.820017259
 20
780.5409740438
 30
0.0
 11
1785.8200133077
 21
781.9348048876
 31
0.0
  0
LINE
  5
47E
  8
0
  6
CONTINUOUS
 62
     7
 10
1785.820017259
 20
758.0861022188
 30
0.0
 11
1785.0200173907
 21
758.0861022188
 31
0.0
  0
LINE
  5
47F
  8
0
  6
CONTINUOUS
 62
     7
 10
1785.0200173907
 20
780.5409740438
 30
0.0
 11
1785.0200173907
 21
774.2601619746
 31
0.0
  0
LINE
  5
480
  8
0
  6
CONTINUOUS
 62
     7
 10
1785.0200173907
 20
764.3292862039
 30
0.0
 11
1785.0200173907
 21
758.0861022188
 31
0.0
  0
LINE
  5
481
  8
0
  6
CONTINUOUS
 62
     7
 10
1785.820017259
 20
780.5409740438
 30
0.0
 11
1785.820017259
 21
774.2601619746
 31
0.0
  0
LINE
  5
482
  8
0
  6
CONTINUOUS
 62
     7
 10
1785.820017259
 20
764.7098172719
 30
0.0
 11
1785.820017259
 21
758.0861022188
 31
0.0
  0
LINE
  5
483
  8
0
  6
CONTINUOUS
 62
     7
 10
1785.0200180493
 20
783.6666658379
 30
0.0
 11
1785.8200179175
 21
783.6666658379
 31
0.0
  0
LINE
  5
484
  8
0
  6
CONTINUOUS
 62
     7
 10
1785.0200180493
 20
783.6666658379
 30
0.0
 11
1785.0200134394
 21
781.9348048876
 31
0.0
  0
LINE
  5
485
  8
0
  6
CONTINUOUS
 62
     7
 10
1785.8200179175
 20
783.6666658379
 30
0.0
 11
1785.8200133077
 21
781.9348048876
 31
0.0
  0
LINE
  5
486
  8
0
  6
CONTINUOUS
 62
     7
 10
1785.0200127809
 20
783.9761578402
 30
0.0
 11
1785.0200127809
 21
783.6666692155
 31
0.0
  0
LINE
  5
487
  8
0
  6
CONTINUOUS
 62
     7
 10
1785.8200179175
 20
783.9761547988
 30
0.0
 11
1785.8200179175
 21
783.6666661741
 31
0.0
  0
POLYLINE
  5
488
  8
0
  6
CONTINUOUS
 62
     7
 66
     1
 10
0.0
 20
0.0
 30
0.0
 70
   128
  0
VERTEX
  5
AD1
  8
0
  6
CONTINUOUS
 62
     7
 10
1779.9156731536
 20
813.2692704019
 30
0.0
  0
VERTEX
  5
AD2
  8
0
  6
CONTINUOUS
 62
     7
 10
1779.9785035681
 20
813.7143569766
 30
0.0
  0
VERTEX
  5
AD3
  8
0
  6
CONTINUOUS
 62
     7
 10
1780.0879483969
 20
813.9509624609
 30
0.0
  0
SEQEND
  5
C70
  8
0
  6
CONTINUOUS
 62
     7
  0
POLYLINE
  5
489
  8
0
  6
CONTINUOUS
 62
     7
 66
     1
 10
0.0
 20
0.0
 30
0.0
 70
   128
  0
VERTEX
  5
AD4
  8
0
  6
CONTINUOUS
 62
     7
 10
1782.0061410347
 20
810.6281964248
 30
0.0
  0
VERTEX
  5
AD5
  8
0
  6
CONTINUOUS
 62
     7
 10
1781.6445790264
 20
810.6790557169
 30
0.0
  0
VERTEX
  5
AD6
  8
0
  6
CONTINUOUS
 62
     7
 10
1781.2242037252
 20
810.8853557099
 30
0.0
  0
VERTEX
  5
AD7
  8
0
  6
CONTINUOUS
 62
     7
 10
1780.8132166345
 20
811.2309368832
 30
0.0
  0
VERTEX
  5
AD8
  8
0
  6
CONTINUOUS
 62
     7
 10
1780.4481406327
 20
811.6850875679
 30
0.0
  0
VERTEX
  5
AD9
  8
0
  6
CONTINUOUS
 62
     7
 10
1780.1614103539
 20
812.2074621671
 30
0.0
  0
VERTEX
  5
ADA
  8
0
  6
CONTINUOUS
 62
     7
 10
1779.9785035681
 20
812.751638333
 30
0.0
  0
VERTEX
  5
ADB
  8
0
  6
CONTINUOUS
 62
     7
 10
1779.9156731536
 20
813.2692704019
 30
0.0
  0
SEQEND
  5
C71
  8
0
  6
CONTINUOUS
 62
     7
  0
LINE
  5
48A
  8
0
  6
CONTINUOUS
 62
     7
 10
1775.1427032446
 20
816.0246472806
 30
0.0
 11
1775.1864411367
 21
816.3164927075
 31
0.0
  0
ARC
  5
48B
  8
0
  6
CONTINUOUS
 62
     7
 10
1776.9043842944
 20
816.0409514694
 30
0.0
 40
1.761756495012897
 50
180.5302517939
 51
249.973026929
  0
LINE
  5
48C
  8
0
  6
CONTINUOUS
 62
     7
 10
1785.0200154151
 20
757.4879704179
 30
0.0
 11
1785.8200159419
 21
757.487970798
 31
0.0
  0
LINE
  5
48D
  8
0
  6
CONTINUOUS
 62
     7
 10
1785.0200173907
 20
758.0861022188
 30
0.0
 11
1785.0200154151
 21
757.4879704179
 31
0.0
  0
LINE
  5
48E
  8
0
  6
CONTINUOUS
 62
     7
 10
1785.8200159419
 20
757.487970798
 30
0.0
 11
1785.820017259
 21
758.0861022188
 31
0.0
  0
POLYLINE
  5
48F
  8
0
  6
CONTINUOUS
 62
     7
 66
     1
 10
0.0
 20
0.0
 30
0.0
 70
   128
  0
VERTEX
  5
ADC
  8
0
  6
CONTINUOUS
 62
     7
 10
1779.9156731536
 20
780.6076371356
 30
0.0
  0
VERTEX
  5
ADD
  8
0
  6
CONTINUOUS
 62
     7
 10
1779.9785035681
 20
781.0527252312
 30
0.0
  0
VERTEX
  5
ADE
  8
0
  6
CONTINUOUS
 62
     7
 10
1780.0879483969
 20
781.2893291946
 30
0.0
  0
SEQEND
  5
C72
  8
0
  6
CONTINUOUS
 62
     7
  0
ARC
  5
490
  8
0
  6
CONTINUOUS
 62
     7
 10
1783.0085608757
 20
780.750571066
 30
0.0
 40
3.096188716704861
 50
182.6459700493
 51
231.95279576
  0
LINE
  5
491
  8
0
  6
CONTINUOUS
 62
     7
 10
1775.1427032446
 20
783.3630140143
 30
0.0
 11
1775.1864411367
 21
783.6548602016
 31
0.0
  0
ARC
  5
492
  8
0
  6
CONTINUOUS
 62
     7
 10
1776.9043846763
 20
783.379320009
 30
0.0
 40
1.761756893579748
 50
180.5303104095
 51
249.9730184353
  0
LINE
  5
493
  8
0
  6
CONTINUOUS
 62
   218
 10
1793.0850565635
 20
770.7699789708
 30
0.0
 11
1793.0850565635
 21
771.5865199166
 31
0.0
  0
LINE
  5
494
  8
0
  6
CONTINUOUS
 62
   218
 10
1778.5549713691
 20
771.5865191562
 30
0.0
 11
1778.5549713691
 21
770.7699782105
 31
0.0
  0
LINE
  5
495
  8
0
  6
CONTINUOUS
 62
   218
 10
1792.851101383
 20
773.292086412
 30
0.0
 11
1792.851101383
 21
774.1086273577
 31
0.0
  0
LINE
  5
496
  8
0
  6
CONTINUOUS
 62
   218
 10
1778.7889298423
 20
774.1086262172
 30
0.0
 11
1778.7889298423
 21
773.2920852715
 31
0.0
  0
LINE
  5
497
  8
0
  6
CONTINUOUS
 62
   218
 10
1788.551331923
 20
777.0668030762
 30
0.0
 11
1788.551331923
 21
776.2502621304
 31
0.0
  0
LINE
  5
498
  8
0
  6
CONTINUOUS
 62
   218
 10
1783.088701278
 20
776.2502628908
 30
0.0
 11
1783.088701278
 21
777.0668038365
 31
0.0
  0
LINE
  5
499
  8
0
  6
CONTINUOUS
 62
   218
 10
1788.3181281418
 20
776.5989141979
 30
0.0
 11
1788.3181281418
 21
777.4154551436
 31
0.0
  0
LINE
  5
49A
  8
0
  6
CONTINUOUS
 62
   218
 10
1783.321902425
 20
777.4154543833
 30
0.0
 11
1783.321902425
 21
776.5989134376
 31
0.0
  0
LINE
  5
49B
  8
0
  6
CONTINUOUS
 62
   218
 10
1793.0850565635
 20
991.235997815
 30
0.0
 11
1793.0850565635
 21
992.0525281142
 31
0.0
  0
LINE
  5
49C
  8
0
  6
CONTINUOUS
 62
   218
 10
1778.5549713691
 20
992.0525273539
 30
0.0
 11
1778.5549713691
 21
991.2359970546
 31
0.0
  0
LINE
  5
49D
  8
0
  6
CONTINUOUS
 62
   218
 10
1792.851101383
 20
993.7581052561
 30
0.0
 11
1792.851101383
 21
994.5746355554
 31
0.0
  0
LINE
  5
49E
  8
0
  6
CONTINUOUS
 62
   218
 10
1778.7889298423
 20
994.5746344149
 30
0.0
 11
1778.7889298423
 21
993.7581041156
 31
0.0
  0
LINE
  5
49F
  8
0
  6
CONTINUOUS
 62
   218
 10
1788.551331923
 20
997.5328112738
 30
0.0
 11
1788.551331923
 21
996.7162809746
 31
0.0
  0
LINE
  5
4A0
  8
0
  6
CONTINUOUS
 62
   218
 10
1783.088701278
 20
996.7162817349
 30
0.0
 11
1783.088701278
 21
997.5328120342
 31
0.0
  0
LINE
  5
4A1
  8
0
  6
CONTINUOUS
 62
   218
 10
1788.3181281418
 20
997.064933042
 30
0.0
 11
1788.3181281418
 21
997.8814633413
 31
0.0
  0
LINE
  5
4A2
  8
0
  6
CONTINUOUS
 62
   218
 10
1783.321902425
 20
997.8814625809
 30
0.0
 11
1783.321902425
 21
997.0649322817
 31
0.0
  0
LINE
  5
4A3
  8
0
  6
CONTINUOUS
 62
   218
 10
1791.9993050135
 20
773.8439781851
 30
0.0
 11
1779.4993057543
 21
773.8439766644
 31
0.0
  0
LINE
  5
4A4
  8
0
  6
CONTINUOUS
 62
   218
 10
1791.9993050135
 20
994.310001592
 30
0.0
 11
1779.4993057543
 21
994.3100000714
 31
0.0
  0
POLYLINE
  5
4A5
  8
0
  6
CONTINUOUS
 62
   218
 66
     1
 10
0.0
 20
0.0
 30
0.0
 70
   128
  0
VERTEX
  5
ADF
  8
0
  6
CONTINUOUS
 62
   218
 10
1638.9339459516
 20
1159.6011653924
 30
0.0
  0
VERTEX
  5
AE0
  8
0
  6
CONTINUOUS
 62
   218
 10
1635.8563461949
 20
1158.4415840843
 30
0.0
  0
VERTEX
  5
AE1
  8
0
  6
CONTINUOUS
 62
   218
 10
1632.7723717273
 20
1157.1606161269
 30
0.0
  0
VERTEX
  5
AE2
  8
0
  6
CONTINUOUS
 62
   218
 10
1629.7941700444
 20
1155.7987936879
 30
0.0
  0
VERTEX
  5
AE3
  8
0
  6
CONTINUOUS
 62
   218
 10
1626.9280947836
 20
1154.3590243047
 30
0.0
  0
VERTEX
  5
AE4
  8
0
  6
CONTINUOUS
 62
   218
 10
1624.1802572379
 20
1152.8443736654
 30
0.0
  0
VERTEX
  5
AE5
  8
0
  6
CONTINUOUS
 62
   218
 10
1621.5565263561
 20
1151.2580838568
 30
0.0
  0
VERTEX
  5
AE6
  8
0
  6
CONTINUOUS
 62
   218
 10
1619.0624971322
 20
1149.6035307855
 30
0.0
  0
VERTEX
  5
AE7
  8
0
  6
CONTINUOUS
 62
   218
 10
1616.7034958742
 20
1147.8842515499
 30
0.0
  0
VERTEX
  5
AE8
  8
0
  6
CONTINUOUS
 62
   218
 10
1614.4845538621
 20
1146.1039109853
 30
0.0
  0
VERTEX
  5
AE9
  8
0
  6
CONTINUOUS
 62
   218
 10
1612.4104073481
 20
1144.2663138298
 30
0.0
  0
VERTEX
  5
AEA
  8
0
  6
CONTINUOUS
 62
   218
 10
1610.485492288
 20
1142.3753773514
 30
0.0
  0
VERTEX
  5
AEB
  8
0
  6
CONTINUOUS
 62
   218
 10
1608.7139021944
 20
1140.4351374311
 30
0.0
  0
VERTEX
  5
AEC
  8
0
  6
CONTINUOUS
 62
   218
 10
1607.099419747
 20
1138.4497363975
 30
0.0
  0
VERTEX
  5
AED
  8
0
  6
CONTINUOUS
 62
   218
 10
1605.6455009873
 20
1136.4234078197
 30
0.0
  0
VERTEX
  5
AEE
  8
0
  6
CONTINUOUS
 62
   218
 10
1604.3552226354
 20
1134.3604765079
 30
0.0
  0
VERTEX
  5
AEF
  8
0
  6
CONTINUOUS
 62
   218
 10
1603.2313716515
 20
1132.2653493885
 30
0.0
  0
VERTEX
  5
AF0
  8
0
  6
CONTINUOUS
 62
   218
 10
1602.2763398693
 20
1130.1424972568
 30
0.0
  0
VERTEX
  5
AF1
  8
0
  6
CONTINUOUS
 62
   218
 10
1601.4921503375
 20
1127.9964456521
 30
0.0
  0
VERTEX
  5
AF2
  8
0
  6
CONTINUOUS
 62
   218
 10
1600.8804783935
 20
1125.8317748586
 30
0.0
  0
VERTEX
  5
AF3
  8
0
  6
CONTINUOUS
 62
   218
 10
1600.4426358577
 20
1123.6531046978
 30
0.0
  0
VERTEX
  5
AF4
  8
0
  6
CONTINUOUS
 62
   218
 10
1600.1795578635
 20
1121.4650899669
 30
0.0
  0
VERTEX
  5
AF5
  8
0
  6
CONTINUOUS
 62
   218
 10
1600.091794954
 20
1119.2723885046
 30
0.0
  0
VERTEX
  5
AF6
  8
0
  6
CONTINUOUS
 62
   218
 10
1600.1795552293
 20
1117.079697687
 30
0.0
  0
VERTEX
  5
AF7
  8
0
  6
CONTINUOUS
 62
   218
 10
1600.4426279552
 20
1114.8916768735
 30
0.0
  0
VERTEX
  5
AF8
  8
0
  6
CONTINUOUS
 62
   218
 10
1600.8804783935
 20
1112.7130143161
 30
0.0
  0
VERTEX
  5
AF9
  8
0
  6
CONTINUOUS
 62
   218
 10
1601.4921450692
 20
1110.5483404812
 30
0.0
  0
VERTEX
  5
AFA
  8
0
  6
CONTINUOUS
 62
   218
 10
1602.2763425035
 20
1108.4022903972
 30
0.0
  0
VERTEX
  5
AFB
  8
0
  6
CONTINUOUS
 62
   218
 10
1603.2313742857
 20
1106.2794321827
 30
0.0
  0
VERTEX
  5
AFC
  8
0
  6
CONTINUOUS
 62
   218
 10
1604.3552331721
 20
1104.1843065841
 30
0.0
  0
VERTEX
  5
AFD
  8
0
  6
CONTINUOUS
 62
   218
 10
1605.645495719
 20
1102.1213783136
 30
0.0
  0
VERTEX
  5
AFE
  8
0
  6
CONTINUOUS
 62
   218
 10
1607.0994223812
 20
1100.0950512565
 30
0.0
  0
VERTEX
  5
AFF
  8
0
  6
CONTINUOUS
 62
   218
 10
1608.7138942919
 20
1098.1096441402
 30
0.0
  0
VERTEX
  5
B00
  8
0
  6
CONTINUOUS
 62
   218
 10
1610.4854896538
 20
1096.1694072612
 30
0.0
  0
VERTEX
  5
B01
  8
0
  6
CONTINUOUS
 62
   218
 10
1612.4104086652
 20
1094.2784685018
 30
0.0
  0
VERTEX
  5
B02
  8
0
  6
CONTINUOUS
 62
   218
 10
1614.4845551792
 20
1092.4408713463
 30
0.0
  0
VERTEX
  5
B03
  8
0
  6
CONTINUOUS
 62
   218
 10
1616.703500484
 20
1090.6605349636
 30
0.0
  0
VERTEX
  5
B04
  8
0
  6
CONTINUOUS
 62
   218
 10
1619.062501742
 20
1088.941255728
 30
0.0
  0
VERTEX
  5
B05
  8
0
  6
CONTINUOUS
 62
   218
 10
1621.5565288256
 20
1087.2867038922
 30
0.0
  0
VERTEX
  5
B06
  8
0
  6
CONTINUOUS
 62
   218
 10
1624.1802519696
 20
1085.7004063852
 30
0.0
  0
VERTEX
  5
B07
  8
0
  6
CONTINUOUS
 62
   218
 10
1626.9280975824
 20
1084.1857632543
 30
0.0
  0
VERTEX
  5
B08
  8
0
  6
CONTINUOUS
 62
   218
 10
1629.7941759713
 20
1082.7459920653
 30
0.0
  0
VERTEX
  5
B09
  8
0
  6
CONTINUOUS
 62
   218
 10
1632.7723776542
 20
1081.3841696262
 30
0.0
  0
VERTEX
  5
B0A
  8
0
  6
CONTINUOUS
 62
   218
 10
1635.8563448778
 20
1080.103199768
 30
0.0
  0
VERTEX
  5
B0B
  8
0
  6
CONTINUOUS
 62
   218
 10
1639.0395014166
 20
1078.9058204724
 30
0.0
  0
VERTEX
  5
B0C
  8
0
  6
CONTINUOUS
 62
   218
 10
1642.3150583354
 20
1077.7945883804
 30
0.0
  0
VERTEX
  5
B0D
  8
0
  6
CONTINUOUS
 62
   218
 10
1645.6760113547
 20
1076.7718681471
 30
0.0
  0
VERTEX
  5
B0E
  8
0
  6
CONTINUOUS
 62
   218
 10
1649.1152099983
 20
1075.8398533516
 30
0.0
  0
VERTEX
  5
B0F
  8
0
  6
CONTINUOUS
 62
   218
 10
1652.6252917385
 20
1075.0005193552
 30
0.0
  0
VERTEX
  5
B10
  8
0
  6
CONTINUOUS
 62
   218
 10
1656.1987755097
 20
1074.2556666415
 30
0.0
  0
VERTEX
  5
B11
  8
0
  6
CONTINUOUS
 62
   218
 10
1659.8280327325
 20
1073.6068767163
 30
0.0
  0
VERTEX
  5
B12
  8
0
  6
CONTINUOUS
 62
   218
 10
1663.50532946
 20
1073.0555486038
 30
0.0
  0
VERTEX
  5
B13
  8
0
  6
CONTINUOUS
 62
   218
 10
1667.2228000367
 20
1072.6028410611
 30
0.0
  0
VERTEX
  5
B14
  8
0
  6
CONTINUOUS
 62
   218
 10
1670.9725313917
 20
1072.2497334053
 30
0.0
  0
VERTEX
  5
B15
  8
0
  6
CONTINUOUS
 62
   218
 10
1674.7464945504
 20
1071.9969677276
 30
0.0
  0
VERTEX
  5
B16
  8
0
  6
CONTINUOUS
 62
   218
 10
1678.5366684408
 20
1071.8450990755
 30
0.0
  0
VERTEX
  5
B17
  8
0
  6
CONTINUOUS
 62
   218
 10
1682.3349318919
 20
1071.794436147
 30
0.0
  0
VERTEX
  5
B18
  8
0
  6
CONTINUOUS
 62
   218
 10
1686.1332137822
 20
1071.8451005962
 30
0.0
  0
VERTEX
  5
B19
  8
0
  6
CONTINUOUS
 62
   218
 10
1689.9233771359
 20
1071.9969722896
 30
0.0
  0
VERTEX
  5
B1A
  8
0
  6
CONTINUOUS
 62
   218
 10
1693.6973534655
 20
1072.2497334053
 30
0.0
  0
VERTEX
  5
B1B
  8
0
  6
CONTINUOUS
 62
   218
 10
1697.4470795522
 20
1072.6028441025
 30
0.0
  0
VERTEX
  5
B1C
  8
0
  6
CONTINUOUS
 62
   218
 10
1701.164552763
 20
1073.0555470831
 30
0.0
  0
VERTEX
  5
B1D
  8
0
  6
CONTINUOUS
 62
   218
 10
1704.8418389538
 20
1073.6068751956
 30
0.0
  0
VERTEX
  5
B1E
  8
0
  6
CONTINUOUS
 62
   218
 10
1708.4710988107
 20
1074.2556605588
 30
0.0
  0
VERTEX
  5
B1F
  8
0
  6
CONTINUOUS
 62
   218
 10
1712.0445878504
 20
1075.0005223966
 30
0.0
  0
VERTEX
  5
B20
  8
0
  6
CONTINUOUS
 62
   218
 10
1715.5546722248
 20
1075.8398518309
 30
0.0
  0
VERTEX
  5
B21
  8
0
  6
CONTINUOUS
 62
   218
 10
1718.9938603316
 20
1076.7718727092
 30
0.0
  0
VERTEX
  5
B22
  8
0
  6
CONTINUOUS
 62
   218
 10
1722.3548186193
 20
1077.7945899011
 30
0.0
  0
VERTEX
  5
B23
  8
0
  6
CONTINUOUS
 62
   218
 10
1725.6303715868
 20
1078.9058197121
 30
0.0
  0
VERTEX
  5
B24
  8
0
  6
CONTINUOUS
 62
   218
 10
1728.8135281256
 20
1080.1031990077
 30
0.0
  0
VERTEX
  5
B25
  8
0
  6
CONTINUOUS
 62
   218
 10
1731.8975025932
 20
1081.384166965
 30
0.0
  0
VERTEX
  5
B26
  8
0
  6
CONTINUOUS
 62
   218
 10
1734.8757042761
 20
1082.7459894041
 30
0.0
  0
VERTEX
  5
B27
  8
0
  6
CONTINUOUS
 62
   218
 10
1737.7417848053
 20
1084.1857618286
 30
0.0
  0
VERTEX
  5
B28
  8
0
  6
CONTINUOUS
 62
   218
 10
1740.4896170826
 20
1085.7004094266
 30
0.0
  0
VERTEX
  5
B29
  8
0
  6
CONTINUOUS
 62
   218
 10
1743.1133532328
 20
1087.2867022765
 30
0.0
  0
VERTEX
  5
B2A
  8
0
  6
CONTINUOUS
 62
   218
 10
1745.6073771883
 20
1088.9412523064
 30
0.0
  0
VERTEX
  5
B2B
  8
0
  6
CONTINUOUS
 62
   218
 10
1747.9663784463
 20
1090.6605315421
 30
0.0
  0
VERTEX
  5
B2C
  8
0
  6
CONTINUOUS
 62
   218
 10
1750.1853204584
 20
1092.4408721066
 30
0.0
  0
VERTEX
  5
B2D
  8
0
  6
CONTINUOUS
 62
   218
 10
1752.2594669724
 20
1094.2784692621
 30
0.0
  0
VERTEX
  5
B2E
  8
0
  6
CONTINUOUS
 62
   218
 10
1754.1843873008
 20
1096.1694087819
 30
0.0
  0
VERTEX
  5
B2F
  8
0
  6
CONTINUOUS
 62
   218
 10
1755.9559773944
 20
1098.1096487022
 30
0.0
  0
VERTEX
  5
B30
  8
0
  6
CONTINUOUS
 62
   218
 10
1757.5704598418
 20
1100.0950497358
 30
0.0
  0
VERTEX
  5
B31
  8
0
  6
CONTINUOUS
 62
   218
 10
1759.0243786015
 20
1102.1213783136
 30
0.0
  0
VERTEX
  5
B32
  8
0
  6
CONTINUOUS
 62
   218
 10
1760.3146490509
 20
1104.1843050634
 30
0.0
  0
VERTEX
  5
B33
  8
0
  6
CONTINUOUS
 62
   218
 10
1761.4385000348
 20
1106.2794321827
 30
0.0
  0
VERTEX
  5
B34
  8
0
  6
CONTINUOUS
 62
   218
 10
1762.3935397195
 20
1108.4022888766
 30
0.0
  0
VERTEX
  5
B35
  8
0
  6
CONTINUOUS
 62
   218
 10
1763.1777318855
 20
1110.5483420019
 30
0.0
  0
VERTEX
  5
B36
  8
0
  6
CONTINUOUS
 62
   218
 10
1763.7894011954
 20
1112.7130112747
 30
0.0
  0
VERTEX
  5
B37
  8
0
  6
CONTINUOUS
 62
   218
 10
1764.227241097
 20
1114.8916799148
 30
0.0
  0
VERTEX
  5
B38
  8
0
  6
CONTINUOUS
 62
   218
 10
1764.4903217254
 20
1117.0796961664
 30
0.0
  0
VERTEX
  5
B39
  8
0
  6
CONTINUOUS
 62
   218
 10
1764.5780767323
 20
1119.2723930667
 30
0.0
  0
VERTEX
  5
B3A
  8
0
  6
CONTINUOUS
 62
   218
 10
1764.4903217254
 20
1121.4650869256
 30
0.0
  0
VERTEX
  5
B3B
  8
0
  6
CONTINUOUS
 62
   218
 10
1764.2272437311
 20
1123.6531046978
 30
0.0
  0
VERTEX
  5
B3C
  8
0
  6
CONTINUOUS
 62
   218
 10
1763.7894025125
 20
1125.8317725776
 30
0.0
  0
VERTEX
  5
B3D
  8
0
  6
CONTINUOUS
 62
   218
 10
1763.1777305684
 20
1127.9964433711
 30
0.0
  0
VERTEX
  5
B3E
  8
0
  6
CONTINUOUS
 62
   218
 10
1762.3935384025
 20
1130.1424964964
 30
0.0
  0
VERTEX
  5
B3F
  8
0
  6
CONTINUOUS
 62
   218
 10
1761.4384987177
 20
1132.2653501489
 30
0.0
  0
VERTEX
  5
B40
  8
0
  6
CONTINUOUS
 62
   218
 10
1760.3146450997
 20
1134.3604787889
 30
0.0
  0
VERTEX
  5
B41
  8
0
  6
CONTINUOUS
 62
   218
 10
1759.0243812357
 20
1136.4234062991
 30
0.0
  0
VERTEX
  5
B42
  8
0
  6
CONTINUOUS
 62
   218
 10
1759.0103081395
 20
1136.4443635313
 30
0.0
  0
SEQEND
  5
C73
  8
0
  6
CONTINUOUS
 62
   218
  0
POLYLINE
  5
4A6
  8
0
  6
CONTINUOUS
 62
   218
 66
     1
 10
0.0
 20
0.0
 30
0.0
 70
   128
  0
VERTEX
  5
B43
  8
0
  6
CONTINUOUS
 62
   218
 10
1773.5849372844
 20
1103.5818018897
 30
0.0
  0
VERTEX
  5
B44
  8
0
  6
CONTINUOUS
 62
   218
 10
1773.5835609264
 20
1103.2931793707
 30
0.0
  0
VERTEX
  5
B45
  8
0
  6
CONTINUOUS
 62
   218
 10
1773.4734825777
 20
1100.9796729186
 30
0.0
  0
VERTEX
  5
B46
  8
0
  6
CONTINUOUS
 62
   218
 10
1773.1874793321
 20
1098.6711945904
 30
0.0
  0
VERTEX
  5
B47
  8
0
  6
CONTINUOUS
 62
   218
 10
1772.726105684
 20
1096.3721946519
 30
0.0
  0
VERTEX
  5
B48
  8
0
  6
CONTINUOUS
 62
   218
 10
1772.0902546197
 20
1094.0871119641
 30
0.0
  0
VERTEX
  5
B49
  8
0
  6
CONTINUOUS
 62
   218
 10
1771.2811510322
 20
1091.8203580155
 30
0.0
  0
VERTEX
  5
B4A
  8
0
  6
CONTINUOUS
 62
   218
 10
1770.3003569888
 20
1089.5763077986
 30
0.0
  0
VERTEX
  5
B4B
  8
0
  6
CONTINUOUS
 62
   218
 10
1769.1497664637
 20
1087.359296768
 30
0.0
  0
VERTEX
  5
B4C
  8
0
  6
CONTINUOUS
 62
   218
 10
1767.8316027031
 20
1085.1735949893
 30
0.0
  0
VERTEX
  5
B4D
  8
0
  6
CONTINUOUS
 62
   218
 10
1766.3483997863
 20
1083.0234329904
 30
0.0
  0
VERTEX
  5
B4E
  8
0
  6
CONTINUOUS
 62
   218
 10
1764.7030342356
 20
1080.9129530998
 30
0.0
  0
VERTEX
  5
B4F
  8
0
  6
CONTINUOUS
 62
   218
 10
1762.8986749673
 20
1078.8462292155
 30
0.0
  0
VERTEX
  5
B50
  8
0
  6
CONTINUOUS
 62
   218
 10
1760.9388096331
 20
1076.8272576809
 30
0.0
  0
VERTEX
  5
B51
  8
0
  6
CONTINUOUS
 62
   218
 10
1758.8272156442
 20
1074.8599283918
 30
0.0
  0
VERTEX
  5
B52
  8
0
  6
CONTINUOUS
 62
   218
 10
1756.5679654399
 20
1072.9480400035
 30
0.0
  0
VERTEX
  5
B53
  8
0
  6
CONTINUOUS
 62
   218
 10
1754.1654317557
 20
1071.0952847236
 30
0.0
  0
VERTEX
  5
B54
  8
0
  6
CONTINUOUS
 62
   218
 10
1751.6242454767
 20
1069.3052422296
 30
0.0
  0
VERTEX
  5
B55
  8
0
  6
CONTINUOUS
 62
   218
 10
1748.9493061739
 20
1067.5813614205
 30
0.0
  0
VERTEX
  5
B56
  8
0
  6
CONTINUOUS
 62
   218
 10
1746.1457926413
 20
1065.9269725824
 30
0.0
  0
VERTEX
  5
B57
  8
0
  6
CONTINUOUS
 62
   218
 10
1743.2190996757
 20
1064.3452691406
 30
0.0
  0
VERTEX
  5
B58
  8
0
  6
CONTINUOUS
 62
   218
 10
1740.1748854913
 20
1062.8393046175
 30
0.0
  0
VERTEX
  5
B59
  8
0
  6
CONTINUOUS
 62
   218
 10
1737.0190243052
 20
1061.4119835094
 30
0.0
  0
VERTEX
  5
B5A
  8
0
  6
CONTINUOUS
 62
   218
 10
1733.7576116054
 20
1060.0660643273
 30
0.0
  0
VERTEX
  5
B5B
  8
0
  6
CONTINUOUS
 62
   218
 10
1730.3969325406
 20
1058.8041413488
 30
0.0
  0
VERTEX
  5
B5C
  8
0
  6
CONTINUOUS
 62
   218
 10
1726.9434882622
 20
1057.6286537424
 30
0.0
  0
VERTEX
  5
B5D
  8
0
  6
CONTINUOUS
 62
   218
 10
1723.403932704
 20
1056.5418734021
 30
0.0
  0
VERTEX
  5
B5E
  8
0
  6
CONTINUOUS
 62
   218
 10
1719.7851094605
 20
1055.5458897402
 30
0.0
  0
VERTEX
  5
B5F
  8
0
  6
CONTINUOUS
 62
   218
 10
1716.093993835
 20
1054.6426309771
 30
0.0
  0
VERTEX
  5
B60
  8
0
  6
CONTINUOUS
 62
   218
 10
1712.3377139134
 20
1053.8338398106
 30
0.0
  0
VERTEX
  5
B61
  8
0
  6
CONTINUOUS
 62
   218
 10
1708.5235136852
 20
1053.121076457
 30
0.0
  0
VERTEX
  5
B62
  8
0
  6
CONTINUOUS
 62
   218
 10
1704.658768849
 20
1052.5057156096
 30
0.0
  0
VERTEX
  5
B63
  8
0
  6
CONTINUOUS
 62
   218
 10
1700.7509393968
 20
1051.9889494805
 30
0.0
  0
VERTEX
  5
B64
  8
0
  6
CONTINUOUS
 62
   218
 10
1696.8075538096
 20
1051.5717725935
 30
0.0
  0
VERTEX
  5
B65
  8
0
  6
CONTINUOUS
 62
   218
 10
1692.8362248618
 20
1051.2549848257
 30
0.0
  0
VERTEX
  5
B66
  8
0
  6
CONTINUOUS
 62
   218
 10
1688.8446390849
 20
1051.0392096551
 30
0.0
  0
VERTEX
  5
B67
  8
0
  6
CONTINUOUS
 62
   218
 10
1684.8404777422
 20
1050.9248546237
 30
0.0
  0
VERTEX
  5
B68
  8
0
  6
CONTINUOUS
 62
   218
 10
1680.8314905852
 20
1050.9121417505
 30
0.0
  0
VERTEX
  5
B69
  8
0
  6
CONTINUOUS
 62
   218
 10
1676.8254010241
 20
1051.0011014491
 30
0.0
  0
VERTEX
  5
B6A
  8
0
  6
CONTINUOUS
 62
   218
 10
1672.8299403714
 20
1051.1915527588
 30
0.0
  0
VERTEX
  5
B6B
  8
0
  6
CONTINUOUS
 62
   218
 10
1668.8528346712
 20
1051.4831352788
 30
0.0
  0
VERTEX
  5
B6C
  8
0
  6
CONTINUOUS
 62
   218
 10
1664.9017493816
 20
1051.8752802751
 30
0.0
  0
VERTEX
  5
B6D
  8
0
  6
CONTINUOUS
 62
   218
 10
1660.9843209847
 20
1052.3672410947
 30
0.0
  0
VERTEX
  5
B6E
  8
0
  6
CONTINUOUS
 62
   218
 10
1657.1080990347
 20
1052.9580536273
 30
0.0
  0
VERTEX
  5
B6F
  8
0
  6
CONTINUOUS
 62
   218
 10
1653.2805777682
 20
1053.6465910501
 30
0.0
  0
VERTEX
  5
B70
  8
0
  6
CONTINUOUS
 62
   218
 10
1649.5091328837
 20
1054.4315151658
 30
0.0
  0
VERTEX
  5
B71
  8
0
  6
CONTINUOUS
 62
   218
 10
1645.8010478833
 20
1055.3113098579
 30
0.0
  0
VERTEX
  5
B72
  8
0
  6
CONTINUOUS
 62
   218
 10
1642.1634864144
 20
1056.2842848921
 30
0.0
  0
VERTEX
  5
B73
  8
0
  6
CONTINUOUS
 62
   218
 10
1638.6034632928
 20
1057.3485561477
 30
0.0
  0
VERTEX
  5
B74
  8
0
  6
CONTINUOUS
 62
   218
 10
1635.1278589918
 20
1058.5020737498
 30
0.0
  0
VERTEX
  5
B75
  8
0
  6
CONTINUOUS
 62
   218
 10
1631.7433774943
 20
1059.7426099043
 30
0.0
  0
VERTEX
  5
B76
  8
0
  6
CONTINUOUS
 62
   218
 10
1628.4565515619
 20
1061.0677680218
 30
0.0
  0
VERTEX
  5
B77
  8
0
  6
CONTINUOUS
 62
   218
 10
1625.2737269295
 20
1062.4749918414
 30
0.0
  0
VERTEX
  5
B78
  8
0
  6
CONTINUOUS
 62
   218
 10
1622.2010339879
 20
1063.9615574476
 30
0.0
  0
VERTEX
  5
B79
  8
0
  6
CONTINUOUS
 62
   218
 10
1619.2444291075
 20
1065.5246102415
 30
0.0
  0
VERTEX
  5
B7A
  8
0
  6
CONTINUOUS
 62
   218
 10
1616.4096007958
 20
1067.1611217917
 30
0.0
  0
VERTEX
  5
B7B
  8
0
  6
CONTINUOUS
 62
   218
 10
1613.7020205698
 20
1068.8679334587
 30
0.0
  0
VERTEX
  5
B7C
  8
0
  6
CONTINUOUS
 62
   218
 10
1611.1269343951
 20
1070.6417613369
 30
0.0
  0
VERTEX
  5
B7D
  8
0
  6
CONTINUOUS
 62
   218
 10
1608.6892871178
 20
1072.4791668869
 30
0.0
  0
VERTEX
  5
B7E
  8
0
  6
CONTINUOUS
 62
   218
 10
1606.3937972092
 20
1074.3766111095
 30
0.0
  0
VERTEX
  5
B7F
  8
0
  6
CONTINUOUS
 62
   218
 10
1604.2448927227
 20
1076.3304306897
 30
0.0
  0
VERTEX
  5
B80
  8
0
  6
CONTINUOUS
 62
   218
 10
1602.2467251228
 20
1078.3368543448
 30
0.0
  0
VERTEX
  5
B81
  8
0
  6
CONTINUOUS
 62
   218
 10
1600.4031534803
 20
1080.3920119476
 30
0.0
  0
VERTEX
  5
B82
  8
0
  6
CONTINUOUS
 62
   218
 10
1598.7177286672
 20
1082.4919314856
 30
0.0
  0
VERTEX
  5
B83
  8
0
  6
CONTINUOUS
 62
   218
 10
1597.1937144301
 20
1084.6325633917
 30
0.0
  0
VERTEX
  5
B84
  8
0
  6
CONTINUOUS
 62
   218
 10
1595.8340386579
 20
1086.8097721803
 30
0.0
  0
VERTEX
  5
B85
  8
0
  6
CONTINUOUS
 62
   218
 10
1594.6413276261
 20
1089.0193531752
 30
0.0
  0
VERTEX
  5
B86
  8
0
  6
CONTINUOUS
 62
   218
 10
1593.6178994113
 20
1091.2570484762
 30
0.0
  0
VERTEX
  5
B87
  8
0
  6
CONTINUOUS
 62
   218
 10
1592.7657059395
 20
1093.5185317527
 30
0.0
  0
VERTEX
  5
B88
  8
0
  6
CONTINUOUS
 62
   218
 10
1592.0864172795
 20
1095.7994447398
 30
0.0
  0
VERTEX
  5
B89
  8
0
  6
CONTINUOUS
 62
   218
 10
1591.5813268127
 20
1098.0953789902
 30
0.0
  0
VERTEX
  5
B8A
  8
0
  6
CONTINUOUS
 62
   218
 10
1591.2514197218
 20
1100.4019093292
 30
0.0
  0
VERTEX
  5
B8B
  8
0
  6
CONTINUOUS
 62
   218
 10
1591.097320307
 20
1102.7145756063
 30
0.0
  0
VERTEX
  5
B8C
  8
0
  6
CONTINUOUS
 62
   218
 10
1591.0849396702
 20
1103.5911008394
 30
0.0
  0
SEQEND
  5
C74
  8
0
  6
CONTINUOUS
 62
   218
  0
POLYLINE
  5
4A7
  8
0
  6
CONTINUOUS
 62
   218
 66
     1
 10
0.0
 20
0.0
 30
0.0
 70
   128
  0
VERTEX
  5
B8D
  8
0
  6
CONTINUOUS
 62
   218
 10
1617.8114416911
 20
593.5268899827
 30
0.0
  0
VERTEX
  5
B8E
  8
0
  6
CONTINUOUS
 62
   218
 10
1620.707858073
 20
591.926722081
 30
0.0
  0
VERTEX
  5
B8F
  8
0
  6
CONTINUOUS
 62
   218
 10
1623.7232418374
 20
590.4015494863
 30
0.0
  0
VERTEX
  5
B90
  8
0
  6
CONTINUOUS
 62
   218
 10
1626.8517444504
 20
588.9542983643
 30
0.0
  0
VERTEX
  5
B91
  8
0
  6
CONTINUOUS
 62
   218
 10
1630.0873566935
 20
587.5877808301
 30
0.0
  0
VERTEX
  5
B92
  8
0
  6
CONTINUOUS
 62
   218
 10
1633.4238171255
 20
586.3046261369
 30
0.0
  0
VERTEX
  5
B93
  8
0
  6
CONTINUOUS
 62
   218
 10
1636.8546878152
 20
585.1073099494
 30
0.0
  0
VERTEX
  5
B94
  8
0
  6
CONTINUOUS
 62
   218
 10
1640.3733477562
 20
583.9981459803
 30
0.0
  0
VERTEX
  5
B95
  8
0
  6
CONTINUOUS
 62
   218
 10
1643.9730073545
 20
582.979277626
 30
0.0
  0
VERTEX
  5
B96
  8
0
  6
CONTINUOUS
 62
   218
 10
1647.6467215999
 20
582.0526703636
 30
0.0
  0
VERTEX
  5
B97
  8
0
  6
CONTINUOUS
 62
   218
 10
1651.3873808458
 20
581.2201049077
 30
0.0
  0
VERTEX
  5
B98
  8
0
  6
CONTINUOUS
 62
   218
 10
1655.1877806153
 20
580.4831977398
 30
0.0
  0
VERTEX
  5
B99
  8
0
  6
CONTINUOUS
 62
   218
 10
1659.0405899909
 20
579.8433706942
 30
0.0
  0
VERTEX
  5
B9A
  8
0
  6
CONTINUOUS
 62
   218
 10
1662.9383516146
 20
579.3018509587
 30
0.0
  0
VERTEX
  5
B9B
  8
0
  6
CONTINUOUS
 62
   218
 10
1666.8735659816
 20
578.8596954049
 30
0.0
  0
VERTEX
  5
B9C
  8
0
  6
CONTINUOUS
 62
   218
 10
1670.8386176831
 20
578.5177480095
 30
0.0
  0
VERTEX
  5
B9D
  8
0
  6
CONTINUOUS
 62
   218
 10
1674.8258623345
 20
578.2766748295
 30
0.0
  0
VERTEX
  5
B9E
  8
0
  6
CONTINUOUS
 62
   218
 10
1678.8275949652
 20
578.1369335894
 30
0.0
  0
VERTEX
  5
B9F
  8
0
  6
CONTINUOUS
 62
   218
 10
1682.8361053359
 20
578.0988025733
 30
0.0
  0
VERTEX
  5
BA0
  8
0
  6
CONTINUOUS
 62
   218
 10
1686.8436489633
 20
578.162348691
 30
0.0
  0
VERTEX
  5
BA1
  8
0
  6
CONTINUOUS
 62
   218
 10
1690.8424839981
 20
578.3274548503
 30
0.0
  0
VERTEX
  5
BA2
  8
0
  6
CONTINUOUS
 62
   218
 10
1694.8249028354
 20
578.5938017088
 30
0.0
  0
VERTEX
  5
BA3
  8
0
  6
CONTINUOUS
 62
   218
 10
1698.783208407
 20
578.9608691942
 30
0.0
  0
VERTEX
  5
BA4
  8
0
  6
CONTINUOUS
 62
   218
 10
1702.7097668649
 20
579.4279547531
 30
0.0
  0
VERTEX
  5
BA5
  8
0
  6
CONTINUOUS
 62
   218
 10
1706.5969970448
 20
579.9941551024
 30
0.0
  0
VERTEX
  5
BA6
  8
0
  6
CONTINUOUS
 62
   218
 10
1710.4373915394
 20
580.6583783949
 30
0.0
  0
VERTEX
  5
BA7
  8
0
  6
CONTINUOUS
 62
   218
 10
1714.2235483082
 20
581.4193381364
 30
0.0
  0
VERTEX
  5
BA8
  8
0
  6
CONTINUOUS
 62
   218
 10
1717.9481390681
 20
582.2755714341
 30
0.0
  0
VERTEX
  5
BA9
  8
0
  6
CONTINUOUS
 62
   218
 10
1721.6039935865
 20
583.2254207484
 30
0.0
  0
VERTEX
  5
BAA
  8
0
  6
CONTINUOUS
 62
   218
 10
1725.1840522661
 20
584.2670551822
 30
0.0
  0
VERTEX
  5
BAB
  8
0
  6
CONTINUOUS
 62
   218
 10
1728.6813977555
 20
585.3984643983
 30
0.0
  0
VERTEX
  5
BAC
  8
0
  6
CONTINUOUS
 62
   218
 10
1732.0892812906
 20
586.617461661
 30
0.0
  0
VERTEX
  5
BAD
  8
0
  6
CONTINUOUS
 62
   218
 10
1735.4011226947
 20
587.9216960012
 30
0.0
  0
VERTEX
  5
BAE
  8
0
  6
CONTINUOUS
 62
   218
 10
1738.6105367202
 20
589.3086491749
 30
0.0
  0
VERTEX
  5
BAF
  8
0
  6
CONTINUOUS
 62
   218
 10
1741.711322512
 20
590.7756478293
 30
0.0
  0
VERTEX
  5
BB0
  8
0
  6
CONTINUOUS
 62
   218
 10
1744.6974899492
 20
592.319854378
 30
0.0
  0
VERTEX
  5
BB1
  8
0
  6
CONTINUOUS
 62
   218
 10
1747.5632912555
 20
593.9382913323
 30
0.0
  0
VERTEX
  5
BB2
  8
0
  6
CONTINUOUS
 62
   218
 10
1750.3031788519
 20
595.6278352185
 30
0.0
  0
VERTEX
  5
BB3
  8
0
  6
CONTINUOUS
 62
   218
 10
1752.9118685772
 20
597.3852226601
 30
0.0
  0
VERTEX
  5
BB4
  8
0
  6
CONTINUOUS
 62
   218
 10
1755.384323883
 20
599.2070595025
 30
0.0
  0
VERTEX
  5
BB5
  8
0
  6
CONTINUOUS
 62
   218
 10
1757.7157821755
 20
601.0898360195
 30
0.0
  0
VERTEX
  5
BB6
  8
0
  6
CONTINUOUS
 62
   218
 10
1759.9017284735
 20
603.0299117065
 30
0.0
  0
VERTEX
  5
BB7
  8
0
  6
CONTINUOUS
 62
   218
 10
1761.9379533606
 20
605.0235426528
 30
0.0
  0
VERTEX
  5
BB8
  8
0
  6
CONTINUOUS
 62
   218
 10
1763.8205161063
 20
607.0668845828
 30
0.0
  0
VERTEX
  5
BB9
  8
0
  6
CONTINUOUS
 62
   218
 10
1765.5457999843
 20
609.1559882942
 30
0.0
  0
VERTEX
  5
BBA
  8
0
  6
CONTINUOUS
 62
   218
 10
1767.1104595884
 20
611.2868239886
 30
0.0
  0
VERTEX
  5
BBB
  8
0
  6
CONTINUOUS
 62
   218
 10
1768.511481419
 20
613.4552797512
 30
0.0
  0
VERTEX
  5
BBC
  8
0
  6
CONTINUOUS
 62
   218
 10
1769.7461549069
 20
615.6571691537
 30
0.0
  0
VERTEX
  5
BBD
  8
0
  6
CONTINUOUS
 62
   218
 10
1770.8121040234
 20
617.8882373373
 30
0.0
  0
VERTEX
  5
BBE
  8
0
  6
CONTINUOUS
 62
   218
 10
1771.7072714757
 20
620.1441823023
 30
0.0
  0
VERTEX
  5
BBF
  8
0
  6
CONTINUOUS
 62
   218
 10
1772.4299213402
 20
622.4206503459
 30
0.0
  0
VERTEX
  5
BC0
  8
0
  6
CONTINUOUS
 62
   218
 10
1772.9786654053
 20
624.713245186
 30
0.0
  0
VERTEX
  5
BC1
  8
0
  6
CONTINUOUS
 62
   218
 10
1773.3524447313
 20
627.0175416481
 30
0.0
  0
VERTEX
  5
BC2
  8
0
  6
CONTINUOUS
 62
   218
 10
1773.5505309681
 20
629.3290925075
 30
0.0
  0
VERTEX
  5
BC3
  8
0
  6
CONTINUOUS
 62
   218
 10
1773.5849399186
 20
630.7755110579
 30
0.0
  0
SEQEND
  5
C75
  8
0
  6
CONTINUOUS
 62
   218
  0
POLYLINE
  5
4A8
  8
0
  6
CONTINUOUS
 62
   218
 66
     1
 10
0.0
 20
0.0
 30
0.0
 70
   128
  0
VERTEX
  5
BC4
  8
0
  6
CONTINUOUS
 62
   218
 10
1591.0849396702
 20
630.7755140992
 30
0.0
  0
VERTEX
  5
BC5
  8
0
  6
CONTINUOUS
 62
   218
 10
1591.1523667253
 20
628.7507655066
 30
0.0
  0
VERTEX
  5
BC6
  8
0
  6
CONTINUOUS
 62
   218
 10
1591.3944318814
 20
626.4406144319
 30
0.0
  0
VERTEX
  5
BC7
  8
0
  6
CONTINUOUS
 62
   218
 10
1591.8120281248
 20
624.1388270895
 30
0.0
  0
VERTEX
  5
BC8
  8
0
  6
CONTINUOUS
 62
   218
 10
1592.4043625679
 20
621.8498514644
 30
0.0
  0
VERTEX
  5
BC9
  8
0
  6
CONTINUOUS
 62
   218
 10
1593.1702814408
 20
619.578100566
 30
0.0
  0
VERTEX
  5
BCA
  8
0
  6
CONTINUOUS
 62
   218
 10
1594.1083227747
 20
617.327970676
 30
0.0
  0
VERTEX
  5
BCB
  8
0
  6
CONTINUOUS
 62
   218
 10
1595.2166558158
 20
615.1037911664
 30
0.0
  0
VERTEX
  5
BCC
  8
0
  6
CONTINUOUS
 62
   218
 10
1596.4931547825
 20
612.9098670785
 30
0.0
  0
VERTEX
  5
BCD
  8
0
  6
CONTINUOUS
 62
   218
 10
1597.9353567183
 20
610.7504304607
 30
0.0
  0
VERTEX
  5
BCE
  8
0
  6
CONTINUOUS
 62
   218
 10
1599.5404614919
 20
608.6296403692
 30
0.0
  0
VERTEX
  5
BCF
  8
0
  6
CONTINUOUS
 62
   218
 10
1601.3053844809
 20
606.5516011153
 30
0.0
  0
VERTEX
  5
BD0
  8
0
  6
CONTINUOUS
 62
   218
 10
1603.2267210102
 20
604.5203219684
 30
0.0
  0
VERTEX
  5
BD1
  8
0
  6
CONTINUOUS
 62
   218
 10
1605.3007582058
 20
602.5397224775
 30
0.0
  0
VERTEX
  5
BD2
  8
0
  6
CONTINUOUS
 62
   218
 10
1607.5234881658
 20
600.6136248682
 30
0.0
  0
VERTEX
  5
BD3
  8
0
  6
CONTINUOUS
 62
   218
 10
1609.8906224485
 20
598.7457456792
 30
0.0
  0
VERTEX
  5
BD4
  8
0
  6
CONTINUOUS
 62
   218
 10
1612.39760656
 20
596.9396995635
 30
0.0
  0
VERTEX
  5
BD5
  8
0
  6
CONTINUOUS
 62
   218
 10
1615.0395692465
 20
595.1989555691
 30
0.0
  0
VERTEX
  5
BD6
  8
0
  6
CONTINUOUS
 62
   218
 10
1617.8114416911
 20
593.5268899827
 30
0.0
  0
SEQEND
  5
C76
  8
0
  6
CONTINUOUS
 62
   218
  0
POLYLINE
  5
4A9
  8
0
  6
CONTINUOUS
 62
   218
 66
     1
 10
0.0
 20
0.0
 30
0.0
 70
   128
  0
VERTEX
  5
BD7
  8
0
  6
CONTINUOUS
 62
   218
 10
1666.6018136391
 20
1174.4911148665
 30
0.0
  0
VERTEX
  5
BD8
  8
0
  6
CONTINUOUS
 62
   218
 10
1668.0754563006
 20
1173.7135254589
 30
0.0
  0
VERTEX
  5
BD9
  8
0
  6
CONTINUOUS
 62
   218
 10
1669.6639053312
 20
1173.0153225079
 30
0.0
  0
VERTEX
  5
BDA
  8
0
  6
CONTINUOUS
 62
   218
 10
1671.3543801928
 20
1172.4021322391
 30
0.0
  0
VERTEX
  5
BDB
  8
0
  6
CONTINUOUS
 62
   218
 10
1673.1332593863
 20
1171.8788863084
 30
0.0
  0
VERTEX
  5
BDC
  8
0
  6
CONTINUOUS
 62
   218
 10
1674.986229776
 20
1171.449802508
 30
0.0
  0
VERTEX
  5
BDD
  8
0
  6
CONTINUOUS
 62
   218
 10
1676.8983618287
 20
1171.1183291666
 30
0.0
  0
VERTEX
  5
BDE
  8
0
  6
CONTINUOUS
 62
   218
 10
1678.8542726032
 20
1170.8871422985
 30
0.0
  0
VERTEX
  5
BDF
  8
0
  6
CONTINUOUS
 62
   218
 10
1680.8382004952
 20
1170.7580963712
 30
0.0
  0
VERTEX
  5
BE0
  8
0
  6
CONTINUOUS
 62
   218
 10
1682.8341850201
 20
1170.7322360909
 30
0.0
  0
VERTEX
  5
BE1
  8
0
  6
CONTINUOUS
 62
   218
 10
1684.8261478137
 20
1170.8097678898
 30
0.0
  0
VERTEX
  5
BE2
  8
0
  6
CONTINUOUS
 62
   218
 10
1686.7980526586
 20
1170.9900648681
 30
0.0
  0
VERTEX
  5
BE3
  8
0
  6
CONTINUOUS
 62
   218
 10
1688.7340220468
 20
1171.2716785794
 30
0.0
  0
VERTEX
  5
BE4
  8
0
  6
CONTINUOUS
 62
   218
 10
1690.6184721811
 20
1171.6523401712
 30
0.0
  0
VERTEX
  5
BE5
  8
0
  6
CONTINUOUS
 62
   218
 10
1692.4362262447
 20
1172.1289862366
 30
0.0
  0
VERTEX
  5
BE6
  8
0
  6
CONTINUOUS
 62
   218
 10
1694.1726513787
 20
1172.6977770619
 30
0.0
  0
VERTEX
  5
BE7
  8
0
  6
CONTINUOUS
 62
   218
 10
1695.8137640489
 20
1173.3541331236
 30
0.0
  0
VERTEX
  5
BE8
  8
0
  6
CONTINUOUS
 62
   218
 10
1697.3463564868
 20
1174.0927715841
 30
0.0
  0
VERTEX
  5
BE9
  8
0
  6
CONTINUOUS
 62
   218
 10
1698.7580862511
 20
1174.9077458298
 30
0.0
  0
VERTEX
  5
BEA
  8
0
  6
CONTINUOUS
 62
   218
 10
1700.0375842294
 20
1175.7924926118
 30
0.0
  0
VERTEX
  5
BEB
  8
0
  6
CONTINUOUS
 62
   218
 10
1701.1745494687
 20
1176.7398867905
 30
0.0
  0
VERTEX
  5
BEC
  8
0
  6
CONTINUOUS
 62
   218
 10
1702.1598308343
 20
1177.7423036833
 30
0.0
  0
VERTEX
  5
BED
  8
0
  6
CONTINUOUS
 62
   218
 10
1702.9854954991
 20
1178.7916707678
 30
0.0
  0
VERTEX
  5
BEE
  8
0
  6
CONTINUOUS
 62
   218
 10
1703.6448921637
 20
1179.8795406744
 30
0.0
  0
VERTEX
  5
BEF
  8
0
  6
CONTINUOUS
 62
   218
 10
1704.1327142764
 20
1180.9971520132
 30
0.0
  0
VERTEX
  5
BF0
  8
0
  6
CONTINUOUS
 62
   218
 10
1704.4450316434
 20
1182.1355084496
 30
0.0
  0
VERTEX
  5
BF1
  8
0
  6
CONTINUOUS
 62
   218
 10
1704.5793352104
 20
1183.2854440932
 30
0.0
  0
VERTEX
  5
BF2
  8
0
  6
CONTINUOUS
 62
   218
 10
1704.58493679
 20
1183.5736453843
 30
0.0
  0
SEQEND
  5
C77
  8
0
  6
CONTINUOUS
 62
   218
  0
POLYLINE
  5
4AA
  8
0
  6
CONTINUOUS
 62
   218
 66
     1
 10
0.0
 20
0.0
 30
0.0
 70
   128
  0
VERTEX
  5
BF3
  8
0
  6
CONTINUOUS
 62
   218
 10
1660.0849401647
 20
1183.5736666738
 30
0.0
  0
VERTEX
  5
BF4
  8
0
  6
CONTINUOUS
 62
   218
 10
1660.1353352831
 20
1182.7096060631
 30
0.0
  0
VERTEX
  5
BF5
  8
0
  6
CONTINUOUS
 62
   218
 10
1660.3588736066
 20
1181.5643088693
 30
0.0
  0
VERTEX
  5
BF6
  8
0
  6
CONTINUOUS
 62
   218
 10
1660.7593444
 20
1180.4351856133
 30
0.0
  0
VERTEX
  5
BF7
  8
0
  6
CONTINUOUS
 62
   218
 10
1661.3335352835
 20
1179.3313352754
 30
0.0
  0
VERTEX
  5
BF8
  8
0
  6
CONTINUOUS
 62
   218
 10
1662.076810762
 20
1178.2616382385
 30
0.0
  0
VERTEX
  5
BF9
  8
0
  6
CONTINUOUS
 62
   218
 10
1662.9831975078
 20
1177.2347131389
 30
0.0
  0
VERTEX
  5
BFA
  8
0
  6
CONTINUOUS
 62
   218
 10
1664.0453892986
 20
1176.2588227736
 30
0.0
  0
VERTEX
  5
BFB
  8
0
  6
CONTINUOUS
 62
   218
 10
1665.2548433307
 20
1175.341830667
 30
0.0
  0
VERTEX
  5
BFC
  8
0
  6
CONTINUOUS
 62
   218
 10
1666.6018136391
 20
1174.4911148665
 30
0.0
  0
SEQEND
  5
C78
  8
0
  6
CONTINUOUS
 62
   218
  0
LINE
  5
4AB
  8
0
  6
CONTINUOUS
 62
   218
 10
1784.9846593129
 20
1149.2076856543
 30
0.0
 11
1707.9543868444
 21
1193.676315409
 31
0.0
  0
LINE
  5
4AC
  8
0
  6
CONTINUOUS
 62
   218
 10
1784.7271221887
 20
1136.3836886091
 30
0.0
 11
1784.7271221887
 21
1000.6420602565
 31
0.0
  0
LINE
  5
4AD
  8
0
  6
CONTINUOUS
 62
   218
 10
1784.7271221887
 20
998.3068916472
 30
0.0
 11
1784.7271221887
 21
994.7261943288
 31
0.0
  0
LINE
  5
4AE
  8
0
  6
CONTINUOUS
 62
   218
 10
1784.7271221887
 20
984.6559865472
 30
0.0
 11
1784.7271221887
 21
780.1760383705
 31
0.0
  0
LINE
  5
4AF
  8
0
  6
CONTINUOUS
 62
   218
 10
1784.7271221887
 20
777.8408651985
 30
0.0
 11
1784.7271221887
 21
774.2601629371
 31
0.0
  0
LINE
  5
4B0
  8
0
  6
CONTINUOUS
 62
   218
 10
1709.6261375159
 20
1164.9532431711
 30
0.0
 11
1709.6261375159
 21
1164.2185265115
 31
0.0
  0
LINE
  5
4B1
  8
0
  6
CONTINUOUS
 62
   218
 10
1708.9190295075
 20
1165.3614657471
 30
0.0
 11
1708.9190295075
 21
1164.370065485
 31
0.0
  0
INSERT
  5
4B9
  8
細線
  2
SW_NOTE_9
 10
1755.8445377443
 20
1166.029916274
 30
0.0
  0
ENDSEC
  0
EOF
