  0
SECTION
  2
HEADER
  9
$ACADVER
  1
AC1009
  9
$DWGCODEPAGE
  3
dos932
  9
$INSBASE
 10
0.0
 20
0.0
 30
0.0
  9
$EXTMIN
 10
0.0
 20
0.0
 30
0.0
  9
$EXTMAX
 10
4200.0
 20
2970.0
 30
0.0
  9
$LIMMIN
 10
0.0
 20
0.0
  9
$LIMMAX
 10
4200.0
 20
2970.0
  9
$ORTHOMODE
 70
     0
  9
$REGENMODE
 70
     1
  9
$FILLMODE
 70
     1
  9
$QTEXTMODE
 70
     0
  9
$MIRRTEXT
 70
     1
  9
$DRAGMODE
 70
     2
  9
$LTSCALE
 40
10.0
  9
$OSMODE
 70
    37
  9
$ATTMODE
 70
     1
  9
$TEXTSIZE
 40
35.0
  9
$TRACEWID
 40
1.0
  9
$TEXTSTYLE
  7
STANDARD
  9
$CLAYER
  8
0
  9
$CELTYPE
  6
BYLAYER
  9
$CECOLOR
 62
   256
  9
$DIMSCALE
 40
1.0
  9
$DIMASZ
 40
30.0
  9
$DIMEXO
 40
10.0
  9
$DIMDLI
 40
3.75
  9
$DIMRND
 40
0.0
  9
$DIMDLE
 40
0.0
  9
$DIMEXE
 40
10.0
  9
$DIMTP
 40
0.0
  9
$DIMTM
 40
0.0
  9
$DIMTXT
 40
35.0
  9
$DIMCEN
 40
2.5
  9
$DIMTSZ
 40
0.0
  9
$DIMTOL
 70
     0
  9
$DIMLIM
 70
     0
  9
$DIMTIH
 70
     1
  9
$DIMTOH
 70
     1
  9
$DIMSE1
 70
     0
  9
$DIMSE2
 70
     0
  9
$DIMTAD
 70
     1
  9
$DIMZIN
 70
     0
  9
$DIMBLK
  1

  9
$DIMASO
 70
     1
  9
$DIMSHO
 70
     1
  9
$DIMPOST
  1

  9
$DIMAPOST
  1

  9
$DIMALT
 70
     0
  9
$DIMALTD
 70
     3
  9
$DIMALTF
 40
0.0393700787
  9
$DIMLFAC
 40
1.0
  9
$DIMTOFL
 70
     1
  9
$DIMTVP
 40
0.0
  9
$DIMTIX
 70
     0
  9
$DIMSOXD
 70
     0
  9
$DIMSAH
 70
     0
  9
$DIMBLK1
  1

  9
$DIMBLK2
  1

  9
$DIMSTYLE
  2
ISO-25
  9
$DIMCLRD
 70
     0
  9
$DIMCLRE
 70
     0
  9
$DIMCLRT
 70
     0
  9
$DIMTFAC
 40
1.0
  9
$DIMGAP
 40
15.24
  9
$LUNITS
 70
     2
  9
$LUPREC
 70
     1
  9
$SKETCHINC
 40
1.0
  9
$FILLETRAD
 40
10.0
  9
$AUNITS
 70
     0
  9
$AUPREC
 70
     1
  9
$MENU
  1
.
  9
$ELEVATION
 40
0.0
  9
$PELEVATION
 40
0.0
  9
$THICKNESS
 40
0.0
  9
$LIMCHECK
 70
     0
  9
$CHAMFERA
 40
0.0
  9
$CHAMFERB
 40
0.0
  9
$SKPOLY
 70
     0
  9
$TDCREATE
 40
2459222.381298993
  9
$TDUPDATE
 40
2459222.38130147
  9
$TDINDWG
 40
0.0000000116
  9
$TDUSRTIMER
 40
0.0000000116
  9
$USRTIMER
 70
     1
  9
$ANGBASE
 50
0.0
  9
$ANGDIR
 70
     0
  9
$PDMODE
 70
     0
  9
$PDSIZE
 40
-1.0
  9
$PLINEWID
 40
0.0
  9
$COORDS
 70
     1
  9
$SPLFRAME
 70
     0
  9
$SPLINETYPE
 70
     6
  9
$SPLINESEGS
 70
     8
  9
$ATTDIA
 70
     0
  9
$ATTREQ
 70
     1
  9
$HANDLING
 70
     1
  9
$HANDSEED
  5
89A
  9
$SURFTAB1
 70
     6
  9
$SURFTAB2
 70
     6
  9
$SURFTYPE
 70
     6
  9
$SURFU
 70
     6
  9
$SURFV
 70
     6
  9
$UCSNAME
  2

  9
$UCSORG
 10
0.0
 20
0.0
 30
0.0
  9
$UCSXDIR
 10
1.0
 20
0.0
 30
0.0
  9
$UCSYDIR
 10
0.0
 20
1.0
 30
0.0
  9
$PUCSNAME
  2

  9
$PUCSORG
 10
0.0
 20
0.0
 30
0.0
  9
$PUCSXDIR
 10
1.0
 20
0.0
 30
0.0
  9
$PUCSYDIR
 10
0.0
 20
1.0
 30
0.0
  9
$USERI1
 70
     0
  9
$USERI2
 70
     0
  9
$USERI3
 70
     0
  9
$USERI4
 70
     0
  9
$USERI5
 70
     0
  9
$USERR1
 40
0.0
  9
$USERR2
 40
0.0
  9
$USERR3
 40
0.0
  9
$USERR4
 40
0.0
  9
$USERR5
 40
0.0
  9
$WORLDVIEW
 70
     1
  9
$SHADEDGE
 70
     3
  9
$SHADEDIF
 70
    70
  9
$TILEMODE
 70
     1
  9
$MAXACTVP
 70
    64
  9
$PLIMCHECK
 70
     0
  9
$PEXTMIN
 10
1.0000000000E+20
 20
1.0000000000E+20
 30
1.0000000000E+20
  9
$PEXTMAX
 10
-1.0000000000E+20
 20
-1.0000000000E+20
 30
-1.0000000000E+20
  9
$PLIMMIN
 10
0.0
 20
0.0
  9
$PLIMMAX
 10
420.0
 20
297.0
  9
$UNITMODE
 70
     0
  9
$VISRETAIN
 70
     1
  9
$PLINEGEN
 70
     0
  9
$PSLTSCALE
 70
     1
  0
ENDSEC
  0
SECTION
  2
TABLES
  0
TABLE
  2
VPORT
 70
     1
  0
VPORT
  2
*ACTIVE
 70
     0
 10
0.0
 20
0.0
 11
1.0
 21
1.0
 12
2100.0
 22
1485.0
 13
0.0
 23
0.0
 14
10.0
 24
10.0
 15
10.0
 25
10.0
 16
0.0
 26
0.0
 36
1.0
 17
0.0
 27
0.0
 37
0.0
 40
2970.0
 41
1.4141414141
 42
50.0
 43
0.0
 44
0.0
 50
0.0
 51
0.0
 71
     0
 72
  2000
 73
     1
 74
     3
 75
     0
 76
     0
 77
     0
 78
     0
  0
ENDTAB
  0
TABLE
  2
LTYPE
 70
     6
  0
LTYPE
  2
CONTINUOUS
 70
     0
  3
Solid line
 72
    65
 73
     0
 40
0.0
  0
LTYPE
  2
HIDDEN
 70
     0
  3
Hidden __ __ __ __ __ __ __ __ __ __ __ __ __ __
 72
    65
 73
     2
 40
1.905
 49
1.27
 49
-0.635
  0
LTYPE
  2
PHANTOM
 70
     0
  3
Phantom ______  __  __  ______  __  __  ______
 72
    65
 73
     6
 40
12.7
 49
6.35
 49
-1.27
 49
1.27
 49
-1.27
 49
1.27
 49
-1.27
  0
LTYPE
  2
CENTER
 70
     0
  3
Center ____ _ ____ _ ____ _ ____ _ ____ _ ____
 72
    65
 73
     4
 40
10.16
 49
6.35
 49
-1.27
 49
1.27
 49
-1.27
  0
LTYPE
  2
CENTERX2
 70
     0
  3
Center (2x) ________  __  ________  __  _____
 72
    65
 73
     4
 40
20.32
 49
12.7
 49
-2.54
 49
2.54
 49
-2.54
  0
LTYPE
  2
DOT2
 70
     0
  3
Dot (.5x) ........................................
 72
    65
 73
     2
 40
0.635
 49
0.0
 49
-0.635
  0
ENDTAB
  0
TABLE
  2
LAYER
 70
     5
  0
LAYER
  2
0
 70
     0
 62
     7
  6
CONTINUOUS
  0
LAYER
  2
太線
 70
     0
 62
     7
  6
CONTINUOUS
  0
LAYER
  2
中太線
 70
     0
 62
     7
  6
CONTINUOUS
  0
LAYER
  2
細線
 70
     0
 62
     7
  6
CONTINUOUS
  0
LAYER
  2
マゼンダ
 70
     0
 62
     6
  6
CONTINUOUS
  0
ENDTAB
  0
TABLE
  2
STYLE
 70
     1
  0
STYLE
  2
STANDARD
 70
     0
 40
0.0
 41
1.0
 50
0.0
 71
     0
 42
35.0
  3
txt
  4
bigfont
  0
ENDTAB
  0
TABLE
  2
VIEW
 70
     0
  0
ENDTAB
  0
TABLE
  2
UCS
 70
     0
  0
ENDTAB
  0
TABLE
  2
APPID
 70
     1
  0
APPID
  2
ACAD
 70
     0
  0
ENDTAB
  0
TABLE
  2
DIMSTYLE
 70
     5
  0
DIMSTYLE
  2
ISO-25
 70
     0
  3

  4

  5

  6

  7

 40
1.0
 41
2.5
 42
0.625
 43
3.75
 44
1.25
 45
0.0
 46
0.0
 47
0.0
 48
0.0
140
2.5
141
2.5
142
0.0
143
0.0393700787
144
1.0
145
0.0
146
1.0
147
0.625
 71
     0
 72
     0
 73
     0
 74
     0
 75
     0
 76
     0
 77
     1
 78
     8
170
     0
171
     3
172
     1
173
     0
174
     0
175
     0
176
     0
177
     0
178
     0
  0
DIMSTYLE
  2
SLDDIMSTYLE0
 70
     0
  3

  4

  5

  6
OPEN30
  7
OPEN30
 40
1.0
 41
30.0
 42
0.0625
 43
0.38
 44
0.0
 45
0.000000001
 46
0.0
 47
0.0
 48
0.0
140
35.0
141
0.09
142
0.0
143
25.4
144
1.0
145
0.0
146
1.0
147
8.75
 71
     0
 72
     0
 73
     0
 74
     0
 75
     0
 76
     0
 77
     3
 78
    12
170
     0
171
     2
172
     1
173
     1
174
     0
175
     0
176
     0
177
     0
178
     0
  0
DIMSTYLE
  2
SLDDIMSTYLE1
 70
     0
  3

  4

  5

  6
OPEN30
  7
OPEN30
 40
1.0
 41
30.0
 42
0.0625
 43
0.38
 44
0.0
 45
0.000000001
 46
0.0
 47
0.0
 48
0.0
140
35.0
141
0.09
142
0.0
143
25.4
144
1.0
145
0.0
146
1.0
147
8.75
 71
     0
 72
     0
 73
     0
 74
     0
 75
     0
 76
     0
 77
     3
 78
    12
170
     0
171
     2
172
     0
173
     1
174
     0
175
     0
176
     0
177
     0
178
     0
  0
DIMSTYLE
  2
SLDDIMSTYLE2
 70
     0
  3

  4

  5

  6
NONE
  7
OPEN30
 40
1.0
 41
30.0
 42
0.0625
 43
0.38
 44
0.0
 45
0.000000001
 46
0.0
 47
0.0
 48
0.0
140
35.0
141
0.0
142
0.0
143
25.4
144
1.0
145
0.0
146
1.0
147
8.75
 71
     0
 72
     0
 73
     0
 74
     0
 75
     0
 76
     0
 77
     3
 78
    12
170
     0
171
     2
172
     1
173
     1
174
     0
175
     0
176
     0
177
     0
178
     0
  0
DIMSTYLE
  2
SLDDIMSTYLE3
 70
     0
  3

  4

  5

  6
NONE
  7
OPEN30
 40
1.0
 41
30.0
 42
0.0625
 43
0.38
 44
0.0
 45
0.000000001
 46
0.0
 47
0.0
 48
0.0
140
35.0
141
0.0
142
0.0
143
25.4
144
1.0
145
0.0
146
1.0
147
8.75
 71
     0
 72
     0
 73
     0
 74
     0
 75
     0
 76
     0
 77
     3
 78
    12
170
     0
171
     2
172
     1
173
     1
174
     0
175
     0
176
     0
177
     0
178
     0
  0
ENDTAB
  0
ENDSEC
  0
SECTION
  2
BLOCKS
  0
BLOCK
  8
0
  2
$MODEL_SPACE
 70
     0
 10
0.0
 20
0.0
 30
0.0
  3
$MODEL_SPACE
  1

  0
ENDBLK
  5
21
  8
0
  0
BLOCK
 67
     1
  8
0
  2
$PAPER_SPACE
 70
     0
 10
0.0
 20
0.0
 30
0.0
  3
$PAPER_SPACE
  1

  0
ENDBLK
  5
1D
 67
     1
  8
0
  0
BLOCK
  8
0
  2
SW_NOTE_0
 70
     0
 10
0.0
 20
0.0
 30
0.0
  3
SW_NOTE_0
  1

  0
TEXT
  5
8D
  8
細線
 62
     0
 10
0.0
 20
12.3641021672
 30
0.0
 40
35.0
  1
尺
 41
0.7
 11
0.0
 21
0.0
 31
0.0
 73
     1
  0
TEXT
  5
8E
  8
細線
 62
     0
 10
0.0
 20
-37.6358967152
 30
0.0
 40
35.0
  1
度
 41
0.7
 11
0.0
 21
-49.9999988824
 31
0.0
 73
     1
  0
ENDBLK
  5
8C
  8
0
  0
BLOCK
  8
0
  2
SW_NOTE_1
 70
     0
 10
0.0
 20
0.0
 30
0.0
  3
SW_NOTE_1
  1

  0
TEXT
  5
93
  8
細線
 62
     0
 10
0.0
 20
12.3641021672
 30
0.0
 40
35.0
  1
製
 41
0.7
 11
0.0
 21
0.0
 31
0.0
 73
     1
  0
TEXT
  5
94
  8
細線
 62
     0
 10
0.0
 20
-37.6358967152
 30
0.0
 40
35.0
  1
図
 41
0.7
 11
0.0
 21
-49.9999988824
 31
0.0
 73
     1
  0
ENDBLK
  5
92
  8
0
  0
BLOCK
  8
0
  2
SW_NOTE_2
 70
     0
 10
0.0
 20
0.0
 30
0.0
  3
SW_NOTE_2
  1

  0
TEXT
  5
99
  8
細線
 62
     0
 10
0.0
 20
12.3641021672
 30
0.0
 40
35.0
  1
検
 41
0.7
 11
0.0
 21
0.0
 31
0.0
 73
     1
  0
TEXT
  5
9A
  8
細線
 62
     0
 10
0.0
 20
-37.6358967152
 30
0.0
 40
35.0
  1
図
 41
0.7
 11
0.0
 21
-49.9999988824
 31
0.0
 73
     1
  0
ENDBLK
  5
98
  8
0
  0
BLOCK
  8
0
  2
SW_NOTE_3
 70
     0
 10
0.0
 20
0.0
 30
0.0
  3
SW_NOTE_3
  1

  0
TEXT
  5
9F
  8
細線
 62
     0
 10
0.0
 20
12.3641021672
 30
0.0
 40
35.0
  1
単
 41
0.7
 11
0.0
 21
0.0
 31
0.0
 73
     1
  0
TEXT
  5
A0
  8
細線
 62
     0
 10
0.0
 20
-37.6358967152
 30
0.0
 40
35.0
  1
位
 41
0.7
 11
0.0
 21
-49.9999988824
 31
0.0
 73
     1
  0
ENDBLK
  5
9E
  8
0
  0
BLOCK
  8
0
  2
SW_NOTE_4
 70
     0
 10
0.0
 20
0.0
 30
0.0
  3
SW_NOTE_4
  1

  0
TEXT
  5
A5
  8
細線
 62
     0
 10
0.0
 20
12.3641021672
 30
0.0
 40
35.0
  1
日
 41
0.7
 11
0.0
 21
0.0
 31
0.0
 73
     1
  0
TEXT
  5
A6
  8
細線
 62
     0
 10
0.0
 20
-37.6358967152
 30
0.0
 40
35.0
  1
付
 41
0.7
 11
0.0
 21
-49.9999988824
 31
0.0
 73
     1
  0
ENDBLK
  5
A4
  8
0
  0
BLOCK
  8
0
  2
SW_NOTE_5
 70
     0
 10
0.0
 20
0.0
 30
0.0
  3
SW_NOTE_5
  1

  0
LINE
  5
B0
  8
細線
 62
     0
 10
-0.3419331796
 20
0.5751009862
 30
0.0
 11
-0.3419331796
 21
63.8964868882
 31
0.0
  0
LINE
  5
B1
  8
細線
 62
     0
 10
-0.3419331796
 20
63.8964868882
 30
0.0
 11
189.6222245265
 21
63.8964868882
 31
0.0
  0
LINE
  5
B2
  8
細線
 62
     0
 10
189.6222245265
 20
63.8964868882
 30
0.0
 11
189.6222245265
 21
0.5751009862
 31
0.0
  0
LINE
  5
B3
  8
細線
 62
     0
 10
189.6222245265
 20
0.5751009862
 30
0.0
 11
-0.3419331796
 21
0.5751009862
 31
0.0
  0
TEXT
  5
B4
  8
細線
 62
     0
 10
0.0
 20
16.8240104489
 30
0.0
 40
47.625
  1
承認図
 41
0.7
 11
0.0
 21
0.0
 31
0.0
 73
     1
  0
ENDBLK
  5
AF
  8
0
  0
BLOCK
  8
0
  2
SW_NOTE_6
 70
     0
 10
0.0
 20
0.0
 30
0.0
  3
SW_NOTE_6
  1

  0
TEXT
  5
B9
  8
細線
 62
     0
 10
0.0
 20
12.3641021672
 30
0.0
 40
35.0
  1
図
 41
0.7
 11
0.0
 21
0.0
 31
0.0
 73
     1
  0
TEXT
  5
BA
  8
細線
 62
     0
 10
0.0
 20
-37.6358967152
 30
0.0
 40
35.0
  1
名
 41
0.7
 11
0.0
 21
-49.9999988824
 31
0.0
 73
     1
  0
ENDBLK
  5
B8
  8
0
  0
BLOCK
  8
0
  2
SW_NOTE_7
 70
     0
 10
0.0
 20
0.0
 30
0.0
  3
SW_NOTE_7
  1

  0
TEXT
  5
BF
  8
細線
 62
     0
 10
0.0
 20
11.2160069659
 30
0.0
 40
31.75
  1
表面
 41
0.7
 11
0.0
 21
0.0
 31
0.0
 73
     1
  0
TEXT
  5
C0
  8
細線
 62
     0
 10
0.0
 20
-31.1173258558
 30
0.0
 40
31.75
  1
処理
 41
0.7
 11
0.0
 21
-42.3333328217
 31
0.0
 73
     1
  0
ENDBLK
  5
BE
  8
0
  0
BLOCK
  8
0
  2
SW_NOTE_8
 70
     0
 10
0.0
 20
0.0
 30
0.0
  3
SW_NOTE_8
  1

  0
TEXT
  5
C5
  8
細線
 62
     0
 10
0.0
 20
12.3641021672
 30
0.0
 40
35.0
  1
図
 41
0.7
 11
0.0
 21
0.0
 31
0.0
 73
     1
  0
TEXT
  5
C6
  8
細線
 62
     0
 10
0.0
 20
-37.6358967152
 30
0.0
 40
35.0
  1
番
 41
0.7
 11
0.0
 21
-49.9999988824
 31
0.0
 73
     1
  0
ENDBLK
  5
C4
  8
0
  0
BLOCK
  8
0
  2
SW_TABLEANNOTATION_0
 70
     0
 10
0.0
 20
0.0
 30
0.0
  3
SW_TABLEANNOTATION_0
  1

  0
LINE
  5
CF
  8
細線
 62
     0
 10
0.0
 20
0.0
 30
0.0
 11
0.0
 21
-220.0
 31
0.0
  0
LINE
  5
D0
  8
細線
 62
     0
 10
0.0
 20
-220.0
 30
0.0
 11
906.8853260662
 21
-220.0
 31
0.0
  0
LINE
  5
D1
  8
細線
 62
     0
 10
906.8853260662
 20
-220.0
 30
0.0
 11
906.8853260662
 21
0.0
 31
0.0
  0
LINE
  5
D2
  8
細線
 62
     0
 10
906.8853260662
 20
0.0
 30
0.0
 11
0.0
 21
0.0
 31
0.0
  0
LINE
  5
D3
  8
細線
 62
     0
 10
180.7086958798
 20
-165.0
 30
0.0
 11
180.7086958798
 21
-220.0
 31
0.0
  0
LINE
  5
D4
  8
細線
 62
     0
 10
512.8894528409
 20
-165.0
 30
0.0
 11
512.8894528409
 21
-220.0
 31
0.0
  0
LINE
  5
D5
  8
細線
 62
     0
 10
626.3171470795
 20
-165.0
 30
0.0
 11
626.3171470795
 21
-220.0
 31
0.0
  0
LINE
  5
D6
  8
細線
 62
     0
 10
793.4576318276
 20
-165.0
 30
0.0
 11
793.4576318276
 21
-220.0
 31
0.0
  0
LINE
  5
D7
  8
細線
 62
     0
 10
180.7086958798
 20
0.0
 30
0.0
 11
180.7086958798
 21
-165.0
 31
0.0
  0
LINE
  5
D8
  8
細線
 62
     0
 10
512.8894528409
 20
0.0
 30
0.0
 11
512.8894528409
 21
-165.0
 31
0.0
  0
LINE
  5
D9
  8
細線
 62
     0
 10
626.3171470795
 20
0.0
 30
0.0
 11
626.3171470795
 21
-165.0
 31
0.0
  0
LINE
  5
DA
  8
細線
 62
     0
 10
793.4576318276
 20
0.0
 30
0.0
 11
793.4576318276
 21
-165.0
 31
0.0
  0
LINE
  5
DB
  8
細線
 62
     0
 10
0.0
 20
-55.0
 30
0.0
 11
906.8853260662
 21
-55.0
 31
0.0
  0
LINE
  5
DC
  8
細線
 62
     0
 10
0.0
 20
-110.0
 30
0.0
 11
906.8853260662
 21
-110.0
 31
0.0
  0
LINE
  5
DD
  8
細線
 62
     0
 10
0.0
 20
-165.0
 30
0.0
 11
906.8853260662
 21
-165.0
 31
0.0
  0
TEXT
  5
DE
  8
細線
 62
     0
 10
8.8821280406
 20
-203.0587938456
 30
0.0
 40
35.0
  1
部品番号
 41
0.7
 11
8.8821280406
 21
-215.4228960128
 31
0.0
 73
     1
  0
TEXT
  5
DF
  8
細線
 62
     0
 10
306.0629644107
 20
-203.0587938456
 30
0.0
 40
35.0
  1
品名
 41
0.7
 11
306.0629644107
 21
-215.4228960128
 31
0.0
 73
     1
  0
TEXT
  5
E0
  8
細線
 62
     0
 10
528.8671900106
 20
-203.0587938456
 30
0.0
 40
35.0
  1
個数
 41
0.7
 11
528.8671900106
 21
-215.4228960128
 31
0.0
 73
     1
  0
TEXT
  5
E1
  8
細線
 62
     0
 10
669.1512795039
 20
-203.0587938456
 30
0.0
 40
35.0
  1
材質
 41
0.7
 11
669.1512795039
 21
-215.4228960128
 31
0.0
 73
     1
  0
TEXT
  5
E2
  8
細線
 62
     0
 10
809.4353689972
 20
-203.0587938456
 30
0.0
 40
35.0
  1
板厚
 41
0.7
 11
809.4353689972
 21
-215.4228960128
 31
0.0
 73
     1
  0
TEXT
  5
E3
  8
細線
 62
     0
 10
80.1703204525
 20
-38.0587938456
 30
0.0
 40
35.0
  1
3
 41
0.7
 11
80.1703204525
 21
-50.4228960128
 31
0.0
 73
     1
  0
TEXT
  5
E4
  8
細線
 62
     0
 10
306.0629644107
 20
-38.0587938456
 30
0.0
 40
35.0
  1
横桟
 41
0.7
 11
306.0629644107
 21
-50.4228960128
 31
0.0
 73
     1
  0
TEXT
  5
E5
  8
細線
 62
     0
 10
559.4192724728
 20
-38.0587938456
 30
0.0
 40
35.0
  1
2
 41
0.7
 11
559.4192724728
 21
-50.4228960128
 31
0.0
 73
     1
  0
TEXT
  5
E6
  8
細線
 62
     0
 10
658.9672531806
 20
-38.0587938456
 30
0.0
 40
35.0
  1
SGMCC
 41
0.7
 11
658.9672531806
 21
-50.4228960128
 31
0.0
 73
     1
  0
TEXT
  5
E7
  8
細線
 62
     0
 10
819.6193953205
 20
-38.0587938456
 30
0.0
 40
35.0
  1
1.2
 41
0.7
 11
819.6193953205
 21
-50.4228960128
 31
0.0
 73
     1
  0
TEXT
  5
E8
  8
細線
 62
     0
 10
80.1703204525
 20
-93.0587938456
 30
0.0
 40
35.0
  1
2
 41
0.7
 11
80.1703204525
 21
-105.4228960128
 31
0.0
 73
     1
  0
TEXT
  5
E9
  8
細線
 62
     0
 10
295.8789380875
 20
-93.0587938456
 30
0.0
 40
35.0
  1
側板L
 41
0.7
 11
295.8789380875
 21
-105.4228960128
 31
0.0
 73
     1
  0
TEXT
  5
EA
  8
細線
 62
     0
 10
559.4192724728
 20
-93.0587938456
 30
0.0
 40
35.0
  1
1
 41
0.7
 11
559.4192724728
 21
-105.4228960128
 31
0.0
 73
     1
  0
TEXT
  5
EB
  8
細線
 62
     0
 10
658.9672531806
 20
-93.0587938456
 30
0.0
 40
35.0
  1
SGMCC
 41
0.7
 11
658.9672531806
 21
-105.4228960128
 31
0.0
 73
     1
  0
TEXT
  5
EC
  8
細線
 62
     0
 10
819.6193953205
 20
-93.0587938456
 30
0.0
 40
35.0
  1
1.2
 41
0.7
 11
819.6193953205
 21
-105.4228960128
 31
0.0
 73
     1
  0
TEXT
  5
ED
  8
細線
 62
     0
 10
80.1703204525
 20
-148.0587938456
 30
0.0
 40
35.0
  1
1
 41
0.7
 11
80.1703204525
 21
-160.4228960128
 31
0.0
 73
     1
  0
TEXT
  5
EE
  8
細線
 62
     0
 10
295.8789380875
 20
-148.0587938456
 30
0.0
 40
35.0
  1
側板R
 41
0.7
 11
295.8789380875
 21
-160.4228960128
 31
0.0
 73
     1
  0
TEXT
  5
EF
  8
細線
 62
     0
 10
559.4192724728
 20
-148.0587938456
 30
0.0
 40
35.0
  1
1
 41
0.7
 11
559.4192724728
 21
-160.4228960128
 31
0.0
 73
     1
  0
TEXT
  5
F0
  8
細線
 62
     0
 10
658.9672531806
 20
-148.0587938456
 30
0.0
 40
35.0
  1
SGMCC
 41
0.7
 11
658.9672531806
 21
-160.4228960128
 31
0.0
 73
     1
  0
TEXT
  5
F1
  8
細線
 62
     0
 10
819.6193953205
 20
-148.0587938456
 30
0.0
 40
35.0
  1
1.2
 41
0.7
 11
819.6193953205
 21
-160.4228960128
 31
0.0
 73
     1
  0
ENDBLK
  5
CE
  8
0
  0
BLOCK
  8
0
  2
SW_TABLEANNOTATION_1
 70
     0
 10
0.0
 20
0.0
 30
0.0
  3
SW_TABLEANNOTATION_1
  1

  0
LINE
  5
F6
  8
細線
 62
     0
 10
0.0
 20
0.0
 30
0.0
 11
0.0
 21
-275.0
 31
0.0
  0
LINE
  5
F7
  8
細線
 62
     0
 10
0.0
 20
-275.0
 30
0.0
 11
857.8899640016
 21
-275.0
 31
0.0
  0
LINE
  5
F8
  8
細線
 62
     0
 10
857.8899640016
 20
-275.0
 30
0.0
 11
857.8899640016
 21
0.0
 31
0.0
  0
LINE
  5
F9
  8
細線
 62
     0
 10
857.8899640016
 20
0.0
 30
0.0
 11
0.0
 21
0.0
 31
0.0
  0
LINE
  5
FA
  8
細線
 62
     0
 10
356.8569788098
 20
0.0
 30
0.0
 11
356.8569788098
 21
-275.0
 31
0.0
  0
LINE
  5
FB
  8
細線
 62
     0
 10
734.8069630662
 20
0.0
 30
0.0
 11
734.8069630662
 21
-275.0
 31
0.0
  0
LINE
  5
FC
  8
細線
 62
     0
 10
0.0
 20
-55.0
 30
0.0
 11
857.8899640016
 21
-55.0
 31
0.0
  0
LINE
  5
FD
  8
細線
 62
     0
 10
0.0
 20
-110.0
 30
0.0
 11
857.8899640016
 21
-110.0
 31
0.0
  0
LINE
  5
FE
  8
細線
 62
     0
 10
0.0
 20
-165.0
 30
0.0
 11
857.8899640016
 21
-165.0
 31
0.0
  0
LINE
  5
FF
  8
細線
 62
     0
 10
0.0
 20
-220.0
 30
0.0
 11
857.8899640016
 21
-220.0
 31
0.0
  0
TEXT
  5
100
  8
細線
 62
     0
 10
117.3243221521
 20
-38.0587938456
 30
0.0
 40
35.0
  1
サイズ
 41
0.7
 11
117.3243221521
 21
-50.4228960128
 31
0.0
 73
     1
  0
TEXT
  5
101
  8
細線
 62
     0
 10
505.0958609884
 20
-38.0587938456
 30
0.0
 40
35.0
  1
品名
 41
0.7
 11
505.0958609884
 21
-50.4228960128
 31
0.0
 73
     1
  0
TEXT
  5
102
  8
細線
 62
     0
 10
755.6123535842
 20
-38.0587938456
 30
0.0
 40
35.0
  1
個数
 41
0.7
 11
755.6123535842
 21
-50.4228960128
 31
0.0
 73
     1
  0
TEXT
  5
103
  8
細線
 62
     0
 10
66.404176566
 20
-93.0587938456
 30
0.0
 40
35.0
  1
M6×16 ﾀﾞｸﾛ
 41
0.7
 11
66.404176566
 21
-105.4228960128
 31
0.0
 73
     1
  0
TEXT
  5
104
  8
細線
 62
     0
 10
423.6236457457
 20
-93.0587938456
 30
0.0
 40
35.0
  1
座付きボルト
 41
0.7
 11
423.6236457457
 21
-105.4228960128
 31
0.0
 73
     1
  0
TEXT
  5
105
  8
細線
 62
     0
 10
786.1644360465
 20
-93.0587938456
 30
0.0
 40
35.0
  1
8
 41
0.7
 11
786.1644360465
 21
-105.4228960128
 31
0.0
 73
     1
  0
TEXT
  5
106
  8
細線
 62
     0
 10
66.404176566
 20
-148.0587938456
 30
0.0
 40
35.0
  1
M6 ｽﾄﾛﾝｼﾞﾝｸ
 41
0.7
 11
66.404176566
 21
-160.4228960128
 31
0.0
 73
     1
  0
TEXT
  5
107
  8
細線
 62
     0
 10
423.6236457457
 20
-148.0587938456
 30
0.0
 40
35.0
  1
座付きナット
 41
0.7
 11
423.6236457457
 21
-160.4228960128
 31
0.0
 73
     1
  0
TEXT
  5
108
  8
細線
 62
     0
 10
786.1644360465
 20
-148.0587938456
 30
0.0
 40
35.0
  1
8
 41
0.7
 11
786.1644360465
 21
-160.4228960128
 31
0.0
 73
     1
  0
TEXT
  5
109
  8
細線
 62
     0
 10
46.0361146063
 20
-203.0587938456
 30
0.0
 40
35.0
  1
M6用（ｱｲﾎﾞﾘｰ)
 41
0.7
 11
46.0361146063
 21
-215.4228960128
 31
0.0
 73
     1
  0
TEXT
  5
10A
  8
細線
 62
     0
 10
403.2555930992
 20
-203.0587938456
 30
0.0
 40
35.0
  1
ボルトキャップ
 41
0.7
 11
403.2555930992
 21
-215.4228960128
 31
0.0
 73
     1
  0
TEXT
  5
10B
  8
細線
 62
     0
 10
786.1644360465
 20
-203.0587938456
 30
0.0
 40
35.0
  1
8
 41
0.7
 11
786.1644360465
 21
-215.4228960128
 31
0.0
 73
     1
  0
TEXT
  5
10C
  8
細線
 62
     0
 10
5.3
 20
-258.0587938456
 30
0.0
 40
35.0
  1
C-1060D(ﾄﾞﾌﾞﾒｯｷ）
 41
0.7
 11
5.3
 21
-270.4228960128
 31
0.0
 73
     1
  0
TEXT
  5
10D
  8
細線
 62
     0
 10
403.2555930992
 20
-258.0587938456
 30
0.0
 40
35.0
  1
オールアンカー
 41
0.7
 11
403.2555930992
 21
-270.4228960128
 31
0.0
 73
     1
  0
TEXT
  5
10E
  8
細線
 62
     0
 10
786.1644360465
 20
-258.0587938456
 30
0.0
 40
35.0
  1
4
 41
0.7
 11
786.1644360465
 21
-270.4228960128
 31
0.0
 73
     1
  0
ENDBLK
  5
F5
  8
0
  0
BLOCK
  8
0
  2
SW_TABLEANNOTATION_2
 70
     0
 10
0.0
 20
0.0
 30
0.0
  3
SW_TABLEANNOTATION_2
  1

  0
LINE
  5
113
  8
細線
 62
     0
 10
0.0
 20
0.0
 30
0.0
 11
0.0
 21
-90.0
 31
0.0
  0
LINE
  5
114
  8
細線
 62
     0
 10
0.0
 20
-90.0
 30
0.0
 11
1102.7332439645
 21
-90.0
 31
0.0
  0
LINE
  5
115
  8
細線
 62
     0
 10
1102.7332439645
 20
-90.0
 30
0.0
 11
1102.7332439645
 21
0.0
 31
0.0
  0
LINE
  5
116
  8
細線
 62
     0
 10
1102.7332439645
 20
0.0
 30
0.0
 11
0.0
 21
0.0
 31
0.0
  0
LINE
  5
117
  8
細線
 62
     0
 10
118.7771439908
 20
-45.0
 30
0.0
 11
118.7771439908
 21
-90.0
 31
0.0
  0
LINE
  5
118
  8
細線
 62
     0
 10
918.7771439908
 20
-45.0
 30
0.0
 11
918.7771439908
 21
-90.0
 31
0.0
  0
LINE
  5
119
  8
細線
 62
     0
 10
118.7771439908
 20
0.0
 30
0.0
 11
118.7771439908
 21
-45.0
 31
0.0
  0
LINE
  5
11A
  8
細線
 62
     0
 10
918.7771439908
 20
0.0
 30
0.0
 11
918.7771439908
 21
-45.0
 31
0.0
  0
LINE
  5
11B
  8
細線
 62
     0
 10
0.0
 20
-45.0
 30
0.0
 11
1102.7332439645
 21
-45.0
 31
0.0
  0
TEXT
  5
11C
  8
細線
 62
     0
 10
31.1663501142
 20
-75.8902254493
 30
0.0
 40
21.1666666667
  1
番号
 41
0.7
 11
31.1663501142
 21
-83.3675634266
 31
0.0
 73
     1
  0
TEXT
  5
11D
  8
細線
 62
     0
 10
462.3327002285
 20
-75.8902254493
 30
0.0
 40
21.1666666667
  1
改訂内容
 41
0.7
 11
462.3327002285
 21
-83.3675634266
 31
0.0
 73
     1
  0
TEXT
  5
11E
  8
細線
 62
     0
 10
982.5329720965
 20
-75.8902254493
 30
0.0
 40
21.1666666667
  1
日付
 41
0.7
 11
982.5329720965
 21
-83.3675634266
 31
0.0
 73
     1
  0
TEXT
  5
11F
  8
細線
 62
     0
 10
52.3330165251
 20
-30.8902254493
 30
0.0
 40
21.1666666667
  1
1
 41
0.7
 11
52.3330165251
 21
-38.3675634266
 31
0.0
 73
     1
  0
TEXT
  5
120
  8
細線
 62
     0
 10
384.7215947119
 20
-30.8902254493
 30
0.0
 40
21.1666666667
  1
材質をJIS表記に変更
 41
0.7
 11
384.7215947119
 21
-38.3675634266
 31
0.0
 73
     1
  0
TEXT
  5
121
  8
細線
 62
     0
 10
940.1996392748
 20
-30.8902254493
 30
0.0
 40
21.1666666667
  1
2021/01/07
 41
0.7
 11
940.1996392748
 21
-38.3675634266
 31
0.0
 73
     1
  0
ENDBLK
  5
112
  8
0
  0
BLOCK
  8
0
  2
_OPEN30
 70
     0
 10
0.0
 20
0.0
 30
0.0
  3
_OPEN30
  1

  0
LINE
  5
1BC
  8
0
  6
BYBLOCK
 62
     0
 10
-1.0
 20
0.267949
 30
0.0
 11
0.0
 21
0.0
 31
0.0
  0
LINE
  5
1BD
  8
0
  6
BYBLOCK
 62
     0
 10
0.0
 20
0.0
 30
0.0
 11
-1.0
 21
-0.267949
 31
0.0
  0
LINE
  5
1BE
  8
0
  6
BYBLOCK
 62
     0
 10
0.0
 20
0.0
 30
0.0
 11
-1.0
 21
0.0
 31
0.0
  0
ENDBLK
  5
1BB
  8
0
  0
BLOCK
  8
0
  2
_D
 70
     0
 10
0.0
 20
0.0
 30
0.0
  3
_D
  1

  0
INSERT
  5
1C2
  8
細線
  2
_OPEN30
 10
1112.6423495339
 20
1469.2331863522
 30
0.0
 41
30.0
 42
30.0
 50
0.0
  0
INSERT
  5
1C3
  8
細線
  2
_OPEN30
 10
1292.6423495339
 20
1469.2331863522
 30
0.0
 41
30.0
 42
30.0
 50
180.0
  0
LINE
  5
1C4
  8
細線
 10
1112.6423495339
 20
1640.9013522591
 30
0.0
 11
1112.6423495339
 21
1459.2331863522
 31
0.0
  0
LINE
  5
1C5
  8
細線
 10
1292.6423495339
 20
1640.9013522591
 30
0.0
 11
1292.6423495339
 21
1459.2331863522
 31
0.0
  0
LINE
  5
1C6
  8
細線
 10
1112.6423495339
 20
1469.2331863522
 30
0.0
 11
1052.6423495339
 21
1469.2331863522
 31
0.0
  0
LINE
  5
1C7
  8
細線
 10
1112.6423495339
 20
1469.2331863522
 30
0.0
 11
1292.6423495339
 21
1469.2331863522
 31
0.0
  0
LINE
  5
1C8
  8
細線
 10
1292.6423495339
 20
1469.2331863522
 30
0.0
 11
1352.6423495339
 21
1469.2331863522
 31
0.0
  0
TEXT
  5
1C9
  8
細線
 10
1161.7041363955
 20
1481.5972861911
 30
0.0
 40
35.0
  1
180
 41
0.7
 11
1161.7041363955
 21
1469.2331840239
 31
0.0
 73
     1
  0
ENDBLK
  5
1C1
  8
0
  0
BLOCK
  8
0
  2
_D_1
 70
     0
 10
0.0
 20
0.0
 30
0.0
  3
_D_1
  1

  0
INSERT
  5
1CE
  8
細線
  2
_OPEN30
 10
872.6423495339
 20
1469.2331863522
 30
0.0
 41
30.0
 42
30.0
 50
0.0
  0
INSERT
  5
1CF
  8
細線
  2
_OPEN30
 10
1112.6423495339
 20
1469.2331863522
 30
0.0
 41
30.0
 42
30.0
 50
180.0
  0
LINE
  5
1D0
  8
細線
 10
872.6423495339
 20
1640.9013522591
 30
0.0
 11
872.6423495339
 21
1459.2331863522
 31
0.0
  0
LINE
  5
1D1
  8
細線
 10
1112.6423495339
 20
1640.9013522591
 30
0.0
 11
1112.6423495339
 21
1459.2331863522
 31
0.0
  0
LINE
  5
1D2
  8
細線
 10
872.6423495339
 20
1469.2331863522
 30
0.0
 11
812.6423495339
 21
1469.2331863522
 31
0.0
  0
LINE
  5
1D3
  8
細線
 10
872.6423495339
 20
1469.2331863522
 30
0.0
 11
1112.6423495339
 21
1469.2331863522
 31
0.0
  0
LINE
  5
1D4
  8
細線
 10
1112.6423495339
 20
1469.2331863522
 30
0.0
 11
1172.6423495339
 21
1469.2331863522
 31
0.0
  0
TEXT
  5
1D5
  8
細線
 10
897.4959073804
 20
1481.5972861911
 30
0.0
 40
35.0
  1
4×60=
 41
0.7
 11
897.4959073804
 21
1469.2331840239
 31
0.0
 73
     1
  0
TEXT
  5
1D6
  8
細線
 10
1019.7042418859
 20
1481.5972861911
 30
0.0
 40
35.0
  1
240
 41
0.7
 11
1019.7042418859
 21
1469.2331840239
 31
0.0
 73
     1
  0
ENDBLK
  5
1CD
  8
0
  0
BLOCK
  8
0
  2
_D_2
 70
     0
 10
0.0
 20
0.0
 30
0.0
  3
_D_2
  1

  0
INSERT
  5
1DC
  8
細線
  2
_OPEN30
 10
812.5423495339
 20
2299.2052401539
 30
115.9984414163
 41
30.0
 42
30.0
 50
180.0
  0
INSERT
  5
1DD
  8
細線
  2
_OPEN30
 10
1592.7423495339
 20
2299.2052401539
 30
115.9984414163
 41
30.0
 42
30.0
 50
0.0
  0
LINE
  5
1DE
  8
細線
 10
812.5423495339
 20
2208.1513522591
 30
0.0
 11
812.5423495339
 21
2309.2052401539
 31
0.0
  0
LINE
  5
1DF
  8
細線
 10
1592.7423495339
 20
2208.1513522591
 30
0.0
 11
1592.7423495339
 21
2309.2052401539
 31
0.0
  0
LINE
  5
1E0
  8
細線
 10
812.5423495339
 20
2299.2052401539
 30
0.0
 11
1592.7423495339
 21
2299.2052401539
 31
0.0
  0
TEXT
  5
1E1
  8
細線
 10
1132.5954639368
 20
2311.5693399928
 30
115.9984414163
 40
35.0
  1
780.2
 41
0.7
 11
1132.5954639368
 21
2299.2052378256
 31
115.9984414163
 73
     1
  0
ENDBLK
  5
1DB
  8
0
  0
BLOCK
  8
0
  2
_D_3
 70
     0
 10
0.0
 20
0.0
 30
0.0
  3
_D_3
  1

  0
INSERT
  5
1E6
  8
細線
  2
_OPEN30
 10
1736.5948777117
 20
1095.1513522591
 30
115.9984414163
 41
30.0
 42
30.0
 50
270.0
  0
INSERT
  5
1E7
  8
細線
  2
_OPEN30
 10
1736.5948777117
 20
1656.9013522591
 30
115.9984414163
 41
30.0
 42
30.0
 50
90.0
  0
LINE
  5
1E8
  8
細線
 10
1599.8423495339
 20
1095.1513522591
 30
0.0
 11
1746.5948777117
 21
1095.1513522591
 31
0.0
  0
LINE
  5
1E9
  8
細線
 10
1556.6423495339
 20
1656.9013522591
 30
0.0
 11
1746.5948777117
 21
1656.9013522591
 31
0.0
  0
LINE
  5
1EA
  8
細線
 10
1736.5948777117
 20
1095.1513522591
 30
0.0
 11
1736.5948777117
 21
1656.9013522591
 31
0.0
  0
TEXT
  5
1EB
  8
細線
 10
1724.2307778728
 20
1329.450170402
 30
115.9984414163
 40
35.0
  1
561.8
 50
90.0
 41
0.7
 11
1736.59488004
 21
1329.450170402
 31
115.9984414163
 73
     1
  0
ENDBLK
  5
1E5
  8
0
  0
BLOCK
  8
0
  2
_D_4
 70
     0
 10
0.0
 20
0.0
 30
0.0
  3
_D_4
  1

  0
INSERT
  5
1F0
  8
細線
  2
_OPEN30
 10
1734.3948777117
 20
1656.9013522591
 30
115.9984414163
 41
30.0
 42
30.0
 50
270.0
  0
INSERT
  5
1F1
  8
細線
  2
_OPEN30
 10
1734.3948777117
 20
2106.9013522591
 30
115.9984414163
 41
30.0
 42
30.0
 50
90.0
  0
LINE
  5
1F2
  8
細線
 10
1556.6423495339
 20
1656.9013522591
 30
0.0
 11
1744.3948777117
 21
1656.9013522591
 31
0.0
  0
LINE
  5
1F3
  8
細線
 10
1556.6423495339
 20
2106.9013522591
 30
0.0
 11
1744.3948777117
 21
2106.9013522591
 31
0.0
  0
LINE
  5
1F4
  8
細線
 10
1734.3948777117
 20
1656.9013522591
 30
0.0
 11
1734.3948777117
 21
2106.9013522591
 31
0.0
  0
TEXT
  5
1F5
  8
細線
 10
1722.0307778728
 20
1846.3213173741
 30
115.9984414163
 40
35.0
  1
450
 50
90.0
 41
0.7
 11
1734.39488004
 21
1846.3213173741
 31
115.9984414163
 73
     1
  0
ENDBLK
  5
1EF
  8
0
  0
BLOCK
  8
0
  2
_NONE
 70
     0
 10
0.0
 20
0.0
 30
0.0
  3
_NONE
  1

  0
ENDBLK
  5
1FA
  8
0
  0
BLOCK
  8
0
  2
_D_5
 70
     0
 10
0.0
 20
0.0
 30
0.0
  3
_D_5
  1

  0
INSERT
  5
1FE
  8
細線
  2
_OPEN30
 10
853.4461971112
 20
1659.9013522591
 30
115.9984414163
 41
30.0
 42
30.0
 50
330.0
  0
LINE
  5
1FF
  8
細線
 10
853.4461971112
 20
1659.9013522591
 30
0.0
 11
621.4965577035
 21
1793.8175390095
 31
0.0
  0
LINE
  5
200
  8
細線
 10
853.4461971112
 20
1659.9013522591
 30
0.0
 11
863.8385019566
 21
1653.9013522591
 31
0.0
  0
TEXT
  5
201
  8
細線
 10
627.5726291457
 20
1804.3416034578
 30
115.9984414163
 40
35.0
  1
%%c
 50
-30.0
 41
0.7
 11
621.3905780621
 21
1793.6339768861
 31
115.9984414163
 73
     1
  0
TEXT
  5
202
  8
細線
 10
661.087210515
 20
1784.9919508825
 30
115.9984414163
 40
35.0
  1
12
 50
-30.0
 41
0.7
 11
654.9051594314
 21
1774.2843243107
 31
115.9984414163
 73
     1
  0
TEXT
  5
203
  8
細線
 10
696.3657185991
 20
1764.6238947435
 30
115.9984414163
 40
35.0
  1
×40
 50
-30.0
 41
0.7
 11
690.1836675155
 21
1753.9162681718
 31
115.9984414163
 73
     1
  0
ENDBLK
  5
1FD
  8
0
  0
BLOCK
  8
0
  2
_D_6
 70
     0
 10
0.0
 20
0.0
 30
0.0
  3
_D_6
  1

  0
INSERT
  5
237
  8
細線
  2
_OPEN30
 10
2153.4887583129
 20
992.9513522591
 30
0.0
 41
30.0
 42
30.0
 50
180.0
  0
INSERT
  5
238
  8
細線
  2
_OPEN30
 10
2403.4887583129
 20
992.9513522591
 30
0.0
 41
30.0
 42
30.0
 50
0.0
  0
LINE
  5
239
  8
細線
 10
2153.4887583129
 20
1088.0513522591
 30
0.0
 11
2153.4887583129
 21
982.9513522591
 31
0.0
  0
LINE
  5
23A
  8
細線
 10
2403.4887583129
 20
1085.1513522591
 30
0.0
 11
2403.4887583129
 21
982.9513522591
 31
0.0
  0
LINE
  5
23B
  8
細線
 10
2153.4887583129
 20
992.9513522591
 30
0.0
 11
2403.4887583129
 21
992.9513522591
 31
0.0
  0
TEXT
  5
23C
  8
細線
 10
2256.2023191101
 20
1005.315452098
 30
0.0
 40
35.0
  1
250
 41
0.7
 11
2256.2023191101
 21
992.9513499308
 31
0.0
 73
     1
  0
ENDBLK
  5
236
  8
0
  0
BLOCK
  8
0
  2
_D_7
 70
     0
 10
0.0
 20
0.0
 30
0.0
  3
_D_7
  1

  0
INSERT
  5
241
  8
細線
  2
_OPEN30
 10
2028.2887583129
 20
1095.1513522591
 30
0.0
 41
30.0
 42
30.0
 50
270.0
  0
INSERT
  5
242
  8
細線
  2
_OPEN30
 10
2028.2887583129
 20
2198.1513522591
 30
0.0
 41
30.0
 42
30.0
 50
90.0
  0
LINE
  5
243
  8
細線
 10
2146.3887583129
 20
1095.1513522591
 30
0.0
 11
2018.2887583129
 21
1095.1513522591
 31
0.0
  0
LINE
  5
244
  8
細線
 10
2143.4887583129
 20
2198.1513522591
 30
0.0
 11
2018.2887583129
 21
2198.1513522591
 31
0.0
  0
LINE
  5
245
  8
細線
 10
2028.2887583129
 20
1095.1513522591
 30
0.0
 11
2028.2887583129
 21
2198.1513522591
 31
0.0
  0
TEXT
  5
246
  8
細線
 10
2015.924658474
 20
1583.4740608875
 30
0.0
 40
35.0
  1
1103
 50
90.0
 41
0.7
 11
2028.2887606412
 21
1583.4740608875
 31
0.0
 73
     1
  0
ENDBLK
  5
240
  8
0
  0
BLOCK
  8
0
  2
_D_8
 70
     0
 10
0.0
 20
0.0
 30
0.0
  3
_D_8
  1

  0
INSERT
  5
24B
  8
細線
  2
_OPEN30
 10
2403.4887583129
 20
2299.2051397766
 30
0.0
 41
30.0
 42
30.0
 50
0.0
  0
INSERT
  5
24C
  8
細線
  2
_OPEN30
 10
2130.4887583129
 20
2299.2051397766
 30
0.0
 41
30.0
 42
30.0
 50
180.0
  0
LINE
  5
24D
  8
細線
 10
2403.4887583129
 20
1208.0513522591
 30
0.0
 11
2403.4887583129
 21
2309.2051397766
 31
0.0
  0
LINE
  5
24E
  8
細線
 10
2130.4887583129
 20
2179.6013522591
 30
0.0
 11
2130.4887583129
 21
2309.2051397766
 31
0.0
  0
LINE
  5
24F
  8
細線
 10
2403.4887583129
 20
2299.2051397766
 30
0.0
 11
2130.4887583129
 21
2299.2051397766
 31
0.0
  0
TEXT
  5
250
  8
細線
 10
2221.8542204851
 20
2311.5692396155
 30
0.0
 40
35.0
  1
273
 50
0.0
 41
0.7
 11
2221.8542204851
 21
2299.2051374483
 31
0.0
 73
     1
  0
ENDBLK
  5
24A
  8
0
  0
BLOCK
  8
0
  2
_D_9
 70
     0
 10
0.0
 20
0.0
 30
0.0
  3
_D_9
  1

  0
INSERT
  5
282
  8
細線
  2
_OPEN30
 10
728.1861956611
 20
596.9797615303
 30
553.0769439474
 41
30.0
 42
30.0
 50
90.0
  0
INSERT
  5
283
  8
細線
  2
_OPEN30
 10
728.1861956611
 20
621.9797615303
 30
553.0769439474
 41
30.0
 42
30.0
 50
270.0
  0
LINE
  5
284
  8
細線
 10
802.5423495339
 20
596.9797615303
 30
0.0
 11
718.1861956611
 21
596.9797615303
 31
0.0
  0
LINE
  5
285
  8
細線
 10
827.5423495339
 20
621.9797615303
 30
0.0
 11
718.1861956611
 21
621.9797615303
 31
0.0
  0
LINE
  5
286
  8
細線
 10
728.1861956611
 20
596.9797615303
 30
0.0
 11
728.1861956611
 21
507.120538921
 31
0.0
  0
LINE
  5
287
  8
細線
 10
728.1861956611
 20
596.9797615303
 30
0.0
 11
728.1861956611
 21
621.9797615303
 31
0.0
  0
LINE
  5
288
  8
細線
 10
728.1861956611
 20
621.9797615303
 30
0.0
 11
728.1861956611
 21
681.9797615303
 31
0.0
  0
TEXT
  5
289
  8
細線
 10
715.8220958223
 20
507.120538921
 30
553.0769439474
 40
35.0
  1
25
 50
90.0
 41
0.7
 11
728.1861979894
 21
507.120538921
 31
553.0769439474
 73
     1
  0
ENDBLK
  5
281
  8
0
  0
BLOCK
  8
0
  2
_D_10
 70
     0
 10
0.0
 20
0.0
 30
0.0
  3
_D_10
  1

  0
INSERT
  5
28E
  8
細線
  2
_OPEN30
 10
728.1861956611
 20
621.9797615303
 30
553.0769439474
 41
30.0
 42
30.0
 50
270.0
  0
INSERT
  5
28F
  8
細線
  2
_OPEN30
 10
728.1861956611
 20
821.9797615303
 30
553.0769439474
 41
30.0
 42
30.0
 50
90.0
  0
LINE
  5
290
  8
細線
 10
827.5423495339
 20
621.9797615303
 30
0.0
 11
718.1861956611
 21
621.9797615303
 31
0.0
  0
LINE
  5
291
  8
細線
 10
827.5423495339
 20
821.9797615303
 30
0.0
 11
718.1861956611
 21
821.9797615303
 31
0.0
  0
LINE
  5
292
  8
細線
 10
728.1861956611
 20
621.9797615303
 30
0.0
 11
728.1861956611
 21
821.9797615303
 31
0.0
  0
TEXT
  5
293
  8
細線
 10
715.8220958223
 20
704.7162327295
 30
553.0769439474
 40
35.0
  1
200
 50
90.0
 41
0.7
 11
728.1861979894
 21
704.7162327295
 31
553.0769439474
 73
     1
  0
ENDBLK
  5
28D
  8
0
  0
BLOCK
  8
0
  2
_D_11
 70
     0
 10
0.0
 20
0.0
 30
0.0
  3
_D_11
  1

  0
INSERT
  5
298
  8
細線
  2
_OPEN30
 10
837.5423495339
 20
969.9797615303
 30
553.0769439474
 41
30.0
 42
30.0
 50
180.0
  0
INSERT
  5
299
  8
細線
  2
_OPEN30
 10
1567.7423495339
 20
969.9797615303
 30
553.0769439474
 41
30.0
 42
30.0
 50
0.0
  0
LINE
  5
29A
  8
細線
 10
837.5423495339
 20
831.9797615303
 30
0.0
 11
837.5423495339
 21
979.9797615303
 31
0.0
  0
LINE
  5
29B
  8
細線
 10
1567.7423495339
 20
831.9797615303
 30
0.0
 11
1567.7423495339
 21
979.9797615303
 31
0.0
  0
LINE
  5
29C
  8
細線
 10
837.5423495339
 20
969.9797615303
 30
0.0
 11
1567.7423495339
 21
969.9797615303
 31
0.0
  0
TEXT
  5
29D
  8
細線
 10
1142.9005876408
 20
982.3438613692
 30
553.0769439474
 40
35.0
  1
730.2
 41
0.7
 11
1142.9005876408
 21
969.979759202
 31
553.0769439474
 73
     1
  0
ENDBLK
  5
297
  8
0
  0
BLOCK
  8
0
  2
_D_12
 70
     0
 10
0.0
 20
0.0
 30
0.0
  3
_D_12
  1

  0
INSERT
  5
2A2
  8
細線
  2
_OPEN30
 10
819.6142919191
 20
756.5244231788
 30
553.0769439474
 41
30.0
 42
30.0
 50
164.6824893094
  0
INSERT
  5
2A3
  8
細線
  2
_OPEN30
 10
1549.8142919191
 20
556.5244231788
 30
553.0769439474
 41
30.0
 42
30.0
 50
344.6824893094
  0
LINE
  5
2A4
  8
細線
 10
834.9006712848
 20
812.3349942429
 30
0.0
 11
816.9726136701
 21
746.8796558914
 31
0.0
  0
LINE
  5
2A5
  8
細線
 10
1565.1006712848
 20
612.3349942429
 30
0.0
 11
1547.1726136701
 21
546.8796558914
 31
0.0
  0
LINE
  5
2A6
  8
細線
 10
819.6142919191
 20
756.5244231788
 30
0.0
 11
1549.8142919191
 21
556.5244231788
 31
0.0
  0
TEXT
  5
2A7
  8
細線
 10
1147.7606451829
 20
679.4654270002
 30
553.0769439474
 40
35.0
  1
757.1
 50
344.6824893094
 41
0.7
 11
1144.4944472065
 21
667.5405381881
 31
553.0769439474
 73
     1
  0
ENDBLK
  5
2A1
  8
0
  0
BLOCK
  8
0
  2
_D_13
 70
     0
 10
0.0
 20
0.0
 30
0.0
  3
_D_13
  1

  0
INSERT
  5
2AD
  8
細線
  2
_OPEN30
 10
832.9461554628
 20
826.5759556146
 30
553.0769439474
 41
30.0
 42
30.0
 50
314.9999999177
  0
LINE
  5
2AE
  8
細線
 10
832.9461554628
 20
826.5759556146
 30
0.0
 11
688.5736559085
 21
970.9484555837
 31
0.0
  0
LINE
  5
2AF
  8
細線
 10
832.9461554628
 20
826.5759556146
 30
0.0
 11
842.138543605
 21
817.383567446
 31
0.0
  0
TEXT
  5
2B0
  8
細線
 10
697.0737242796
 20
979.4485239303
 30
553.0769439474
 40
35.0
  1
4-
 50
-45.0000000823
 41
0.7
 11
688.3309837814
 21
970.7057834572
 31
553.0769439474
 73
     1
  0
TEXT
  5
2B1
  8
細線
 10
725.8785038228
 20
950.6437443044
 30
553.0769439474
 40
35.0
  1
%%c
 50
-45.0000000823
 41
0.7
 11
717.1357633245
 21
941.9010038313
 31
553.0769439474
 73
     1
  0
TEXT
  5
2B2
  8
細線
 10
753.2430465291
 20
923.2792015195
 30
553.0769439474
 40
35.0
  1
13
 50
-45.0000000823
 41
0.7
 11
744.5003060308
 21
914.5364610464
 31
553.0769439474
 73
     1
  0
ENDBLK
  5
2AC
  8
0
  0
ENDSEC
  0
SECTION
  2
ENTITIES
  0
LINE
  5
77
  8
太線
 10
200.0
 20
2890.0
 30
0.0
 11
4120.0
 21
2890.0
 31
0.0
  0
LINE
  5
78
  8
太線
 10
200.0
 20
2890.0
 30
0.0
 11
200.0
 21
80.0
 31
0.0
  0
LINE
  5
79
  8
太線
 10
200.0
 20
80.0
 30
0.0
 11
4120.0
 21
80.0
 31
0.0
  0
LINE
  5
7A
  8
太線
 10
4120.0
 20
2890.0
 30
0.0
 11
4120.0
 21
80.0
 31
0.0
  0
LINE
  5
7B
  8
中太線
 10
2620.0
 20
480.0
 30
0.0
 11
2620.0
 21
80.0
 31
0.0
  0
LINE
  5
7C
  8
中太線
 10
4120.0
 20
480.0
 30
0.0
 11
2620.0
 21
480.0
 31
0.0
  0
LINE
  5
7D
  8
細線
 10
2740.0
 20
220.0
 30
0.0
 11
2740.0
 21
80.0
 31
0.0
  0
LINE
  5
7E
  8
細線
 10
2620.0
 20
220.0
 30
0.0
 11
4120.0
 21
220.0
 31
0.0
  0
LINE
  5
7F
  8
細線
 10
2690.0
 20
480.0
 30
0.0
 11
2690.0
 21
220.0
 31
0.0
  0
LINE
  5
80
  8
細線
 10
3300.0
 20
320.0
 30
0.0
 11
3300.0
 21
80.0
 31
0.0
  0
LINE
  5
81
  8
細線
 10
3040.0
 20
320.0
 30
0.0
 11
3040.0
 21
220.0
 31
0.0
  0
LINE
  5
82
  8
細線
 10
3110.0
 20
320.0
 30
0.0
 11
3110.0
 21
220.0
 31
0.0
  0
LINE
  5
83
  8
細線
 10
3230.0
 20
320.0
 30
0.0
 11
3230.0
 21
220.0
 31
0.0
  0
LINE
  5
84
  8
細線
 10
3420.0
 20
320.0
 30
0.0
 11
3420.0
 21
220.0
 31
0.0
  0
LINE
  5
85
  8
細線
 10
3490.0
 20
320.0
 30
0.0
 11
3490.0
 21
220.0
 31
0.0
  0
LINE
  5
86
  8
細線
 10
3610.0
 20
480.0
 30
0.0
 11
3610.0
 21
220.0
 31
0.0
  0
LINE
  5
87
  8
細線
 10
3680.0
 20
480.0
 30
0.0
 11
3680.0
 21
220.0
 31
0.0
  0
LINE
  5
88
  8
中太線
 10
4120.0
 20
320.0
 30
0.0
 11
2620.0
 21
320.0
 31
0.0
  0
TEXT
  5
89
  8
細線
 10
3265.7445996018
 20
1317.1302817504
 30
0.0
 40
35.0
  1
付属部品
 41
0.7
 11
3265.7445996018
 21
1304.7661795832
 31
0.0
 73
     1
  0
INSERT
  5
8F
  8
細線
  2
SW_NOTE_0
 10
2635.7051170213
 20
275.4797837283
 30
0.0
  0
INSERT
  5
95
  8
細線
  2
SW_NOTE_1
 10
3053.4136510025
 20
272.8569926545
 30
0.0
  0
INSERT
  5
9B
  8
細線
  2
SW_NOTE_2
 10
3242.3880530025
 20
272.9197627307
 30
0.0
  0
INSERT
  5
A1
  8
細線
  2
SW_NOTE_3
 10
3433.5127868985
 20
273.8006386034
 30
0.0
  0
INSERT
  5
A7
  8
細線
  2
SW_NOTE_4
 10
3625.2401582544
 20
272.7345963705
 30
0.0
  0
TEXT
  5
A8
  8
細線
 10
2750.6663701847
 20
137.0169062958
 30
0.0
 40
50.0
  1
アイボリー色
 41
0.7
 11
2750.6663701847
 21
119.3539031998
 31
0.0
 73
     1
  0
TEXT
  5
A9
  8
細線
 10
2699.9592101029
 20
257.7584749721
 30
0.0
 40
50.0
  1
-
 41
0.7
 11
2699.9592101029
 21
240.0954718761
 31
0.0
 73
     1
  0
TEXT
  5
AA
  8
細線
 10
3118.3187195282
 20
265.8762371064
 30
0.0
 40
40.0
  1
山田
 41
0.7
 11
3118.3187195282
 21
251.7458346297
 31
0.0
 73
     1
  0
TEXT
  5
AB
  8
細線
 10
3498.2302648715
 20
266.1527081826
 30
0.0
 40
40.0
  1
ｍｍ
 41
0.7
 11
3498.2302648715
 21
252.0223057058
 31
0.0
 73
     1
  0
TEXT
  5
AC
  8
細線
 10
3698.1614244227
 20
265.981750819
 30
0.0
 40
40.0
  1
2021/1/7
 41
0.7
 11
3698.1614244227
 21
251.8513483423
 31
0.0
 73
     1
  0
INSERT
  5
B5
  8
細線
  2
SW_NOTE_5
 10
1814.5593764293
 20
666.0915656805
 30
0.0
  0
INSERT
  5
BB
  8
細線
  2
SW_NOTE_6
 10
2634.6060731417
 20
404.2185226725
 30
0.0
  0
INSERT
  5
C1
  8
細線
  2
SW_NOTE_7
 10
2634.8994921362
 20
156.3331126623
 30
0.0
  0
INSERT
  5
C7
  8
細線
  2
SW_NOTE_8
 10
3625.3640405008
 20
409.5335321014
 30
0.0
  0
TEXT
  5
C8
  8
細線
 10
2707.8283370194
 20
389.6333095007
 30
0.0
 40
47.625
  1
メーター用スタンド　アンカータイプ
 41
0.7
 11
2707.8283370194
 21
372.8092990518
 31
0.0
 73
     1
  0
TEXT
  5
C9
  8
細線
 10
3699.133782542
 20
396.784374122
 30
0.0
 40
37.0416666667
  1
MST-AB01-01-01
 41
0.7
 11
3699.133782542
 21
383.6990326617
 31
0.0
 73
     1
  0
TEXT
  5
CA
  8
細線
 10
3312.7777089892
 20
261.2177407644
 30
0.0
 40
40.0
  1
木下
 41
0.7
 11
3312.7777089892
 21
247.0873382876
 31
0.0
 73
     1
  0
TEXT
  5
CB
  8
細線
 10
4137.8130210212
 20
107.0545318401
 30
0.0
 40
37.0416666667
  1
E
 41
0.7
 11
4137.8130210212
 21
93.9691903799
 31
0.0
 73
     1
  0
INSERT
  5
F2
  8
細線
  2
SW_TABLEANNOTATION_0
 10
3213.6901097458
 20
699.231165246
 30
0.0
  0
INSERT
  5
10F
  8
細線
  2
SW_TABLEANNOTATION_1
 10
3262.1100359984
 20
1269.5889692431
 30
0.0
  0
INSERT
  5
122
  8
細線
  2
SW_TABLEANNOTATION_2
 10
200.0
 20
170.0
 30
0.0
  0
LINE
  5
123
  8
0
  6
CONTINUOUS
 62
     7
 10
817.6423590706
 20
1719.6013802017
 30
0.0
 11
817.6423590706
 21
1724.9013656105
 31
0.0
  0
LINE
  5
124
  8
0
  6
CONTINUOUS
 62
     7
 10
1587.6423399972
 20
1724.9013656105
 30
0.0
 11
817.6423590706
 21
1724.9013656105
 31
0.0
  0
LINE
  5
125
  8
0
  6
CONTINUOUS
 62
     7
 10
1587.6423399972
 20
1719.6013802017
 30
0.0
 11
1587.6423399972
 21
1724.9013656105
 31
0.0
  0
LINE
  5
126
  8
0
  6
CONTINUOUS
 62
     7
 10
1066.6423421429
 20
1650.9013646569
 30
0.0
 11
1038.6423450039
 21
1650.9013646569
 31
0.0
  0
ARC
  5
127
  8
0
  6
CONTINUOUS
 62
     7
 10
1066.6423495339
 20
1656.9013522591
 30
0.0
 40
6.0
 50
270.0
 51
90.0
  0
LINE
  5
128
  8
0
  6
CONTINUOUS
 62
     7
 10
1038.6423450039
 20
1662.9013293709
 30
0.0
 11
1066.6423421429
 21
1662.9013293709
 31
0.0
  0
ARC
  5
129
  8
0
  6
CONTINUOUS
 62
     7
 10
1038.6423495339
 20
1656.9013522591
 30
0.0
 40
6.0
 50
90.0
 51
270.0
  0
LINE
  5
12A
  8
0
  6
CONTINUOUS
 62
     7
 10
1126.6423519777
 20
1650.9013646569
 30
0.0
 11
1098.6423473881
 21
1650.9013646569
 31
0.0
  0
ARC
  5
12B
  8
0
  6
CONTINUOUS
 62
     7
 10
1126.6423495339
 20
1656.9013522591
 30
0.0
 40
6.0
 50
270.0
 51
90.0
  0
LINE
  5
12C
  8
0
  6
CONTINUOUS
 62
     7
 10
1098.6423473881
 20
1662.9013293709
 30
0.0
 11
1126.6423519777
 21
1662.9013293709
 31
0.0
  0
ARC
  5
12D
  8
0
  6
CONTINUOUS
 62
     7
 10
1098.6423495339
 20
1656.9013522591
 30
0.0
 40
6.0
 50
90.0
 51
270.0
  0
LINE
  5
12E
  8
0
  6
CONTINUOUS
 62
     7
 10
1006.6423546599
 20
1650.9013646569
 30
0.0
 11
978.6423426198
 21
1650.9013646569
 31
0.0
  0
ARC
  5
12F
  8
0
  6
CONTINUOUS
 62
     7
 10
1006.6423495339
 20
1656.9013522591
 30
0.0
 40
6.0
 50
270.0
 51
90.0
  0
LINE
  5
130
  8
0
  6
CONTINUOUS
 62
     7
 10
978.6423426198
 20
1662.9013293709
 30
0.0
 11
1006.6423546599
 21
1662.9013293709
 31
0.0
  0
ARC
  5
131
  8
0
  6
CONTINUOUS
 62
     7
 10
978.6423495339
 20
1656.9013522591
 30
0.0
 40
6.0
 50
90.0
 51
270.0
  0
LINE
  5
132
  8
0
  6
CONTINUOUS
 62
     7
 10
946.6423373746
 20
1650.9013646569
 30
0.0
 11
918.6423402356
 21
1650.9013646569
 31
0.0
  0
ARC
  5
133
  8
0
  6
CONTINUOUS
 62
     7
 10
946.6423495339
 20
1656.9013522591
 30
0.0
 40
6.0
 50
270.0
 51
90.0
  0
LINE
  5
134
  8
0
  6
CONTINUOUS
 62
     7
 10
918.6423402356
 20
1662.9013293709
 30
0.0
 11
946.6423373746
 21
1662.9013293709
 31
0.0
  0
ARC
  5
135
  8
0
  6
CONTINUOUS
 62
     7
 10
918.6423495339
 20
1656.9013522591
 30
0.0
 40
6.0
 50
90.0
 51
270.0
  0
LINE
  5
136
  8
0
  6
CONTINUOUS
 62
     7
 10
886.6423349904
 20
1650.9013646569
 30
0.0
 11
858.6423378514
 21
1650.9013646569
 31
0.0
  0
ARC
  5
137
  8
0
  6
CONTINUOUS
 62
     7
 10
886.6423495339
 20
1656.9013522591
 30
0.0
 40
6.0
 50
270.0
 51
90.0
  0
LINE
  5
138
  8
0
  6
CONTINUOUS
 62
     7
 10
858.6423378514
 20
1662.9013293709
 30
0.0
 11
886.6423349904
 21
1662.9013293709
 31
0.0
  0
ARC
  5
139
  8
0
  6
CONTINUOUS
 62
     7
 10
858.6423495339
 20
1656.9013522591
 30
0.0
 40
6.0
 50
90.0
 51
270.0
  0
LINE
  5
13A
  8
0
  6
CONTINUOUS
 62
     7
 10
1587.6423399972
 20
1594.2013436283
 30
0.0
 11
1587.6423399972
 21
1719.6013802017
 31
0.0
  0
LINE
  5
13B
  8
0
  6
CONTINUOUS
 62
     7
 10
817.6423590706
 20
1594.2013436283
 30
0.0
 11
817.6423590706
 21
1719.6013802017
 31
0.0
  0
LINE
  5
13C
  8
0
  6
CONTINUOUS
 62
     7
 10
1366.6423540639
 20
1662.9013293709
 30
0.0
 11
1338.6423569249
 21
1662.9013293709
 31
0.0
  0
ARC
  5
13D
  8
0
  6
CONTINUOUS
 62
     7
 10
1338.6423495339
 20
1656.9013522591
 30
0.0
 40
6.0
 50
90.0
 51
270.0
  0
LINE
  5
13E
  8
0
  6
CONTINUOUS
 62
     7
 10
1338.6423569249
 20
1650.9013646569
 30
0.0
 11
1366.6423540639
 21
1650.9013646569
 31
0.0
  0
ARC
  5
13F
  8
0
  6
CONTINUOUS
 62
     7
 10
1366.6423495339
 20
1656.9013522591
 30
0.0
 40
6.0
 50
270.0
 51
90.0
  0
LINE
  5
140
  8
0
  6
CONTINUOUS
 62
     7
 10
1306.6423516797
 20
1662.9013293709
 30
0.0
 11
1278.6423470901
 21
1662.9013293709
 31
0.0
  0
ARC
  5
141
  8
0
  6
CONTINUOUS
 62
     7
 10
1278.6423495339
 20
1656.9013522591
 30
0.0
 40
6.0
 50
90.0
 51
270.0
  0
LINE
  5
142
  8
0
  6
CONTINUOUS
 62
     7
 10
1278.6423470901
 20
1650.9013646569
 30
0.0
 11
1306.6423516797
 21
1650.9013646569
 31
0.0
  0
ARC
  5
143
  8
0
  6
CONTINUOUS
 62
     7
 10
1306.6423495339
 20
1656.9013522591
 30
0.0
 40
6.0
 50
270.0
 51
90.0
  0
LINE
  5
144
  8
0
  6
CONTINUOUS
 62
     7
 10
1426.642356448
 20
1662.9013293709
 30
0.0
 11
1398.6423444079
 21
1662.9013293709
 31
0.0
  0
ARC
  5
145
  8
0
  6
CONTINUOUS
 62
     7
 10
1398.6423495339
 20
1656.9013522591
 30
0.0
 40
6.0
 50
90.0
 51
270.0
  0
LINE
  5
146
  8
0
  6
CONTINUOUS
 62
     7
 10
1398.6423444079
 20
1650.9013646569
 30
0.0
 11
1426.642356448
 21
1650.9013646569
 31
0.0
  0
ARC
  5
147
  8
0
  6
CONTINUOUS
 62
     7
 10
1426.6423495339
 20
1656.9013522591
 30
0.0
 40
6.0
 50
270.0
 51
90.0
  0
LINE
  5
148
  8
0
  6
CONTINUOUS
 62
     7
 10
1486.6423588322
 20
1662.9013293709
 30
0.0
 11
1458.6423616932
 21
1662.9013293709
 31
0.0
  0
ARC
  5
149
  8
0
  6
CONTINUOUS
 62
     7
 10
1458.6423495339
 20
1656.9013522591
 30
0.0
 40
6.0
 50
90.0
 51
270.0
  0
LINE
  5
14A
  8
0
  6
CONTINUOUS
 62
     7
 10
1458.6423616932
 20
1650.9013646569
 30
0.0
 11
1486.6423588322
 21
1650.9013646569
 31
0.0
  0
ARC
  5
14B
  8
0
  6
CONTINUOUS
 62
     7
 10
1486.6423495339
 20
1656.9013522591
 30
0.0
 40
6.0
 50
270.0
 51
90.0
  0
LINE
  5
14C
  8
0
  6
CONTINUOUS
 62
     7
 10
1546.6423612164
 20
1662.9013293709
 30
0.0
 11
1518.6423640774
 21
1662.9013293709
 31
0.0
  0
ARC
  5
14D
  8
0
  6
CONTINUOUS
 62
     7
 10
1518.6423495339
 20
1656.9013522591
 30
0.0
 40
6.0
 50
90.0
 51
270.0
  0
LINE
  5
14E
  8
0
  6
CONTINUOUS
 62
     7
 10
1518.6423640774
 20
1650.9013646569
 30
0.0
 11
1546.6423612164
 21
1650.9013646569
 31
0.0
  0
ARC
  5
14F
  8
0
  6
CONTINUOUS
 62
     7
 10
1546.6423495339
 20
1656.9013522591
 30
0.0
 40
6.0
 50
270.0
 51
90.0
  0
LINE
  5
150
  8
0
  6
CONTINUOUS
 62
     7
 10
1587.6423399972
 20
1588.9013582196
 30
0.0
 11
817.6423590706
 21
1588.9013582196
 31
0.0
  0
LINE
  5
151
  8
0
  6
CONTINUOUS
 62
     7
 10
817.6423590706
 20
1594.2013436283
 30
0.0
 11
817.6423590706
 21
1588.9013582196
 31
0.0
  0
LINE
  5
152
  8
0
  6
CONTINUOUS
 62
     7
 10
1587.6423399972
 20
1594.2013436283
 30
0.0
 11
1587.6423399972
 21
1588.9013582196
 31
0.0
  0
LINE
  5
153
  8
0
  6
CONTINUOUS
 62
     7
 10
1587.6423399972
 20
1724.9013656105
 30
0.0
 11
1587.6423399972
 21
1729.001330706
 31
0.0
  0
LINE
  5
154
  8
0
  6
CONTINUOUS
 62
     7
 10
817.6423590706
 20
1724.9013656105
 30
0.0
 11
817.6423590706
 21
1729.001330706
 31
0.0
  0
LINE
  5
155
  8
0
  6
CONTINUOUS
 62
     7
 10
1587.6423399972
 20
1588.9013582196
 30
0.0
 11
1587.6423399972
 21
1584.8013633217
 31
0.0
  0
LINE
  5
156
  8
0
  6
CONTINUOUS
 62
     7
 10
817.6423590706
 20
1588.9013582196
 30
0.0
 11
817.6423590706
 21
1584.8013633217
 31
0.0
  0
CIRCLE
  5
157
  8
0
  6
CONTINUOUS
 62
     7
 10
837.6423495339
 20
1736.9013522591
 30
0.0
 40
4.000000000000114
  0
LINE
  5
158
  8
0
  6
CONTINUOUS
 62
     7
 10
1587.6423399972
 20
1729.001330706
 30
0.0
 11
1587.6423399972
 21
1748.1513493981
 31
0.0
  0
LINE
  5
159
  8
0
  6
CONTINUOUS
 62
     7
 10
1587.6423399972
 20
1748.1513493981
 30
0.0
 11
817.6423590706
 21
1748.1513493981
 31
0.0
  0
LINE
  5
15A
  8
0
  6
CONTINUOUS
 62
     7
 10
817.6423590706
 20
1729.001330706
 30
0.0
 11
817.6423590706
 21
1748.1513493981
 31
0.0
  0
CIRCLE
  5
15B
  8
0
  6
CONTINUOUS
 62
     7
 10
1567.6423495339
 20
1736.9013522591
 30
0.0
 40
3.999999999999773
  0
CIRCLE
  5
15C
  8
0
  6
CONTINUOUS
 62
     7
 10
1567.6423495339
 20
1576.9013522591
 30
0.0
 40
3.999999999999773
  0
LINE
  5
15D
  8
0
  6
CONTINUOUS
 62
     7
 10
817.6423590706
 20
1584.8013633217
 30
0.0
 11
817.6423590706
 21
1565.6513446297
 31
0.0
  0
LINE
  5
15E
  8
0
  6
CONTINUOUS
 62
     7
 10
1587.6423399972
 20
1565.6513446297
 30
0.0
 11
817.6423590706
 21
1565.6513446297
 31
0.0
  0
LINE
  5
15F
  8
0
  6
CONTINUOUS
 62
     7
 10
1587.6423399972
 20
1584.8013633217
 30
0.0
 11
1587.6423399972
 21
1565.6513446297
 31
0.0
  0
CIRCLE
  5
160
  8
0
  6
CONTINUOUS
 62
     7
 10
837.6423495339
 20
1576.9013522591
 30
0.0
 40
4.000000000000114
  0
LINE
  5
161
  8
0
  6
CONTINUOUS
 62
     7
 10
1006.6423546599
 20
2100.9012931313
 30
0.0
 11
978.6423426198
 21
2100.9012931313
 31
0.0
  0
ARC
  5
162
  8
0
  6
CONTINUOUS
 62
     7
 10
1006.6423495339
 20
2106.9013522591
 30
0.0
 40
6.000000000000455
 50
270.0
 51
90.0
  0
LINE
  5
163
  8
0
  6
CONTINUOUS
 62
     7
 10
978.6423426198
 20
2112.9013770546
 30
0.0
 11
1006.6423546599
 21
2112.9013770546
 31
0.0
  0
ARC
  5
164
  8
0
  6
CONTINUOUS
 62
     7
 10
946.6423495339
 20
2106.9013522591
 30
0.0
 40
6.000000000000455
 50
270.0
 51
90.0
  0
ARC
  5
165
  8
0
  6
CONTINUOUS
 62
     7
 10
886.6423495339
 20
2106.9013522591
 30
0.0
 40
6.000000000000455
 50
270.0
 51
90.0
  0
ARC
  5
166
  8
0
  6
CONTINUOUS
 62
     7
 10
858.6423495339
 20
2106.9013522591
 30
0.0
 40
6.000000000000455
 50
90.0
 51
270.0
  0
ARC
  5
167
  8
0
  6
CONTINUOUS
 62
     7
 10
1518.6423495339
 20
2106.9013522591
 30
0.0
 40
6.000000000000455
 50
90.0
 51
270.0
  0
ARC
  5
168
  8
0
  6
CONTINUOUS
 62
     7
 10
1098.6423495339
 20
2106.9013522591
 30
0.0
 40
6.000000000000455
 50
90.0
 51
270.0
  0
LINE
  5
169
  8
0
  6
CONTINUOUS
 62
     7
 10
1366.6423540639
 20
2112.9013770546
 30
0.0
 11
1338.6423569249
 21
2112.9013770546
 31
0.0
  0
LINE
  5
16A
  8
0
  6
CONTINUOUS
 62
     7
 10
886.6423349904
 20
2100.9012931313
 30
0.0
 11
858.6423378514
 21
2100.9012931313
 31
0.0
  0
LINE
  5
16B
  8
0
  6
CONTINUOUS
 62
     7
 10
918.6423402356
 20
2112.9013770546
 30
0.0
 11
946.6423373746
 21
2112.9013770546
 31
0.0
  0
LINE
  5
16C
  8
0
  6
CONTINUOUS
 62
     7
 10
1546.6423612164
 20
2112.9013770546
 30
0.0
 11
1518.6423640774
 21
2112.9013770546
 31
0.0
  0
LINE
  5
16D
  8
0
  6
CONTINUOUS
 62
     7
 10
858.6423378514
 20
2112.9013770546
 30
0.0
 11
886.6423349904
 21
2112.9013770546
 31
0.0
  0
ARC
  5
16E
  8
0
  6
CONTINUOUS
 62
     7
 10
918.6423495339
 20
2106.9013522591
 30
0.0
 40
6.000000000000455
 50
90.0
 51
270.0
  0
LINE
  5
16F
  8
0
  6
CONTINUOUS
 62
     7
 10
817.6423590706
 20
2044.2013615097
 30
0.0
 11
817.6423590706
 21
2169.6013682808
 31
0.0
  0
LINE
  5
170
  8
0
  6
CONTINUOUS
 62
     7
 10
1587.6423399972
 20
2044.2013615097
 30
0.0
 11
1587.6423399972
 21
2169.6013682808
 31
0.0
  0
LINE
  5
171
  8
0
  6
CONTINUOUS
 62
     7
 10
946.6423373746
 20
2100.9012931313
 30
0.0
 11
918.6423402356
 21
2100.9012931313
 31
0.0
  0
LINE
  5
172
  8
0
  6
CONTINUOUS
 62
     7
 10
1278.6423470901
 20
2100.9012931313
 30
0.0
 11
1306.6423516797
 21
2100.9012931313
 31
0.0
  0
LINE
  5
173
  8
0
  6
CONTINUOUS
 62
     7
 10
1398.6423444079
 20
2100.9012931313
 30
0.0
 11
1426.642356448
 21
2100.9012931313
 31
0.0
  0
ARC
  5
174
  8
0
  6
CONTINUOUS
 62
     7
 10
1426.6423495339
 20
2106.9013522591
 30
0.0
 40
6.000000000000455
 50
270.0
 51
90.0
  0
LINE
  5
175
  8
0
  6
CONTINUOUS
 62
     7
 10
1306.6423516797
 20
2112.9013770546
 30
0.0
 11
1278.6423470901
 21
2112.9013770546
 31
0.0
  0
ARC
  5
176
  8
0
  6
CONTINUOUS
 62
     7
 10
1278.6423495339
 20
2106.9013522591
 30
0.0
 40
6.000000000000455
 50
90.0
 51
270.0
  0
ARC
  5
177
  8
0
  6
CONTINUOUS
 62
     7
 10
1306.6423495339
 20
2106.9013522591
 30
0.0
 40
6.000000000000455
 50
270.0
 51
90.0
  0
ARC
  5
178
  8
0
  6
CONTINUOUS
 62
     7
 10
1338.6423495339
 20
2106.9013522591
 30
0.0
 40
6.000000000000455
 50
90.0
 51
270.0
  0
LINE
  5
179
  8
0
  6
CONTINUOUS
 62
     7
 10
1338.6423569249
 20
2100.9012931313
 30
0.0
 11
1366.6423540639
 21
2100.9012931313
 31
0.0
  0
ARC
  5
17A
  8
0
  6
CONTINUOUS
 62
     7
 10
1366.6423495339
 20
2106.9013522591
 30
0.0
 40
6.000000000000455
 50
270.0
 51
90.0
  0
ARC
  5
17B
  8
0
  6
CONTINUOUS
 62
     7
 10
978.6423495339
 20
2106.9013522591
 30
0.0
 40
6.000000000000455
 50
90.0
 51
270.0
  0
LINE
  5
17C
  8
0
  6
CONTINUOUS
 62
     7
 10
1098.6423473881
 20
2112.9013770546
 30
0.0
 11
1126.6423519777
 21
2112.9013770546
 31
0.0
  0
ARC
  5
17D
  8
0
  6
CONTINUOUS
 62
     7
 10
1126.6423495339
 20
2106.9013522591
 30
0.0
 40
6.000000000000455
 50
270.0
 51
90.0
  0
LINE
  5
17E
  8
0
  6
CONTINUOUS
 62
     7
 10
1126.6423519777
 20
2100.9012931313
 30
0.0
 11
1098.6423473881
 21
2100.9012931313
 31
0.0
  0
LINE
  5
17F
  8
0
  6
CONTINUOUS
 62
     7
 10
1038.6423450039
 20
2112.9013770546
 30
0.0
 11
1066.6423421429
 21
2112.9013770546
 31
0.0
  0
ARC
  5
180
  8
0
  6
CONTINUOUS
 62
     7
 10
1066.6423495339
 20
2106.9013522591
 30
0.0
 40
6.000000000000455
 50
270.0
 51
90.0
  0
LINE
  5
181
  8
0
  6
CONTINUOUS
 62
     7
 10
1066.6423421429
 20
2100.9012931313
 30
0.0
 11
1038.6423450039
 21
2100.9012931313
 31
0.0
  0
ARC
  5
182
  8
0
  6
CONTINUOUS
 62
     7
 10
1038.6423495339
 20
2106.9013522591
 30
0.0
 40
6.000000000000455
 50
90.0
 51
270.0
  0
LINE
  5
183
  8
0
  6
CONTINUOUS
 62
     7
 10
1518.6423640774
 20
2100.9012931313
 30
0.0
 11
1546.6423612164
 21
2100.9012931313
 31
0.0
  0
ARC
  5
184
  8
0
  6
CONTINUOUS
 62
     7
 10
1546.6423495339
 20
2106.9013522591
 30
0.0
 40
6.000000000000455
 50
270.0
 51
90.0
  0
LINE
  5
185
  8
0
  6
CONTINUOUS
 62
     7
 10
1486.6423588322
 20
2112.9013770546
 30
0.0
 11
1458.6423616932
 21
2112.9013770546
 31
0.0
  0
ARC
  5
186
  8
0
  6
CONTINUOUS
 62
     7
 10
1458.6423495339
 20
2106.9013522591
 30
0.0
 40
6.000000000000455
 50
90.0
 51
270.0
  0
LINE
  5
187
  8
0
  6
CONTINUOUS
 62
     7
 10
1458.6423616932
 20
2100.9012931313
 30
0.0
 11
1486.6423588322
 21
2100.9012931313
 31
0.0
  0
ARC
  5
188
  8
0
  6
CONTINUOUS
 62
     7
 10
1486.6423495339
 20
2106.9013522591
 30
0.0
 40
6.000000000000455
 50
270.0
 51
90.0
  0
LINE
  5
189
  8
0
  6
CONTINUOUS
 62
     7
 10
1426.642356448
 20
2112.9013770546
 30
0.0
 11
1398.6423444079
 21
2112.9013770546
 31
0.0
  0
ARC
  5
18A
  8
0
  6
CONTINUOUS
 62
     7
 10
1398.6423495339
 20
2106.9013522591
 30
0.0
 40
6.000000000000455
 50
90.0
 51
270.0
  0
LINE
  5
18B
  8
0
  6
CONTINUOUS
 62
     7
 10
1587.6423399972
 20
2174.901294085
 30
0.0
 11
817.6423590706
 21
2174.901294085
 31
0.0
  0
LINE
  5
18C
  8
0
  6
CONTINUOUS
 62
     7
 10
1587.6423399972
 20
2169.6013682808
 30
0.0
 11
1587.6423399972
 21
2174.901294085
 31
0.0
  0
LINE
  5
18D
  8
0
  6
CONTINUOUS
 62
     7
 10
817.6423590706
 20
2169.6013682808
 30
0.0
 11
817.6423590706
 21
2174.901294085
 31
0.0
  0
LINE
  5
18E
  8
0
  6
CONTINUOUS
 62
     7
 10
1587.6423399972
 20
2038.9013761009
 30
0.0
 11
817.6423590706
 21
2038.9013761009
 31
0.0
  0
LINE
  5
18F
  8
0
  6
CONTINUOUS
 62
     7
 10
1587.6423399972
 20
2044.2013615097
 30
0.0
 11
1587.6423399972
 21
2038.9013761009
 31
0.0
  0
LINE
  5
190
  8
0
  6
CONTINUOUS
 62
     7
 10
817.6423590706
 20
2044.2013615097
 30
0.0
 11
817.6423590706
 21
2038.9013761009
 31
0.0
  0
LINE
  5
191
  8
0
  6
CONTINUOUS
 62
     7
 10
1587.6423399972
 20
2038.9013761009
 30
0.0
 11
1587.6423399972
 21
2034.8013514008
 31
0.0
  0
LINE
  5
192
  8
0
  6
CONTINUOUS
 62
     7
 10
817.6423590706
 20
2038.9013761009
 30
0.0
 11
817.6423590706
 21
2034.8013514008
 31
0.0
  0
LINE
  5
193
  8
0
  6
CONTINUOUS
 62
     7
 10
817.6423590706
 20
2174.901294085
 30
0.0
 11
817.6423590706
 21
2179.0013783898
 31
0.0
  0
LINE
  5
194
  8
0
  6
CONTINUOUS
 62
     7
 10
1587.6423399972
 20
2174.901294085
 30
0.0
 11
1587.6423399972
 21
2179.0013783898
 31
0.0
  0
CIRCLE
  5
195
  8
0
  6
CONTINUOUS
 62
     7
 10
837.6423495339
 20
2186.9013522591
 30
0.0
 40
4.000000000000114
  0
LINE
  5
196
  8
0
  6
CONTINUOUS
 62
     7
 10
1587.6423399972
 20
2179.0013783898
 30
0.0
 11
1587.6423399972
 21
2198.1513970818
 31
0.0
  0
CIRCLE
  5
197
  8
0
  6
CONTINUOUS
 62
     7
 10
1567.6423495339
 20
2186.9013522591
 30
0.0
 40
4.0
  0
LINE
  5
198
  8
0
  6
CONTINUOUS
 62
     7
 10
1587.6423399972
 20
2198.1513970818
 30
0.0
 11
817.6423590706
 21
2198.1513970818
 31
0.0
  0
LINE
  5
199
  8
0
  6
CONTINUOUS
 62
     7
 10
817.6423590706
 20
2179.0013783898
 30
0.0
 11
817.6423590706
 21
2198.1513970818
 31
0.0
  0
LINE
  5
19A
  8
0
  6
CONTINUOUS
 62
     7
 10
1587.6423399972
 20
2034.8013514008
 30
0.0
 11
1587.6423399972
 21
2015.6513327088
 31
0.0
  0
CIRCLE
  5
19B
  8
0
  6
CONTINUOUS
 62
     7
 10
837.6423495339
 20
2026.9013522591
 30
0.0
 40
4.000000000000114
  0
LINE
  5
19C
  8
0
  6
CONTINUOUS
 62
     7
 10
817.6423590706
 20
2034.8013514008
 30
0.0
 11
817.6423590706
 21
2015.6513327088
 31
0.0
  0
LINE
  5
19D
  8
0
  6
CONTINUOUS
 62
     7
 10
1587.6423399972
 20
2015.6513327088
 30
0.0
 11
817.6423590706
 21
2015.6513327088
 31
0.0
  0
CIRCLE
  5
19E
  8
0
  6
CONTINUOUS
 62
     7
 10
1567.6423495339
 20
2026.9013522591
 30
0.0
 40
4.0
  0
LINE
  5
19F
  8
0
  6
CONTINUOUS
 62
     7
 10
812.5423472451
 20
2198.1513970818
 30
0.0
 11
812.5423472451
 21
1098.0513522222
 31
0.0
  0
LINE
  5
1A0
  8
0
  6
CONTINUOUS
 62
     7
 10
815.442351632
 20
2198.1513970818
 30
0.0
 11
812.5423472451
 21
2198.1513970818
 31
0.0
  0
LINE
  5
1A1
  8
0
  6
CONTINUOUS
 62
     7
 10
812.5423472451
 20
1098.0513522222
 30
0.0
 11
815.442351632
 21
1098.0513522222
 31
0.0
  0
LINE
  5
1A2
  8
0
  6
CONTINUOUS
 62
     7
 10
852.5423389004
 20
2015.6513327088
 30
0.0
 11
852.5423389004
 21
1748.1513493981
 31
0.0
  0
LINE
  5
1A3
  8
0
  6
CONTINUOUS
 62
     7
 10
852.5423389004
 20
1565.6513446297
 30
0.0
 11
852.5423389004
 21
1098.0513522222
 31
0.0
  0
LINE
  5
1A4
  8
0
  6
CONTINUOUS
 62
     7
 10
852.5423389004
 20
1098.0513522222
 30
0.0
 11
815.442351632
 21
1098.0513522222
 31
0.0
  0
LINE
  5
1A5
  8
0
  6
CONTINUOUS
 62
     7
 10
817.6423590706
 20
2198.1513970818
 30
0.0
 11
815.442351632
 21
2198.1513970818
 31
0.0
  0
LINE
  5
1A6
  8
0
  6
CONTINUOUS
 62
     7
 10
852.5423389004
 20
1096.3513523161
 30
0.0
 11
815.442351632
 21
1096.3513523161
 31
0.0
  0
LINE
  5
1A7
  8
0
  6
CONTINUOUS
 62
     7
 10
852.5423389004
 20
1095.1513522591
 30
0.0
 11
852.5423389004
 21
1096.3513523161
 31
0.0
  0
LINE
  5
1A8
  8
0
  6
CONTINUOUS
 62
     7
 10
852.5423389004
 20
1095.1513522591
 30
0.0
 11
815.442351632
 21
1095.1513522591
 31
0.0
  0
ARC
  5
1A9
  8
0
  6
CONTINUOUS
 62
     7
 10
815.4423495339
 20
1098.0513522591
 30
0.0
 40
1.700000000000045
 50
180.0
 51
270.0
  0
ARC
  5
1AA
  8
0
  6
CONTINUOUS
 62
     7
 10
815.4423495339
 20
1098.0513522591
 30
0.0
 40
2.900000000000091
 50
180.0
 51
270.0
  0
LINE
  5
1AB
  8
0
  6
CONTINUOUS
 62
     7
 10
1592.7423518227
 20
2198.1513970818
 30
0.0
 11
1592.7423518227
 21
1098.0513522222
 31
0.0
  0
LINE
  5
1AC
  8
0
  6
CONTINUOUS
 62
     7
 10
1589.8423474358
 20
2198.1513970818
 30
0.0
 11
1592.7423518227
 21
2198.1513970818
 31
0.0
  0
LINE
  5
1AD
  8
0
  6
CONTINUOUS
 62
     7
 10
1592.7423518227
 20
1098.0513522222
 30
0.0
 11
1589.8423474358
 21
1098.0513522222
 31
0.0
  0
LINE
  5
1AE
  8
0
  6
CONTINUOUS
 62
     7
 10
1552.7423601674
 20
1098.0513522222
 30
0.0
 11
1589.8423474358
 21
1098.0513522222
 31
0.0
  0
LINE
  5
1AF
  8
0
  6
CONTINUOUS
 62
     7
 10
1552.7423601674
 20
2015.6513327088
 30
0.0
 11
1552.7423601674
 21
1748.1513493981
 31
0.0
  0
LINE
  5
1B0
  8
0
  6
CONTINUOUS
 62
     7
 10
1552.7423601674
 20
1565.6513446297
 30
0.0
 11
1552.7423601674
 21
1098.0513522222
 31
0.0
  0
LINE
  5
1B1
  8
0
  6
CONTINUOUS
 62
     7
 10
1587.6423399972
 20
2198.1513970818
 30
0.0
 11
1589.8423474358
 21
2198.1513970818
 31
0.0
  0
LINE
  5
1B2
  8
0
  6
CONTINUOUS
 62
     7
 10
1552.7423601674
 20
1095.1513522591
 30
0.0
 11
1589.8423474358
 21
1095.1513522591
 31
0.0
  0
LINE
  5
1B3
  8
0
  6
CONTINUOUS
 62
     7
 10
1552.7423601674
 20
1095.1513522591
 30
0.0
 11
1552.7423601674
 21
1096.3513523161
 31
0.0
  0
LINE
  5
1B4
  8
0
  6
CONTINUOUS
 62
     7
 10
1552.7423601674
 20
1096.3513523161
 30
0.0
 11
1589.8423474358
 21
1096.3513523161
 31
0.0
  0
ARC
  5
1B5
  8
0
  6
CONTINUOUS
 62
     7
 10
1589.8423495339
 20
1098.0513522591
 30
0.0
 40
1.700000000000045
 50
270.0
 51
0.0
  0
ARC
  5
1B6
  8
0
  6
CONTINUOUS
 62
     7
 10
1589.8423495339
 20
1098.0513522591
 30
0.0
 40
2.900000000000091
 50
270.0
 51
0.0
  0
DIMENSION
  5
1B7
  8
細線
  2
_D
 10
1292.6423495339
 20
1469.2331863522
 30
0.0
 11
1192.2562200219
 21
1469.2331863522
 31
0.0
 70
   160
  1
<>
  3
SLDDIMSTYLE0
 13
1112.6423495339
 23
1650.9013522591
 33
0.0
 14
1292.6423495339
 24
1650.9013522591
 34
0.0
  0
DIMENSION
  5
1CA
  8
細線
  2
_D_1
 10
1112.6423495339
 20
1469.2331863522
 30
0.0
 11
989.1521582595
 21
1469.2331863522
 31
0.0
 70
   160
  1
4×60=<>
  3
SLDDIMSTYLE0
 13
872.6423495339
 23
1650.9013522591
 33
0.0
 14
1112.6423495339
 24
1650.9013522591
 34
0.0
  0
DIMENSION
  5
1D7
  8
細線
  2
_D_2
 10
1592.7423495339
 20
2299.2052401539
 30
0.0
 11
1177.4635215305
 21
2299.2052401539
 31
0.0
 70
   160
  1
<>
  3
SLDDIMSTYLE1
 13
812.5423495339
 23
2198.1513522591
 33
0.0
 14
1592.7423495339
 24
2198.1513522591
 34
0.0
  0
DIMENSION
  5
1E2
  8
細線
  2
_D_3
 10
1736.5948777117
 20
1656.9013522591
 30
0.0
 11
1736.5948777117
 21
1374.3182279957
 31
0.0
 70
   160
  1
<>
  3
SLDDIMSTYLE1
 13
1589.8423495339
 23
1095.1513522591
 33
0.0
 14
1546.6423495339
 24
1656.9013522591
 34
0.0
 50
90.0
  0
DIMENSION
  5
1EC
  8
細線
  2
_D_4
 10
1734.3948777117
 20
2106.9013522591
 30
0.0
 11
1734.3948777117
 21
1876.8734010005
 31
0.0
 70
   160
  1
<>
  3
SLDDIMSTYLE1
 13
1546.6423495339
 23
1656.9013522591
 33
0.0
 14
1546.6423495339
 24
2106.9013522591
 34
0.0
 50
90.0
  0
DIMENSION
  5
1F6
  8
細線
  2
_D_5
 10
863.8385019566
 20
1653.9013522591
 30
0.0
 11
689.7606242565
 21
1754.4054195442
 31
0.0
 70
   163
  1
<>×40
  3
SLDDIMSTYLE2
 15
853.4461971112
 25
1659.9013522591
 35
0.0
 40
0.0
  0
ARC
  5
204
  8
0
  6
CONTINUOUS
 62
     7
 10
2148.1887583129
 20
1729.0013522591
 30
0.0
 40
5.300000000000182
 50
270.0
 51
0.0
  0
ARC
  5
205
  8
0
  6
CONTINUOUS
 62
     7
 10
2148.1887583129
 20
1729.0013522591
 30
0.0
 40
4.100000000000136
 50
270.0
 51
0.0
  0
LINE
  5
206
  8
0
  6
CONTINUOUS
 62
     7
 10
2135.7887585781
 20
1723.7013452973
 30
0.0
 11
2148.1887584686
 21
1723.7013452973
 31
0.0
  0
LINE
  5
207
  8
0
  6
CONTINUOUS
 62
     7
 10
2135.7887585781
 20
1724.9013656105
 30
0.0
 11
2148.1887584686
 21
1724.9013656105
 31
0.0
  0
LINE
  5
208
  8
0
  6
CONTINUOUS
 62
     7
 10
2152.2887582559
 20
1748.1513493981
 30
0.0
 11
2153.4887583129
 21
1748.1513493981
 31
0.0
  0
LINE
  5
209
  8
0
  6
CONTINUOUS
 62
     7
 10
2152.2887582559
 20
1729.001330706
 30
0.0
 11
2152.2887582559
 21
1748.1513493981
 31
0.0
  0
ARC
  5
20A
  8
0
  6
CONTINUOUS
 62
     7
 10
2148.1887583129
 20
1584.8013522591
 30
0.0
 40
4.100000000000136
 50
0.0
 51
90.0
  0
ARC
  5
20B
  8
0
  6
CONTINUOUS
 62
     7
 10
2148.1887583129
 20
1584.8013522591
 30
0.0
 40
5.299999999999955
 50
0.0
 51
90.0
  0
LINE
  5
20C
  8
0
  6
CONTINUOUS
 62
     7
 10
2135.7887585781
 20
1590.1013487305
 30
0.0
 11
2148.1887584686
 21
1590.1013487305
 31
0.0
  0
LINE
  5
20D
  8
0
  6
CONTINUOUS
 62
     7
 10
2135.7887585781
 20
1588.9013582196
 30
0.0
 11
2148.1887584686
 21
1588.9013582196
 31
0.0
  0
LINE
  5
20E
  8
0
  6
CONTINUOUS
 62
     7
 10
2152.2887582559
 20
1565.6513446297
 30
0.0
 11
2153.4887583129
 21
1565.6513446297
 31
0.0
  0
LINE
  5
20F
  8
0
  6
CONTINUOUS
 62
     7
 10
2152.2887582559
 20
1584.8013633217
 30
0.0
 11
2152.2887582559
 21
1565.6513446297
 31
0.0
  0
ARC
  5
210
  8
0
  6
CONTINUOUS
 62
     7
 10
2135.7887583129
 20
1594.2013522591
 30
0.0
 40
5.300000000000182
 50
180.0
 51
270.0
  0
ARC
  5
211
  8
0
  6
CONTINUOUS
 62
     7
 10
2135.7887583129
 20
1594.2013522591
 30
0.0
 40
4.100000000000364
 50
180.0
 51
270.0
  0
ARC
  5
212
  8
0
  6
CONTINUOUS
 62
     7
 10
2135.7887583129
 20
1719.6013522591
 30
0.0
 40
4.099999999999909
 50
90.0
 51
180.0
  0
ARC
  5
213
  8
0
  6
CONTINUOUS
 62
     7
 10
2135.7887583129
 20
1719.6013522591
 30
0.0
 40
5.300000000000182
 50
90.0
 51
180.0
  0
LINE
  5
214
  8
0
  6
CONTINUOUS
 62
     7
 10
2131.6887580923
 20
1594.2013436283
 30
0.0
 11
2131.6887580923
 21
1719.6013802017
 31
0.0
  0
LINE
  5
215
  8
0
  6
CONTINUOUS
 62
     7
 10
2130.4887582682
 20
1594.2013436283
 30
0.0
 11
2130.4887582682
 21
1719.6013802017
 31
0.0
  0
LINE
  5
216
  8
0
  6
CONTINUOUS
 62
     7
 10
2135.7887585781
 20
2173.7013333763
 30
0.0
 11
2148.1887584686
 21
2173.7013333763
 31
0.0
  0
LINE
  5
217
  8
0
  6
CONTINUOUS
 62
     7
 10
2135.7887585781
 20
2174.901294085
 30
0.0
 11
2148.1887584686
 21
2174.901294085
 31
0.0
  0
LINE
  5
218
  8
0
  6
CONTINUOUS
 62
     7
 10
2135.7887585781
 20
2040.1013368096
 30
0.0
 11
2148.1887584686
 21
2040.1013368096
 31
0.0
  0
LINE
  5
219
  8
0
  6
CONTINUOUS
 62
     7
 10
2135.7887585781
 20
2038.9013761009
 30
0.0
 11
2148.1887584686
 21
2038.9013761009
 31
0.0
  0
ARC
  5
21A
  8
0
  6
CONTINUOUS
 62
     7
 10
2148.1887583129
 20
2034.8013522591
 30
0.0
 40
5.300000000000182
 50
0.0
 51
90.0
  0
ARC
  5
21B
  8
0
  6
CONTINUOUS
 62
     7
 10
2148.1887583129
 20
2034.8013522591
 30
0.0
 40
4.099999999999909
 50
0.0
 51
90.0
  0
ARC
  5
21C
  8
0
  6
CONTINUOUS
 62
     7
 10
2148.1887583129
 20
2179.0013522591
 30
0.0
 40
4.099999999999909
 50
270.0
 51
0.0
  0
ARC
  5
21D
  8
0
  6
CONTINUOUS
 62
     7
 10
2148.1887583129
 20
2179.0013522591
 30
0.0
 40
5.300000000000182
 50
270.0
 51
0.0
  0
LINE
  5
21E
  8
0
  6
CONTINUOUS
 62
     7
 10
2152.2887582559
 20
2034.8013514008
 30
0.0
 11
2152.2887582559
 21
2015.6513327088
 31
0.0
  0
LINE
  5
21F
  8
0
  6
CONTINUOUS
 62
     7
 10
2152.2887582559
 20
2015.6513327088
 30
0.0
 11
2153.4887583129
 21
2015.6513327088
 31
0.0
  0
LINE
  5
220
  8
0
  6
CONTINUOUS
 62
     7
 10
2152.2887582559
 20
2198.1513970818
 30
0.0
 11
2153.4887583129
 21
2198.1513970818
 31
0.0
  0
LINE
  5
221
  8
0
  6
CONTINUOUS
 62
     7
 10
2152.2887582559
 20
2179.0013783898
 30
0.0
 11
2152.2887582559
 21
2198.1513970818
 31
0.0
  0
ARC
  5
222
  8
0
  6
CONTINUOUS
 62
     7
 10
2135.7887583129
 20
2169.6013522591
 30
0.0
 40
4.099999999999909
 50
90.0
 51
180.0
  0
ARC
  5
223
  8
0
  6
CONTINUOUS
 62
     7
 10
2135.7887583129
 20
2169.6013522591
 30
0.0
 40
5.300000000000182
 50
90.0
 51
180.0
  0
ARC
  5
224
  8
0
  6
CONTINUOUS
 62
     7
 10
2135.7887583129
 20
2044.2013522591
 30
0.0
 40
4.099999999999909
 50
180.0
 51
270.0
  0
ARC
  5
225
  8
0
  6
CONTINUOUS
 62
     7
 10
2135.7887583129
 20
2044.2013522591
 30
0.0
 40
5.300000000000182
 50
180.0
 51
270.0
  0
LINE
  5
226
  8
0
  6
CONTINUOUS
 62
     7
 10
2130.4887582682
 20
2044.2013615097
 30
0.0
 11
2130.4887582682
 21
2169.6013682808
 31
0.0
  0
LINE
  5
227
  8
0
  6
CONTINUOUS
 62
     7
 10
2131.6887580923
 20
2044.2013615097
 30
0.0
 11
2131.6887580923
 21
2169.6013682808
 31
0.0
  0
ARC
  5
228
  8
0
  6
CONTINUOUS
 62
     7
 10
2338.3055886118
 20
1204.1743074989
 30
0.0
 40
65.47011694209209
 50
354.6336888826
 51
9.9490801117
  0
ARC
  5
229
  8
0
  6
CONTINUOUS
 62
     7
 10
2194.6648305525
 20
2191.519762047
 30
0.0
 40
6.735111821673974
 50
74.3406137567
 51
100.0564407444
  0
LINE
  5
22A
  8
0
  6
CONTINUOUS
 62
     7
 10
2196.4827583305
 20
2198.0048888649
 30
0.0
 11
2402.7911455504
 21
1215.485768887
 31
0.0
  0
LINE
  5
22B
  8
0
  6
CONTINUOUS
 62
     7
 10
2156.388758276
 20
2198.1513970818
 30
0.0
 11
2193.4887574188
 21
2198.1513970818
 31
0.0
  0
LINE
  5
22C
  8
0
  6
CONTINUOUS
 62
     7
 10
2403.4887583129
 20
1198.0513506855
 30
0.0
 11
2403.4887583129
 21
1098.0513522222
 31
0.0
  0
LINE
  5
22D
  8
0
  6
CONTINUOUS
 62
     7
 10
2403.4887583129
 20
1095.1513522591
 30
0.0
 11
2156.388758276
 21
1095.1513522591
 31
0.0
  0
LINE
  5
22E
  8
0
  6
CONTINUOUS
 62
     7
 10
2156.388758276
 20
1095.1513522591
 30
0.0
 11
2156.388758276
 21
1098.0513522222
 31
0.0
  0
LINE
  5
22F
  8
0
  6
CONTINUOUS
 62
     7
 10
2403.4887583129
 20
1098.0513522222
 30
0.0
 11
2403.4887583129
 21
1095.1513522591
 31
0.0
  0
LINE
  5
230
  8
0
  6
CONTINUOUS
 62
     7
 10
2153.4887583129
 20
2198.1513970818
 30
0.0
 11
2153.4887583129
 21
1098.0513522222
 31
0.0
  0
LINE
  5
231
  8
0
  6
CONTINUOUS
 62
     7
 10
2156.388758276
 20
1098.0513522222
 30
0.0
 11
2153.4887583129
 21
1098.0513522222
 31
0.0
  0
LINE
  5
232
  8
0
  6
CONTINUOUS
 62
     7
 10
2153.4887583129
 20
2198.1513970818
 30
0.0
 11
2156.388758276
 21
2198.1513970818
 31
0.0
  0
DIMENSION
  5
233
  8
細線
  2
_D_6
 10
2403.4887583129
 20
992.9513522591
 30
0.0
 11
2286.7544027365
 21
992.9513522591
 31
0.0
 70
   160
  1
<>
  3
SLDDIMSTYLE1
 13
2153.4887583129
 23
1098.0513522591
 33
0.0
 14
2403.4887583129
 24
1095.1513522591
 34
0.0
  0
DIMENSION
  5
23D
  8
細線
  2
_D_7
 10
2028.2887583129
 20
2198.1513522591
 30
0.0
 11
2028.2887583129
 21
1624.2101708372
 31
0.0
 70
   160
  1
<>
  3
SLDDIMSTYLE1
 13
2156.3887583129
 23
1095.1513522591
 33
0.0
 14
2153.4887583129
 24
2198.1513522591
 34
0.0
 50
90.0
  0
DIMENSION
  5
247
  8
細線
  2
_D_8
 10
2130.4887583129
 20
2299.2051397766
 30
0.0
 11
2252.4063041114
 21
2299.2051397766
 31
0.0
 70
   160
  1
<>
  3
SLDDIMSTYLE1
 13
2403.4887583129
 23
1198.0513522591
 33
0.0
 14
2130.4887583129
 24
2169.6013522591
 34
0.0
  0
LINE
  5
251
  8
0
  6
CONTINUOUS
 62
     7
 10
1552.7423601674
 20
846.9797615303
 30
0.0
 11
852.5423389004
 21
846.9797615303
 31
0.0
  0
LINE
  5
252
  8
0
  6
CONTINUOUS
 62
     7
 10
817.6423590706
 20
848.1797615873
 30
0.0
 11
817.6423590706
 21
846.9797615303
 31
0.0
  0
LINE
  5
253
  8
0
  6
CONTINUOUS
 62
     7
 10
1587.6423399972
 20
848.1797615873
 30
0.0
 11
817.6423590706
 21
848.1797615873
 31
0.0
  0
LINE
  5
254
  8
0
  6
CONTINUOUS
 62
     7
 10
1587.6423399972
 20
848.1797615873
 30
0.0
 11
1587.6423399972
 21
846.9797615303
 31
0.0
  0
LINE
  5
255
  8
0
  6
CONTINUOUS
 62
     7
 10
1587.6423399972
 20
852.2797613746
 30
0.0
 11
1587.6423399972
 21
848.1797615873
 31
0.0
  0
LINE
  5
256
  8
0
  6
CONTINUOUS
 62
     7
 10
817.6423590706
 20
852.2797613746
 30
0.0
 11
817.6423590706
 21
848.1797615873
 31
0.0
  0
LINE
  5
257
  8
0
  6
CONTINUOUS
 62
     7
 10
1587.6423399972
 20
864.6797612651
 30
0.0
 11
1587.6423399972
 21
852.2797613746
 31
0.0
  0
LINE
  5
258
  8
0
  6
CONTINUOUS
 62
     7
 10
817.6423590706
 20
864.6797612651
 30
0.0
 11
817.6423590706
 21
852.2797613746
 31
0.0
  0
LINE
  5
259
  8
0
  6
CONTINUOUS
 62
     7
 10
1587.6423399972
 20
869.979761575
 30
0.0
 11
817.6423590706
 21
869.979761575
 31
0.0
  0
LINE
  5
25A
  8
0
  6
CONTINUOUS
 62
     7
 10
817.6423590706
 20
869.979761575
 30
0.0
 11
817.6423590706
 21
864.6797612651
 31
0.0
  0
LINE
  5
25B
  8
0
  6
CONTINUOUS
 62
     7
 10
1587.6423399972
 20
869.979761575
 30
0.0
 11
1587.6423399972
 21
864.6797612651
 31
0.0
  0
LINE
  5
25C
  8
0
  6
CONTINUOUS
 62
     7
 10
852.5423389004
 20
606.9797668947
 30
0.0
 11
842.5423484372
 21
596.9797615303
 31
0.0
  0
LINE
  5
25D
  8
0
  6
CONTINUOUS
 62
     7
 10
815.442351632
 20
596.9797615303
 30
0.0
 11
842.5423484372
 21
596.9797615303
 31
0.0
  0
LINE
  5
25E
  8
0
  6
CONTINUOUS
 62
     7
 10
852.5423389004
 20
844.0797615672
 30
0.0
 11
815.442351632
 21
844.0797615672
 31
0.0
  0
LINE
  5
25F
  8
0
  6
CONTINUOUS
 62
     7
 10
852.5423389004
 20
606.9797668947
 30
0.0
 11
852.5423389004
 21
844.0797615672
 31
0.0
  0
CIRCLE
  5
260
  8
0
  6
CONTINUOUS
 62
     7
 10
837.5423495339
 20
621.9797615303
 30
0.0
 40
6.5
  0
CIRCLE
  5
261
  8
0
  6
CONTINUOUS
 62
     7
 10
837.5423495339
 20
821.9797615303
 30
0.0
 40
6.5
  0
LINE
  5
262
  8
0
  6
CONTINUOUS
 62
     7
 10
815.442351632
 20
844.0797615672
 30
0.0
 11
812.5423472451
 21
844.0797615672
 31
0.0
  0
LINE
  5
263
  8
0
  6
CONTINUOUS
 62
     7
 10
812.5423472451
 20
596.9797615303
 30
0.0
 11
815.442351632
 21
596.9797615303
 31
0.0
  0
LINE
  5
264
  8
0
  6
CONTINUOUS
 62
     7
 10
812.5423472451
 20
844.0797615672
 30
0.0
 11
812.5423472451
 21
596.9797615303
 31
0.0
  0
ARC
  5
265
  8
0
  6
CONTINUOUS
 62
     7
 10
815.4423495339
 20
844.0797615303
 30
0.0
 40
1.700000000000045
 50
90.0
 51
180.0
  0
ARC
  5
266
  8
0
  6
CONTINUOUS
 62
     7
 10
815.4423495339
 20
844.0797615303
 30
0.0
 40
2.900000000000091
 50
90.0
 51
180.0
  0
LINE
  5
267
  8
0
  6
CONTINUOUS
 62
     7
 10
852.5423389004
 20
846.9797615303
 30
0.0
 11
815.442351632
 21
846.9797615303
 31
0.0
  0
LINE
  5
268
  8
0
  6
CONTINUOUS
 62
     7
 10
852.5423389004
 20
846.9797615303
 30
0.0
 11
852.5423389004
 21
845.7797614733
 31
0.0
  0
LINE
  5
269
  8
0
  6
CONTINUOUS
 62
     7
 10
852.5423389004
 20
845.7797614733
 30
0.0
 11
815.442351632
 21
845.7797614733
 31
0.0
  0
POLYLINE
  5
26A
  8
0
  6
CONTINUOUS
 62
     7
 66
     1
 10
0.0
 20
0.0
 30
0.0
 70
   128
  0
VERTEX
  5
451
  8
0
  6
CONTINUOUS
 62
     7
 10
814.1752760933
 20
596.9797615303
 30
0.0
  0
VERTEX
  5
452
  8
0
  6
CONTINUOUS
 62
     7
 10
813.9923494385
 20
596.8790296806
 30
0.0
  0
VERTEX
  5
453
  8
0
  6
CONTINUOUS
 62
     7
 10
812.9308801221
 20
596.739286591
 30
0.0
  0
VERTEX
  5
454
  8
0
  6
CONTINUOUS
 62
     7
 10
812.5423472451
 20
596.9797615303
 30
0.0
  0
SEQEND
  5
841
  8
0
  6
CONTINUOUS
 62
     7
  0
LINE
  5
26B
  8
0
  6
CONTINUOUS
 62
     7
 10
842.8739290761
 20
625.6978754295
 30
0.0
 11
833.710102372
 21
616.7296413673
 31
0.0
  0
LINE
  5
26C
  8
0
  6
CONTINUOUS
 62
     7
 10
843.3192353772
 20
624.959299375
 30
0.0
 11
834.4388883637
 21
616.2684951319
 31
0.0
  0
LINE
  5
26D
  8
0
  6
CONTINUOUS
 62
     7
 10
1552.7423601674
 20
844.0797615672
 30
0.0
 11
1589.8423474358
 21
844.0797615672
 31
0.0
  0
LINE
  5
26E
  8
0
  6
CONTINUOUS
 62
     7
 10
1589.8423474358
 20
596.9797615303
 30
0.0
 11
1562.7423506306
 21
596.9797615303
 31
0.0
  0
LINE
  5
26F
  8
0
  6
CONTINUOUS
 62
     7
 10
1552.7423601674
 20
606.9797668947
 30
0.0
 11
1562.7423506306
 21
596.9797615303
 31
0.0
  0
LINE
  5
270
  8
0
  6
CONTINUOUS
 62
     7
 10
1552.7423601674
 20
606.9797668947
 30
0.0
 11
1552.7423601674
 21
844.0797615672
 31
0.0
  0
CIRCLE
  5
271
  8
0
  6
CONTINUOUS
 62
     7
 10
1567.7423495339
 20
621.9797615303
 30
0.0
 40
6.5
  0
CIRCLE
  5
272
  8
0
  6
CONTINUOUS
 62
     7
 10
1567.7423495339
 20
821.9797615303
 30
0.0
 40
6.5
  0
LINE
  5
273
  8
0
  6
CONTINUOUS
 62
     7
 10
1589.8423474358
 20
844.0797615672
 30
0.0
 11
1592.7423518227
 21
844.0797615672
 31
0.0
  0
LINE
  5
274
  8
0
  6
CONTINUOUS
 62
     7
 10
1592.7423518227
 20
844.0797615672
 30
0.0
 11
1592.7423518227
 21
596.9797615303
 31
0.0
  0
LINE
  5
275
  8
0
  6
CONTINUOUS
 62
     7
 10
1592.7423518227
 20
596.9797615303
 30
0.0
 11
1589.8423474358
 21
596.9797615303
 31
0.0
  0
ARC
  5
276
  8
0
  6
CONTINUOUS
 62
     7
 10
1589.8423495339
 20
844.0797615303
 30
0.0
 40
2.900000000000091
 50
0.0
 51
90.0
  0
ARC
  5
277
  8
0
  6
CONTINUOUS
 62
     7
 10
1589.8423495339
 20
844.0797615303
 30
0.0
 40
1.700000000000045
 50
0.0
 51
90.0
  0
LINE
  5
278
  8
0
  6
CONTINUOUS
 62
     7
 10
1552.7423601674
 20
846.9797615303
 30
0.0
 11
1552.7423601674
 21
845.7797614733
 31
0.0
  0
LINE
  5
279
  8
0
  6
CONTINUOUS
 62
     7
 10
1552.7423601674
 20
846.9797615303
 30
0.0
 11
1589.8423474358
 21
846.9797615303
 31
0.0
  0
LINE
  5
27A
  8
0
  6
CONTINUOUS
 62
     7
 10
1552.7423601674
 20
845.7797614733
 30
0.0
 11
1589.8423474358
 21
845.7797614733
 31
0.0
  0
POLYLINE
  5
27B
  8
0
  6
CONTINUOUS
 62
     7
 66
     1
 10
0.0
 20
0.0
 30
0.0
 70
   128
  0
VERTEX
  5
455
  8
0
  6
CONTINUOUS
 62
     7
 10
1591.1094229745
 20
596.9797615303
 30
0.0
  0
VERTEX
  5
456
  8
0
  6
CONTINUOUS
 62
     7
 10
1591.2923496293
 20
596.8790296806
 30
0.0
  0
VERTEX
  5
457
  8
0
  6
CONTINUOUS
 62
     7
 10
1592.3538189458
 20
596.739286591
 30
0.0
  0
VERTEX
  5
458
  8
0
  6
CONTINUOUS
 62
     7
 10
1592.7423518227
 20
596.9797615303
 30
0.0
  0
SEQEND
  5
842
  8
0
  6
CONTINUOUS
 62
     7
  0
LINE
  5
27C
  8
0
  6
CONTINUOUS
 62
     7
 10
1562.4107699917
 20
625.6978754295
 30
0.0
 11
1571.5745966958
 21
616.7296413673
 31
0.0
  0
LINE
  5
27D
  8
0
  6
CONTINUOUS
 62
     7
 10
1561.9654636906
 20
624.959299375
 30
0.0
 11
1570.8458107041
 21
616.2684951319
 31
0.0
  0
DIMENSION
  5
27E
  8
細線
  2
_D_9
 10
728.1861956611
 20
621.9797615303
 30
0.0
 11
728.1861956611
 21
527.4885938958
 31
0.0
 70
   160
  1
<>
  3
SLDDIMSTYLE0
 13
812.5423495339
 23
596.9797615303
 33
0.0
 14
837.5423495339
 24
621.9797615303
 34
0.0
 50
90.0
  0
DIMENSION
  5
28A
  8
細線
  2
_D_10
 10
728.1861956611
 20
821.9797615303
 30
0.0
 11
728.1861956611
 21
735.2683163559
 31
0.0
 70
   160
  1
<>
  3
SLDDIMSTYLE1
 13
837.5423495339
 23
621.9797615303
 33
0.0
 14
837.5423495339
 24
821.9797615303
 34
0.0
 50
90.0
  0
DIMENSION
  5
294
  8
細線
  2
_D_11
 10
1567.7423495339
 20
969.9797615303
 30
0.0
 11
1187.7686452345
 21
969.9797615303
 31
0.0
 70
   160
  1
<>
  3
SLDDIMSTYLE1
 13
837.5423495339
 23
821.9797615303
 33
0.0
 14
1567.7423495339
 24
821.9797615303
 34
0.0
  0
DIMENSION
  5
29E
  8
細線
  2
_D_12
 10
1549.8142919191
 20
556.5244231788
 30
0.0
 11
1187.7686452345
 21
655.6878432513
 31
0.0
 70
   160
  1
<>
  3
SLDDIMSTYLE1
 13
837.5423495339
 23
821.9797615303
 33
0.0
 14
1567.7423495339
 24
621.9797615303
 34
0.0
 50
-15.3175106906
  0
DIMENSION
  5
2A8
  8
細線
  2
_D_13
 10
842.138543605
 20
817.383567446
 30
0.0
 11
729.6005092215
 21
929.9218021529
 31
0.0
 70
   163
  1
4-<>
  3
SLDDIMSTYLE3
 15
832.9461554628
 25
826.5759556146
 35
0.0
 40
0.0
  0
LINE
  5
2B3
  8
0
  6
CONTINUOUS
 62
     7
 10
2971.0878685675
 20
2241.377724727
 30
0.0
 11
3515.5600765941
 21
1927.0606094611
 31
0.0
  0
LINE
  5
2B4
  8
0
  6
CONTINUOUS
 62
     7
 10
3529.627769372
 20
1933.6269888022
 30
0.0
 11
3515.310737814
 21
1941.8920351942
 31
0.0
  0
LINE
  5
2B5
  8
0
  6
CONTINUOUS
 62
     7
 10
2971.0878685675
 20
2608.8210803416
 30
0.0
 11
3515.5600765941
 21
2294.5039650758
 31
0.0
  0
LINE
  5
2B6
  8
0
  6
CONTINUOUS
 62
     7
 10
3529.627769372
 20
2301.0703687517
 30
0.0
 11
3515.310737814
 21
2309.3354151437
 31
0.0
  0
LINE
  5
2B7
  8
0
  6
CONTINUOUS
 62
     7
 10
2983.8484130176
 20
2748.4247048281
 30
0.0
 11
2983.8484130176
 21
2726.3504990533
 31
0.0
  0
LINE
  5
2B8
  8
0
  6
CONTINUOUS
 62
     7
 10
2983.8484130176
 20
2601.4546046224
 30
0.0
 11
2983.8484130176
 21
2358.9071434386
 31
0.0
  0
LINE
  5
2B9
  8
0
  6
CONTINUOUS
 62
     7
 10
2983.8484130176
 20
2234.011224673
 30
0.0
 11
2983.8484130176
 21
1850.1481210429
 31
0.0
  0
LINE
  5
2BA
  8
0
  6
CONTINUOUS
 62
     7
 10
3160.207984947
 20
2040.1459347711
 30
0.0
 11
3160.3537498225
 21
2041.8352010232
 31
0.0
  0
LINE
  5
2BB
  8
0
  6
CONTINUOUS
 62
     7
 10
3710.445586822
 20
1724.2919998391
 30
0.0
 11
3563.4715181632
 21
2447.7181330532
 31
0.0
  0
LINE
  5
2BC
  8
0
  6
CONTINUOUS
 62
     7
 10
3535.7817942068
 20
1531.5233540012
 30
0.0
 11
3710.5078798641
 21
1632.390576232
 31
0.0
  0
LINE
  5
2BD
  8
0
  6
CONTINUOUS
 62
     7
 10
3529.8771224755
 20
2064.09249718
 30
0.0
 11
3530.7256506533
 21
2064.5823420703
 31
0.0
  0
LINE
  5
2BE
  8
0
  6
CONTINUOUS
 62
     7
 10
3529.8771224755
 20
2064.09249718
 30
0.0
 11
2985.4049144489
 21
2378.4096124458
 31
0.0
  0
LINE
  5
2BF
  8
0
  6
CONTINUOUS
 62
     7
 10
2985.4049144489
 20
2378.4096124458
 30
0.0
 11
2986.2534426266
 21
2378.8994573362
 31
0.0
  0
LINE
  5
2C0
  8
0
  6
CONTINUOUS
 62
     7
 10
3530.7256506533
 20
2064.5823420703
 30
0.0
 11
2986.2534426266
 21
2378.8994573362
 31
0.0
  0
POLYLINE
  5
2C1
  8
0
  6
CONTINUOUS
 62
     7
 66
     1
 10
0.0
 20
0.0
 30
0.0
 70
   128
  0
VERTEX
  5
459
  8
0
  6
CONTINUOUS
 62
     7
 10
2996.7186248023
 20
2362.6922467727
 30
0.0
  0
VERTEX
  5
45A
  8
0
  6
CONTINUOUS
 62
     7
 10
2996.8442856312
 20
2363.5824381732
 30
0.0
  0
VERTEX
  5
45B
  8
0
  6
CONTINUOUS
 62
     7
 10
2997.2100781294
 20
2364.2484433108
 30
0.0
  0
VERTEX
  5
45C
  8
0
  6
CONTINUOUS
 62
     7
 10
2997.7835492237
 20
2364.6310768764
 30
0.0
  0
VERTEX
  5
45D
  8
0
  6
CONTINUOUS
 62
     7
 10
2998.5137012273
 20
2364.6963626864
 30
0.0
  0
VERTEX
  5
45E
  8
0
  6
CONTINUOUS
 62
     7
 10
2999.3356701403
 20
2364.4385273038
 30
0.0
  0
VERTEX
  5
45F
  8
0
  6
CONTINUOUS
 62
     7
 10
3000.1764365479
 20
2363.8804020986
 30
0.0
  0
VERTEX
  5
460
  8
0
  6
CONTINUOUS
 62
     7
 10
3000.961253014
 20
2363.0716109071
 30
0.0
  0
VERTEX
  5
461
  8
0
  6
CONTINUOUS
 62
     7
 10
3001.6204297247
 20
2362.0840687284
 30
0.0
  0
VERTEX
  5
462
  8
0
  6
CONTINUOUS
 62
     7
 10
3002.0953614871
 20
2361.0054848953
 30
0.0
  0
VERTEX
  5
463
  8
0
  6
CONTINUOUS
 62
     7
 10
3002.3438803794
 20
2359.9316494404
 30
0.0
  0
VERTEX
  5
464
  8
0
  6
CONTINUOUS
 62
     7
 10
3002.3438803794
 20
2358.9580622611
 30
0.0
  0
VERTEX
  5
465
  8
0
  6
CONTINUOUS
 62
     7
 10
3002.0953614871
 20
2358.1712092812
 30
0.0
  0
VERTEX
  5
466
  8
0
  6
CONTINUOUS
 62
     7
 10
3001.6204297247
 20
2357.6409699892
 30
0.0
  0
VERTEX
  5
467
  8
0
  6
CONTINUOUS
 62
     7
 10
3000.961253014
 20
2357.4144483713
 30
0.0
  0
VERTEX
  5
468
  8
0
  6
CONTINUOUS
 62
     7
 10
3000.1764365479
 20
2357.5118356536
 30
0.0
  0
VERTEX
  5
469
  8
0
  6
CONTINUOUS
 62
     7
 10
2999.3356701403
 20
2357.92443868
 30
0.0
  0
VERTEX
  5
46A
  8
0
  6
CONTINUOUS
 62
     7
 10
2998.5137012273
 20
2358.6155797343
 30
0.0
  0
VERTEX
  5
46B
  8
0
  6
CONTINUOUS
 62
     7
 10
2997.7835492237
 20
2359.5239297732
 30
0.0
  0
VERTEX
  5
46C
  8
0
  6
CONTINUOUS
 62
     7
 10
2997.2100781294
 20
2360.5686789707
 30
0.0
  0
VERTEX
  5
46D
  8
0
  6
CONTINUOUS
 62
     7
 10
2996.8442856312
 20
2361.6570191371
 30
0.0
  0
VERTEX
  5
46E
  8
0
  6
CONTINUOUS
 62
     7
 10
2996.7186248023
 20
2362.6922467727
 30
0.0
  0
SEQEND
  5
843
  8
0
  6
CONTINUOUS
 62
     7
  0
LINE
  5
2C2
  8
0
  6
CONTINUOUS
 62
     7
 10
3529.8771224755
 20
2048.4557253696
 30
0.0
 11
3529.8771224755
 21
2064.09249718
 31
0.0
  0
LINE
  5
2C3
  8
0
  6
CONTINUOUS
 62
     7
 10
2985.4049144489
 20
2362.7728406354
 30
0.0
 11
2985.4049144489
 21
2378.4096124458
 31
0.0
  0
POLYLINE
  5
2C4
  8
0
  6
CONTINUOUS
 62
     7
 66
     1
 10
0.0
 20
0.0
 30
0.0
 70
   128
  0
VERTEX
  5
46F
  8
0
  6
CONTINUOUS
 62
     7
 10
3518.5634121221
 20
2061.4376634371
 30
0.0
  0
VERTEX
  5
470
  8
0
  6
CONTINUOUS
 62
     7
 10
3518.4377512932
 20
2062.4729397424
 30
0.0
  0
VERTEX
  5
471
  8
0
  6
CONTINUOUS
 62
     7
 10
3518.071958795
 20
2063.5612799088
 30
0.0
  0
VERTEX
  5
472
  8
0
  6
CONTINUOUS
 62
     7
 10
3517.4984877008
 20
2064.6060291063
 30
0.0
  0
VERTEX
  5
473
  8
0
  6
CONTINUOUS
 62
     7
 10
3516.7683356972
 20
2065.5143304756
 30
0.0
  0
VERTEX
  5
474
  8
0
  6
CONTINUOUS
 62
     7
 10
3515.9463667841
 20
2066.2055201995
 30
0.0
  0
VERTEX
  5
475
  8
0
  6
CONTINUOUS
 62
     7
 10
3515.1056003766
 20
2066.6181232258
 30
0.0
  0
VERTEX
  5
476
  8
0
  6
CONTINUOUS
 62
     7
 10
3514.3207839104
 20
2066.7154618386
 30
0.0
  0
VERTEX
  5
477
  8
0
  6
CONTINUOUS
 62
     7
 10
3513.6616071997
 20
2066.4889888903
 30
0.0
  0
VERTEX
  5
478
  8
0
  6
CONTINUOUS
 62
     7
 10
3513.1866754373
 20
2065.9587495982
 30
0.0
  0
VERTEX
  5
479
  8
0
  6
CONTINUOUS
 62
     7
 10
3512.938156545
 20
2065.1718479487
 30
0.0
  0
VERTEX
  5
47A
  8
0
  6
CONTINUOUS
 62
     7
 10
3512.938156545
 20
2064.1982607695
 30
0.0
  0
VERTEX
  5
47B
  8
0
  6
CONTINUOUS
 62
     7
 10
3513.1866754373
 20
2063.1244739842
 30
0.0
  0
VERTEX
  5
47C
  8
0
  6
CONTINUOUS
 62
     7
 10
3513.6616071997
 20
2062.045890151
 30
0.0
  0
VERTEX
  5
47D
  8
0
  6
CONTINUOUS
 62
     7
 10
3514.3207839104
 20
2061.0582993028
 30
0.0
  0
VERTEX
  5
47E
  8
0
  6
CONTINUOUS
 62
     7
 10
3515.1056003766
 20
2060.2495567808
 30
0.0
  0
VERTEX
  5
47F
  8
0
  6
CONTINUOUS
 62
     7
 10
3515.9463667841
 20
2059.6914315756
 30
0.0
  0
VERTEX
  5
480
  8
0
  6
CONTINUOUS
 62
     7
 10
3516.7683356972
 20
2059.4335475234
 30
0.0
  0
VERTEX
  5
481
  8
0
  6
CONTINUOUS
 62
     7
 10
3517.4984877008
 20
2059.498882003
 30
0.0
  0
VERTEX
  5
482
  8
0
  6
CONTINUOUS
 62
     7
 10
3518.071958795
 20
2059.8815155686
 30
0.0
  0
VERTEX
  5
483
  8
0
  6
CONTINUOUS
 62
     7
 10
3518.4377512932
 20
2060.5475207063
 30
0.0
  0
VERTEX
  5
484
  8
0
  6
CONTINUOUS
 62
     7
 10
3518.5634121221
 20
2061.4376634371
 30
0.0
  0
SEQEND
  5
844
  8
0
  6
CONTINUOUS
 62
     7
  0
LINE
  5
2C5
  8
0
  6
CONTINUOUS
 62
     7
 10
3530.7256506533
 20
2048.9455702599
 30
0.0
 11
3530.7256506533
 21
2064.5823420703
 31
0.0
  0
ARC
  5
2C6
  8
0
  6
CONTINUOUS
 62
     7
 10
3521.6050926675
 20
2032.0848281375
 30
0.0
 40
6.300884662333266
 50
122.6053892856
 51
177.3943250155
  0
ARC
  5
2C7
  8
0
  6
CONTINUOUS
 62
     7
 10
3522.5989323531
 20
2031.5111052888
 30
0.0
 40
8.145160743663249
 50
122.6058191139
 51
177.3940877304
  0
ARC
  5
2C8
  8
0
  6
CONTINUOUS
 62
     7
 10
2978.1267243265
 20
2345.8282205547
 30
0.0
 40
8.14516074366515
 50
122.6058191139
 51
177.3940877304
  0
LINE
  5
2C9
  8
0
  6
CONTINUOUS
 62
     7
 10
3146.0595631735
 20
2188.4593795236
 30
0.0
 11
3126.2605753233
 21
2199.8890919212
 31
0.0
  0
POLYLINE
  5
2CA
  8
0
  6
CONTINUOUS
 62
     7
 66
     1
 10
0.0
 20
0.0
 30
0.0
 70
   128
  0
VERTEX
  5
485
  8
0
  6
CONTINUOUS
 62
     7
 10
3146.0595631735
 20
2198.2578404538
 30
0.0
  0
VERTEX
  5
486
  8
0
  6
CONTINUOUS
 62
     7
 10
3147.1576466278
 20
2197.4569935548
 30
0.0
  0
VERTEX
  5
487
  8
0
  6
CONTINUOUS
 62
     7
 10
3148.180887816
 20
2196.376867241
 30
0.0
  0
VERTEX
  5
488
  8
0
  6
CONTINUOUS
 62
     7
 10
3149.0595653137
 20
2195.091049527
 30
0.0
  0
VERTEX
  5
489
  8
0
  6
CONTINUOUS
 62
     7
 10
3149.7337989861
 20
2193.6871583701
 30
0.0
  0
VERTEX
  5
48A
  8
0
  6
CONTINUOUS
 62
     7
 10
3150.1576487681
 20
2192.2608739425
 30
0.0
  0
VERTEX
  5
48B
  8
0
  6
CONTINUOUS
 62
     7
 10
3150.3022124585
 20
2190.9093806897
 30
0.0
  0
VERTEX
  5
48C
  8
0
  6
CONTINUOUS
 62
     7
 10
3150.1576487681
 20
2189.7248457907
 30
0.0
  0
VERTEX
  5
48D
  8
0
  6
CONTINUOUS
 62
     7
 10
3149.7337989861
 20
2188.7878792354
 30
0.0
  0
VERTEX
  5
48E
  8
0
  6
CONTINUOUS
 62
     7
 10
3149.0595653137
 20
2188.1624417067
 30
0.0
  0
VERTEX
  5
48F
  8
0
  6
CONTINUOUS
 62
     7
 10
3148.180887816
 20
2187.8911234373
 30
0.0
  0
VERTEX
  5
490
  8
0
  6
CONTINUOUS
 62
     7
 10
3147.1576466278
 20
2187.9924062524
 30
0.0
  0
VERTEX
  5
491
  8
0
  6
CONTINUOUS
 62
     7
 10
3146.0595631735
 20
2188.4593795236
 30
0.0
  0
SEQEND
  5
845
  8
0
  6
CONTINUOUS
 62
     7
  0
LINE
  5
2CB
  8
0
  6
CONTINUOUS
 62
     7
 10
3126.2605753233
 20
2209.6875528514
 30
0.0
 11
3146.0595631735
 21
2198.2578404538
 31
0.0
  0
POLYLINE
  5
2CC
  8
0
  6
CONTINUOUS
 62
     7
 66
     1
 10
0.0
 20
0.0
 30
0.0
 70
   128
  0
VERTEX
  5
492
  8
0
  6
CONTINUOUS
 62
     7
 10
3126.2605753233
 20
2199.8890919212
 30
0.0
  0
VERTEX
  5
493
  8
0
  6
CONTINUOUS
 62
     7
 10
3125.1625024056
 20
2200.6899327374
 30
0.0
  0
VERTEX
  5
494
  8
0
  6
CONTINUOUS
 62
     7
 10
3124.1392612174
 20
2201.7700590512
 30
0.0
  0
VERTEX
  5
495
  8
0
  6
CONTINUOUS
 62
     7
 10
3123.2605837197
 20
2203.0558767653
 30
0.0
  0
VERTEX
  5
496
  8
0
  6
CONTINUOUS
 62
     7
 10
3122.5863395106
 20
2204.4597740049
 30
0.0
  0
VERTEX
  5
497
  8
0
  6
CONTINUOUS
 62
     7
 10
3122.1625002653
 20
2205.8861010194
 30
0.0
  0
VERTEX
  5
498
  8
0
  6
CONTINUOUS
 62
     7
 10
3122.0179365749
 20
2207.2375456026
 30
0.0
  0
VERTEX
  5
499
  8
0
  6
CONTINUOUS
 62
     7
 10
3122.1625002653
 20
2208.4221291712
 30
0.0
  0
VERTEX
  5
49A
  8
0
  6
CONTINUOUS
 62
     7
 10
3122.5863395106
 20
2209.3590531396
 30
0.0
  0
VERTEX
  5
49B
  8
0
  6
CONTINUOUS
 62
     7
 10
3123.2605837197
 20
2209.9844845856
 30
0.0
  0
VERTEX
  5
49C
  8
0
  6
CONTINUOUS
 62
     7
 10
3124.1392612174
 20
2210.2558028549
 30
0.0
  0
VERTEX
  5
49D
  8
0
  6
CONTINUOUS
 62
     7
 10
3125.1625024056
 20
2210.1545200399
 30
0.0
  0
VERTEX
  5
49E
  8
0
  6
CONTINUOUS
 62
     7
 10
3126.2605753233
 20
2209.6875528514
 30
0.0
  0
SEQEND
  5
846
  8
0
  6
CONTINUOUS
 62
     7
  0
LINE
  5
2CD
  8
0
  6
CONTINUOUS
 62
     7
 10
3188.4859769989
 20
2163.9671321543
 30
0.0
 11
3168.6869838803
 21
2175.3968475933
 31
0.0
  0
POLYLINE
  5
2CE
  8
0
  6
CONTINUOUS
 62
     7
 66
     1
 10
0.0
 20
0.0
 30
0.0
 70
   128
  0
VERTEX
  5
49F
  8
0
  6
CONTINUOUS
 62
     7
 10
3188.4859769989
 20
2173.7655930845
 30
0.0
  0
VERTEX
  5
4A0
  8
0
  6
CONTINUOUS
 62
     7
 10
3189.5840499166
 20
2172.9647522683
 30
0.0
  0
VERTEX
  5
4A1
  8
0
  6
CONTINUOUS
 62
     7
 10
3190.6072963731
 20
2171.8846229131
 30
0.0
  0
VERTEX
  5
4A2
  8
0
  6
CONTINUOUS
 62
     7
 10
3191.4859738708
 20
2170.5988051991
 30
0.0
  0
VERTEX
  5
4A3
  8
0
  6
CONTINUOUS
 62
     7
 10
3192.1602075432
 20
2169.1949140422
 30
0.0
  0
VERTEX
  5
4A4
  8
0
  6
CONTINUOUS
 62
     7
 10
3192.5840520568
 20
2167.7686326559
 30
0.0
  0
VERTEX
  5
4A5
  8
0
  6
CONTINUOUS
 62
     7
 10
3192.7286157472
 20
2166.4171394032
 30
0.0
  0
VERTEX
  5
4A6
  8
0
  6
CONTINUOUS
 62
     7
 10
3192.5840520568
 20
2165.2326045041
 30
0.0
  0
VERTEX
  5
4A7
  8
0
  6
CONTINUOUS
 62
     7
 10
3192.1602075432
 20
2164.2956349075
 30
0.0
  0
VERTEX
  5
4A8
  8
0
  6
CONTINUOUS
 62
     7
 10
3191.4859738708
 20
2163.6701973788
 30
0.0
  0
VERTEX
  5
4A9
  8
0
  6
CONTINUOUS
 62
     7
 10
3190.6072963731
 20
2163.3988791094
 30
0.0
  0
VERTEX
  5
4AA
  8
0
  6
CONTINUOUS
 62
     7
 10
3189.5840499166
 20
2163.5001649658
 30
0.0
  0
VERTEX
  5
4AB
  8
0
  6
CONTINUOUS
 62
     7
 10
3188.4859769989
 20
2163.9671321543
 30
0.0
  0
SEQEND
  5
847
  8
0
  6
CONTINUOUS
 62
     7
  0
LINE
  5
2CF
  8
0
  6
CONTINUOUS
 62
     7
 10
3168.6869838803
 20
2185.1953085235
 30
0.0
 11
3188.4859769989
 21
2173.7655930845
 31
0.0
  0
POLYLINE
  5
2D0
  8
0
  6
CONTINUOUS
 62
     7
 66
     1
 10
0.0
 20
0.0
 30
0.0
 70
   128
  0
VERTEX
  5
4AC
  8
0
  6
CONTINUOUS
 62
     7
 10
3168.6869838803
 20
2175.3968475933
 30
0.0
  0
VERTEX
  5
4AD
  8
0
  6
CONTINUOUS
 62
     7
 10
3167.5889109627
 20
2176.1976884095
 30
0.0
  0
VERTEX
  5
4AE
  8
0
  6
CONTINUOUS
 62
     7
 10
3166.5656645062
 20
2177.2778177647
 30
0.0
  0
VERTEX
  5
4AF
  8
0
  6
CONTINUOUS
 62
     7
 10
3165.6869870084
 20
2178.5636354787
 30
0.0
  0
VERTEX
  5
4B0
  8
0
  6
CONTINUOUS
 62
     7
 10
3165.0127533361
 20
2179.9675266356
 30
0.0
  0
VERTEX
  5
4B1
  8
0
  6
CONTINUOUS
 62
     7
 10
3164.5889088224
 20
2181.3938566915
 30
0.0
  0
VERTEX
  5
4B2
  8
0
  6
CONTINUOUS
 62
     7
 10
3164.444345132
 20
2182.7453012746
 30
0.0
  0
VERTEX
  5
4B3
  8
0
  6
CONTINUOUS
 62
     7
 10
3164.5889088224
 20
2183.9298848433
 30
0.0
  0
VERTEX
  5
4B4
  8
0
  6
CONTINUOUS
 62
     7
 10
3165.0127533361
 20
2184.8668057703
 30
0.0
  0
VERTEX
  5
4B5
  8
0
  6
CONTINUOUS
 62
     7
 10
3165.6869870084
 20
2185.492243299
 30
0.0
  0
VERTEX
  5
4B6
  8
0
  6
CONTINUOUS
 62
     7
 10
3166.5656645062
 20
2185.7635615684
 30
0.0
  0
VERTEX
  5
4B7
  8
0
  6
CONTINUOUS
 62
     7
 10
3167.5889109627
 20
2185.662275712
 30
0.0
  0
VERTEX
  5
4B8
  8
0
  6
CONTINUOUS
 62
     7
 10
3168.6869838803
 20
2185.1953085235
 30
0.0
  0
SEQEND
  5
848
  8
0
  6
CONTINUOUS
 62
     7
  0
LINE
  5
2D1
  8
0
  6
CONTINUOUS
 62
     7
 10
3103.6331651531
 20
2212.9516177688
 30
0.0
 11
3083.8341667662
 21
2224.3813362491
 31
0.0
  0
POLYLINE
  5
2D2
  8
0
  6
CONTINUOUS
 62
     7
 66
     1
 10
0.0
 20
0.0
 30
0.0
 70
   128
  0
VERTEX
  5
4B9
  8
0
  6
CONTINUOUS
 62
     7
 10
3103.6331651531
 20
2222.750078699
 30
0.0
  0
VERTEX
  5
4BA
  8
0
  6
CONTINUOUS
 62
     7
 10
3104.7312380708
 20
2221.9492378828
 30
0.0
  0
VERTEX
  5
4BB
  8
0
  6
CONTINUOUS
 62
     7
 10
3105.7544792589
 20
2220.869111569
 30
0.0
  0
VERTEX
  5
4BC
  8
0
  6
CONTINUOUS
 62
     7
 10
3106.6331567567
 20
2219.5832938549
 30
0.0
  0
VERTEX
  5
4BD
  8
0
  6
CONTINUOUS
 62
     7
 10
3107.3074009657
 20
2218.1793966153
 30
0.0
  0
VERTEX
  5
4BE
  8
0
  6
CONTINUOUS
 62
     7
 10
3107.7312402111
 20
2216.7531182704
 30
0.0
  0
VERTEX
  5
4BF
  8
0
  6
CONTINUOUS
 62
     7
 10
3107.8758039015
 20
2215.4016250176
 30
0.0
  0
VERTEX
  5
4C0
  8
0
  6
CONTINUOUS
 62
     7
 10
3107.7312402111
 20
2214.2170901186
 30
0.0
  0
VERTEX
  5
4C1
  8
0
  6
CONTINUOUS
 62
     7
 10
3107.3074009657
 20
2213.2801174806
 30
0.0
  0
VERTEX
  5
4C2
  8
0
  6
CONTINUOUS
 62
     7
 10
3106.6331567567
 20
2212.6546860346
 30
0.0
  0
VERTEX
  5
4C3
  8
0
  6
CONTINUOUS
 62
     7
 10
3105.7544792589
 20
2212.3833677653
 30
0.0
  0
VERTEX
  5
4C4
  8
0
  6
CONTINUOUS
 62
     7
 10
3104.7312380708
 20
2212.4846505803
 30
0.0
  0
VERTEX
  5
4C5
  8
0
  6
CONTINUOUS
 62
     7
 10
3103.6331651531
 20
2212.9516177688
 30
0.0
  0
SEQEND
  5
849
  8
0
  6
CONTINUOUS
 62
     7
  0
LINE
  5
2D3
  8
0
  6
CONTINUOUS
 62
     7
 10
3083.8341667662
 20
2234.1797971793
 30
0.0
 11
3103.6331651531
 21
2222.750078699
 31
0.0
  0
POLYLINE
  5
2D4
  8
0
  6
CONTINUOUS
 62
     7
 66
     1
 10
0.0
 20
0.0
 30
0.0
 70
   128
  0
VERTEX
  5
4C6
  8
0
  6
CONTINUOUS
 62
     7
 10
3083.8341667662
 20
2224.3813362491
 30
0.0
  0
VERTEX
  5
4C7
  8
0
  6
CONTINUOUS
 62
     7
 10
3082.7360938485
 20
2225.1821770653
 30
0.0
  0
VERTEX
  5
4C8
  8
0
  6
CONTINUOUS
 62
     7
 10
3081.7128526604
 20
2226.2623033791
 30
0.0
  0
VERTEX
  5
4C9
  8
0
  6
CONTINUOUS
 62
     7
 10
3080.8341751626
 20
2227.5481210932
 30
0.0
  0
VERTEX
  5
4CA
  8
0
  6
CONTINUOUS
 62
     7
 10
3080.1599414903
 20
2228.9520122501
 30
0.0
  0
VERTEX
  5
4CB
  8
0
  6
CONTINUOUS
 62
     7
 10
3079.7360917082
 20
2230.3783453473
 30
0.0
  0
VERTEX
  5
4CC
  8
0
  6
CONTINUOUS
 62
     7
 10
3079.5915280178
 20
2231.7297899305
 30
0.0
  0
VERTEX
  5
4CD
  8
0
  6
CONTINUOUS
 62
     7
 10
3079.7360917082
 20
2232.9143734991
 30
0.0
  0
VERTEX
  5
4CE
  8
0
  6
CONTINUOUS
 62
     7
 10
3080.1599414903
 20
2233.8512913848
 30
0.0
  0
VERTEX
  5
4CF
  8
0
  6
CONTINUOUS
 62
     7
 10
3080.8341751626
 20
2234.4767289135
 30
0.0
  0
VERTEX
  5
4D0
  8
0
  6
CONTINUOUS
 62
     7
 10
3081.7128526604
 20
2234.7480471828
 30
0.0
  0
VERTEX
  5
4D1
  8
0
  6
CONTINUOUS
 62
     7
 10
3082.7360938485
 20
2234.6467643678
 30
0.0
  0
VERTEX
  5
4D2
  8
0
  6
CONTINUOUS
 62
     7
 10
3083.8341667662
 20
2234.1797971793
 30
0.0
  0
SEQEND
  5
84A
  8
0
  6
CONTINUOUS
 62
     7
  0
LINE
  5
2D5
  8
0
  6
CONTINUOUS
 62
     7
 10
3061.2067460593
 20
2237.4438681794
 30
0.0
 11
3041.4077582091
 21
2248.873580577
 31
0.0
  0
POLYLINE
  5
2D6
  8
0
  6
CONTINUOUS
 62
     7
 66
     1
 10
0.0
 20
0.0
 30
0.0
 70
   128
  0
VERTEX
  5
4D3
  8
0
  6
CONTINUOUS
 62
     7
 10
3061.2067460593
 20
2247.2423291096
 30
0.0
  0
VERTEX
  5
4D4
  8
0
  6
CONTINUOUS
 62
     7
 10
3062.3048400504
 20
2246.441476128
 30
0.0
  0
VERTEX
  5
4D5
  8
0
  6
CONTINUOUS
 62
     7
 10
3063.3280812386
 20
2245.3613498142
 30
0.0
  0
VERTEX
  5
4D6
  8
0
  6
CONTINUOUS
 62
     7
 10
3064.2067587363
 20
2244.0755321001
 30
0.0
  0
VERTEX
  5
4D7
  8
0
  6
CONTINUOUS
 62
     7
 10
3064.880981872
 20
2242.6716470259
 30
0.0
  0
VERTEX
  5
4D8
  8
0
  6
CONTINUOUS
 62
     7
 10
3065.304831654
 20
2241.2453625983
 30
0.0
  0
VERTEX
  5
4D9
  8
0
  6
CONTINUOUS
 62
     7
 10
3065.4493953444
 20
2239.8938693455
 30
0.0
  0
VERTEX
  5
4DA
  8
0
  6
CONTINUOUS
 62
     7
 10
3065.304831654
 20
2238.7093344465
 30
0.0
  0
VERTEX
  5
4DB
  8
0
  6
CONTINUOUS
 62
     7
 10
3064.880981872
 20
2237.7723678912
 30
0.0
  0
VERTEX
  5
4DC
  8
0
  6
CONTINUOUS
 62
     7
 10
3064.2067587363
 20
2237.1469242798
 30
0.0
  0
VERTEX
  5
4DD
  8
0
  6
CONTINUOUS
 62
     7
 10
3063.3280812386
 20
2236.8756060105
 30
0.0
  0
VERTEX
  5
4DE
  8
0
  6
CONTINUOUS
 62
     7
 10
3062.3048400504
 20
2236.9768888255
 30
0.0
  0
VERTEX
  5
4DF
  8
0
  6
CONTINUOUS
 62
     7
 10
3061.2067460593
 20
2237.4438681794
 30
0.0
  0
SEQEND
  5
84B
  8
0
  6
CONTINUOUS
 62
     7
  0
LINE
  5
2D7
  8
0
  6
CONTINUOUS
 62
     7
 10
3041.4077582091
 20
2258.6720415072
 30
0.0
 11
3061.2067460593
 21
2247.2423291096
 31
0.0
  0
POLYLINE
  5
2D8
  8
0
  6
CONTINUOUS
 62
     7
 66
     1
 10
0.0
 20
0.0
 30
0.0
 70
   128
  0
VERTEX
  5
4E0
  8
0
  6
CONTINUOUS
 62
     7
 10
3041.4077582091
 20
2248.873580577
 30
0.0
  0
VERTEX
  5
4E1
  8
0
  6
CONTINUOUS
 62
     7
 10
3040.3096852915
 20
2249.6744213933
 30
0.0
  0
VERTEX
  5
4E2
  8
0
  6
CONTINUOUS
 62
     7
 10
3039.2864441033
 20
2250.7545477071
 30
0.0
  0
VERTEX
  5
4E3
  8
0
  6
CONTINUOUS
 62
     7
 10
3038.4077666056
 20
2252.0403654211
 30
0.0
  0
VERTEX
  5
4E4
  8
0
  6
CONTINUOUS
 62
     7
 10
3037.7335223965
 20
2253.4442626607
 30
0.0
  0
VERTEX
  5
4E5
  8
0
  6
CONTINUOUS
 62
     7
 10
3037.3096936879
 20
2254.8705835925
 30
0.0
  0
VERTEX
  5
4E6
  8
0
  6
CONTINUOUS
 62
     7
 10
3037.1651299975
 20
2256.2220281757
 30
0.0
  0
VERTEX
  5
4E7
  8
0
  6
CONTINUOUS
 62
     7
 10
3037.3096936879
 20
2257.4066117443
 30
0.0
  0
VERTEX
  5
4E8
  8
0
  6
CONTINUOUS
 62
     7
 10
3037.7335223965
 20
2258.3435417954
 30
0.0
  0
VERTEX
  5
4E9
  8
0
  6
CONTINUOUS
 62
     7
 10
3038.4077666056
 20
2258.9689732414
 30
0.0
  0
VERTEX
  5
4EA
  8
0
  6
CONTINUOUS
 62
     7
 10
3039.2864441033
 20
2259.2402915108
 30
0.0
  0
VERTEX
  5
4EB
  8
0
  6
CONTINUOUS
 62
     7
 10
3040.3096852915
 20
2259.1390086957
 30
0.0
  0
VERTEX
  5
4EC
  8
0
  6
CONTINUOUS
 62
     7
 10
3041.4077582091
 20
2258.6720415072
 30
0.0
  0
SEQEND
  5
84C
  8
0
  6
CONTINUOUS
 62
     7
  0
LINE
  5
2D9
  8
0
  6
CONTINUOUS
 62
     7
 10
3018.7803375023
 20
2261.9361125073
 30
0.0
 11
2998.9813496521
 21
2273.365824905
 31
0.0
  0
POLYLINE
  5
2DA
  8
0
  6
CONTINUOUS
 62
     7
 66
     1
 10
0.0
 20
0.0
 30
0.0
 70
   128
  0
VERTEX
  5
4ED
  8
0
  6
CONTINUOUS
 62
     7
 10
3018.7803375023
 20
2271.7345734375
 30
0.0
  0
VERTEX
  5
4EE
  8
0
  6
CONTINUOUS
 62
     7
 10
3019.8784314934
 20
2270.9337204559
 30
0.0
  0
VERTEX
  5
4EF
  8
0
  6
CONTINUOUS
 62
     7
 10
3020.9016726815
 20
2269.8535941421
 30
0.0
  0
VERTEX
  5
4F0
  8
0
  6
CONTINUOUS
 62
     7
 10
3021.7803501793
 20
2268.567776428
 30
0.0
  0
VERTEX
  5
4F1
  8
0
  6
CONTINUOUS
 62
     7
 10
3022.4545733149
 20
2267.1638913538
 30
0.0
  0
VERTEX
  5
4F2
  8
0
  6
CONTINUOUS
 62
     7
 10
3022.8784230969
 20
2265.7376069263
 30
0.0
  0
VERTEX
  5
4F3
  8
0
  6
CONTINUOUS
 62
     7
 10
3023.0229867873
 20
2264.3861136735
 30
0.0
  0
VERTEX
  5
4F4
  8
0
  6
CONTINUOUS
 62
     7
 10
3022.8784230969
 20
2263.2015787744
 30
0.0
  0
VERTEX
  5
4F5
  8
0
  6
CONTINUOUS
 62
     7
 10
3022.4545733149
 20
2262.2646122191
 30
0.0
  0
VERTEX
  5
4F6
  8
0
  6
CONTINUOUS
 62
     7
 10
3021.7803501793
 20
2261.6391686077
 30
0.0
  0
VERTEX
  5
4F7
  8
0
  6
CONTINUOUS
 62
     7
 10
3020.9016726815
 20
2261.3678503384
 30
0.0
  0
VERTEX
  5
4F8
  8
0
  6
CONTINUOUS
 62
     7
 10
3019.8784314934
 20
2261.4691331534
 30
0.0
  0
VERTEX
  5
4F9
  8
0
  6
CONTINUOUS
 62
     7
 10
3018.7803375023
 20
2261.9361125073
 30
0.0
  0
SEQEND
  5
84D
  8
0
  6
CONTINUOUS
 62
     7
  0
LINE
  5
2DB
  8
0
  6
CONTINUOUS
 62
     7
 10
2998.9813496521
 20
2283.1642858352
 30
0.0
 11
3018.7803375023
 21
2271.7345734375
 31
0.0
  0
POLYLINE
  5
2DC
  8
0
  6
CONTINUOUS
 62
     7
 66
     1
 10
0.0
 20
0.0
 30
0.0
 70
   128
  0
VERTEX
  5
4FA
  8
0
  6
CONTINUOUS
 62
     7
 10
2998.9813496521
 20
2273.365824905
 30
0.0
  0
VERTEX
  5
4FB
  8
0
  6
CONTINUOUS
 62
     7
 10
2997.8832767344
 20
2274.1666657212
 30
0.0
  0
VERTEX
  5
4FC
  8
0
  6
CONTINUOUS
 62
     7
 10
2996.8600355462
 20
2275.246792035
 30
0.0
  0
VERTEX
  5
4FD
  8
0
  6
CONTINUOUS
 62
     7
 10
2995.9813580485
 20
2276.532609749
 30
0.0
  0
VERTEX
  5
4FE
  8
0
  6
CONTINUOUS
 62
     7
 10
2995.3071138394
 20
2277.9365069886
 30
0.0
  0
VERTEX
  5
4FF
  8
0
  6
CONTINUOUS
 62
     7
 10
2994.8832851308
 20
2279.3628279204
 30
0.0
  0
VERTEX
  5
500
  8
0
  6
CONTINUOUS
 62
     7
 10
2994.7387214404
 20
2280.7142725036
 30
0.0
  0
VERTEX
  5
501
  8
0
  6
CONTINUOUS
 62
     7
 10
2994.8832851308
 20
2281.8988560722
 30
0.0
  0
VERTEX
  5
502
  8
0
  6
CONTINUOUS
 62
     7
 10
2995.3071138394
 20
2282.8357861234
 30
0.0
  0
VERTEX
  5
503
  8
0
  6
CONTINUOUS
 62
     7
 10
2995.9813580485
 20
2283.4612175693
 30
0.0
  0
VERTEX
  5
504
  8
0
  6
CONTINUOUS
 62
     7
 10
2996.8600355462
 20
2283.7325358387
 30
0.0
  0
VERTEX
  5
505
  8
0
  6
CONTINUOUS
 62
     7
 10
2997.8832767344
 20
2283.6312530236
 30
0.0
  0
VERTEX
  5
506
  8
0
  6
CONTINUOUS
 62
     7
 10
2998.9813496521
 20
2283.1642858352
 30
0.0
  0
SEQEND
  5
84E
  8
0
  6
CONTINUOUS
 62
     7
  0
LINE
  5
2DD
  8
0
  6
CONTINUOUS
 62
     7
 10
3514.4621946544
 20
1929.4871860651
 30
0.0
 11
3514.4621946544
 21
2031.8814337393
 31
0.0
  0
LINE
  5
2DE
  8
0
  6
CONTINUOUS
 62
     7
 10
2969.9899866277
 20
2243.804301331
 30
0.0
 11
2969.9899866277
 21
2346.1985490051
 31
0.0
  0
LINE
  5
2DF
  8
0
  6
CONTINUOUS
 62
     7
 10
3358.1916059588
 20
2075.7966188142
 30
0.0
 11
3338.3926181086
 21
2087.2263312118
 31
0.0
  0
POLYLINE
  5
2E0
  8
0
  6
CONTINUOUS
 62
     7
 66
     1
 10
0.0
 20
0.0
 30
0.0
 70
   128
  0
VERTEX
  5
507
  8
0
  6
CONTINUOUS
 62
     7
 10
3338.3926181086
 20
2087.2263312118
 30
0.0
  0
VERTEX
  5
508
  8
0
  6
CONTINUOUS
 62
     7
 10
3337.2945346542
 20
2087.693304483
 30
0.0
  0
VERTEX
  5
509
  8
0
  6
CONTINUOUS
 62
     7
 10
3336.2712934661
 20
2087.7945872981
 30
0.0
  0
VERTEX
  5
50A
  8
0
  6
CONTINUOUS
 62
     7
 10
3335.3926159683
 20
2087.5232690287
 30
0.0
  0
VERTEX
  5
50B
  8
0
  6
CONTINUOUS
 62
     7
 10
3334.718382296
 20
2086.8978315
 30
0.0
  0
VERTEX
  5
50C
  8
0
  6
CONTINUOUS
 62
     7
 10
3334.2945325139
 20
2085.9609136143
 30
0.0
  0
VERTEX
  5
50D
  8
0
  6
CONTINUOUS
 62
     7
 10
3334.1499688235
 20
2084.7763300457
 30
0.0
  0
VERTEX
  5
50E
  8
0
  6
CONTINUOUS
 62
     7
 10
3334.2945325139
 20
2083.4248854625
 30
0.0
  0
VERTEX
  5
50F
  8
0
  6
CONTINUOUS
 62
     7
 10
3334.718382296
 20
2081.9985523653
 30
0.0
  0
VERTEX
  5
510
  8
0
  6
CONTINUOUS
 62
     7
 10
3335.3926159683
 20
2080.5946612084
 30
0.0
  0
VERTEX
  5
511
  8
0
  6
CONTINUOUS
 62
     7
 10
3336.2712934661
 20
2079.3088434944
 30
0.0
  0
VERTEX
  5
512
  8
0
  6
CONTINUOUS
 62
     7
 10
3337.2945346542
 20
2078.2287171806
 30
0.0
  0
VERTEX
  5
513
  8
0
  6
CONTINUOUS
 62
     7
 10
3338.3926181086
 20
2077.4278702816
 30
0.0
  0
SEQEND
  5
84F
  8
0
  6
CONTINUOUS
 62
     7
  0
LINE
  5
2E1
  8
0
  6
CONTINUOUS
 62
     7
 10
3338.3926181086
 20
2077.4278702816
 30
0.0
 11
3358.1916059588
 21
2065.998157884
 31
0.0
  0
POLYLINE
  5
2E2
  8
0
  6
CONTINUOUS
 62
     7
 66
     1
 10
0.0
 20
0.0
 30
0.0
 70
   128
  0
VERTEX
  5
514
  8
0
  6
CONTINUOUS
 62
     7
 10
3358.1916059588
 20
2065.998157884
 30
0.0
  0
VERTEX
  5
515
  8
0
  6
CONTINUOUS
 62
     7
 10
3359.2896788765
 20
2065.5311906955
 30
0.0
  0
VERTEX
  5
516
  8
0
  6
CONTINUOUS
 62
     7
 10
3360.3129200646
 20
2065.4299078805
 30
0.0
  0
VERTEX
  5
517
  8
0
  6
CONTINUOUS
 62
     7
 10
3361.1915975624
 20
2065.7012261499
 30
0.0
  0
VERTEX
  5
518
  8
0
  6
CONTINUOUS
 62
     7
 10
3361.8658417714
 20
2066.3266575958
 30
0.0
  0
VERTEX
  5
519
  8
0
  6
CONTINUOUS
 62
     7
 10
3362.2896810168
 20
2067.2636302338
 30
0.0
  0
VERTEX
  5
51A
  8
0
  6
CONTINUOUS
 62
     7
 10
3362.4342447071
 20
2068.4481651328
 30
0.0
  0
VERTEX
  5
51B
  8
0
  6
CONTINUOUS
 62
     7
 10
3362.2896810168
 20
2069.7996583856
 30
0.0
  0
VERTEX
  5
51C
  8
0
  6
CONTINUOUS
 62
     7
 10
3361.8658417714
 20
2071.2259367305
 30
0.0
  0
VERTEX
  5
51D
  8
0
  6
CONTINUOUS
 62
     7
 10
3361.1915975624
 20
2072.6298339701
 30
0.0
  0
VERTEX
  5
51E
  8
0
  6
CONTINUOUS
 62
     7
 10
3360.3129200646
 20
2073.9156516842
 30
0.0
  0
VERTEX
  5
51F
  8
0
  6
CONTINUOUS
 62
     7
 10
3359.2896788765
 20
2074.995777998
 30
0.0
  0
VERTEX
  5
520
  8
0
  6
CONTINUOUS
 62
     7
 10
3358.1916059588
 20
2075.7966188142
 30
0.0
  0
SEQEND
  5
850
  8
0
  6
CONTINUOUS
 62
     7
  0
LINE
  5
2E3
  8
0
  6
CONTINUOUS
 62
     7
 10
3315.7651974017
 20
2100.2888631421
 30
0.0
 11
3295.9662042832
 21
2111.7185785811
 31
0.0
  0
POLYLINE
  5
2E4
  8
0
  6
CONTINUOUS
 62
     7
 66
     1
 10
0.0
 20
0.0
 30
0.0
 70
   128
  0
VERTEX
  5
521
  8
0
  6
CONTINUOUS
 62
     7
 10
3295.9662042832
 20
2111.7185785811
 30
0.0
  0
VERTEX
  5
522
  8
0
  6
CONTINUOUS
 62
     7
 10
3294.8681313655
 20
2112.1855457696
 30
0.0
  0
VERTEX
  5
523
  8
0
  6
CONTINUOUS
 62
     7
 10
3293.844884909
 20
2112.286831626
 30
0.0
  0
VERTEX
  5
524
  8
0
  6
CONTINUOUS
 62
     7
 10
3292.9662074112
 20
2112.0155133566
 30
0.0
  0
VERTEX
  5
525
  8
0
  6
CONTINUOUS
 62
     7
 10
3292.2919737389
 20
2111.390075828
 30
0.0
  0
VERTEX
  5
526
  8
0
  6
CONTINUOUS
 62
     7
 10
3291.8681292252
 20
2110.4531549009
 30
0.0
  0
VERTEX
  5
527
  8
0
  6
CONTINUOUS
 62
     7
 10
3291.7235655348
 20
2109.2685713323
 30
0.0
  0
VERTEX
  5
528
  8
0
  6
CONTINUOUS
 62
     7
 10
3291.8681292252
 20
2107.9171267491
 30
0.0
  0
VERTEX
  5
529
  8
0
  6
CONTINUOUS
 62
     7
 10
3292.2919737389
 20
2106.4907966932
 30
0.0
  0
VERTEX
  5
52A
  8
0
  6
CONTINUOUS
 62
     7
 10
3292.9662074112
 20
2105.0869055363
 30
0.0
  0
VERTEX
  5
52B
  8
0
  6
CONTINUOUS
 62
     7
 10
3293.844884909
 20
2103.8010878223
 30
0.0
  0
VERTEX
  5
52C
  8
0
  6
CONTINUOUS
 62
     7
 10
3294.8681313655
 20
2102.7209584671
 30
0.0
  0
VERTEX
  5
52D
  8
0
  6
CONTINUOUS
 62
     7
 10
3295.9662042832
 20
2101.9201176509
 30
0.0
  0
SEQEND
  5
851
  8
0
  6
CONTINUOUS
 62
     7
  0
LINE
  5
2E5
  8
0
  6
CONTINUOUS
 62
     7
 10
3295.9662042832
 20
2101.9201176509
 30
0.0
 11
3315.7651974017
 21
2090.4904022119
 31
0.0
  0
POLYLINE
  5
2E6
  8
0
  6
CONTINUOUS
 62
     7
 66
     1
 10
0.0
 20
0.0
 30
0.0
 70
   128
  0
VERTEX
  5
52E
  8
0
  6
CONTINUOUS
 62
     7
 10
3315.7651974017
 20
2090.4904022119
 30
0.0
  0
VERTEX
  5
52F
  8
0
  6
CONTINUOUS
 62
     7
 10
3316.8632703194
 20
2090.0234350234
 30
0.0
  0
VERTEX
  5
530
  8
0
  6
CONTINUOUS
 62
     7
 10
3317.8865167759
 20
2089.922149167
 30
0.0
  0
VERTEX
  5
531
  8
0
  6
CONTINUOUS
 62
     7
 10
3318.7651942737
 20
2090.1934674364
 30
0.0
  0
VERTEX
  5
532
  8
0
  6
CONTINUOUS
 62
     7
 10
3319.439427946
 20
2090.8189049651
 30
0.0
  0
VERTEX
  5
533
  8
0
  6
CONTINUOUS
 62
     7
 10
3319.8632724597
 20
2091.7558745617
 30
0.0
  0
VERTEX
  5
534
  8
0
  6
CONTINUOUS
 62
     7
 10
3320.0078361501
 20
2092.9404094608
 30
0.0
  0
VERTEX
  5
535
  8
0
  6
CONTINUOUS
 62
     7
 10
3319.8632724597
 20
2094.2919027136
 30
0.0
  0
VERTEX
  5
536
  8
0
  6
CONTINUOUS
 62
     7
 10
3319.439427946
 20
2095.7181840998
 30
0.0
  0
VERTEX
  5
537
  8
0
  6
CONTINUOUS
 62
     7
 10
3318.7651942737
 20
2097.1220752567
 30
0.0
  0
VERTEX
  5
538
  8
0
  6
CONTINUOUS
 62
     7
 10
3317.8865167759
 20
2098.4078929707
 30
0.0
  0
VERTEX
  5
539
  8
0
  6
CONTINUOUS
 62
     7
 10
3316.8632703194
 20
2099.4880223259
 30
0.0
  0
VERTEX
  5
53A
  8
0
  6
CONTINUOUS
 62
     7
 10
3315.7651974017
 20
2100.2888631421
 30
0.0
  0
SEQEND
  5
852
  8
0
  6
CONTINUOUS
 62
     7
  0
LINE
  5
2E7
  8
0
  6
CONTINUOUS
 62
     7
 10
3400.6180145159
 20
2051.3043744863
 30
0.0
 11
3380.819016129
 21
2062.7340929666
 31
0.0
  0
POLYLINE
  5
2E8
  8
0
  6
CONTINUOUS
 62
     7
 66
     1
 10
0.0
 20
0.0
 30
0.0
 70
   128
  0
VERTEX
  5
53B
  8
0
  6
CONTINUOUS
 62
     7
 10
3380.819016129
 20
2062.7340929666
 30
0.0
  0
VERTEX
  5
53C
  8
0
  6
CONTINUOUS
 62
     7
 10
3379.7209432113
 20
2063.2010601551
 30
0.0
  0
VERTEX
  5
53D
  8
0
  6
CONTINUOUS
 62
     7
 10
3378.6977020231
 20
2063.3023429702
 30
0.0
  0
VERTEX
  5
53E
  8
0
  6
CONTINUOUS
 62
     7
 10
3377.8190245254
 20
2063.0310247008
 30
0.0
  0
VERTEX
  5
53F
  8
0
  6
CONTINUOUS
 62
     7
 10
3377.1447803163
 20
2062.4055932548
 30
0.0
  0
VERTEX
  5
540
  8
0
  6
CONTINUOUS
 62
     7
 10
3376.720941071
 20
2061.4686692864
 30
0.0
  0
VERTEX
  5
541
  8
0
  6
CONTINUOUS
 62
     7
 10
3376.5763773806
 20
2060.2840857178
 30
0.0
  0
VERTEX
  5
542
  8
0
  6
CONTINUOUS
 62
     7
 10
3376.720941071
 20
2058.9326411346
 30
0.0
  0
VERTEX
  5
543
  8
0
  6
CONTINUOUS
 62
     7
 10
3377.1447803163
 20
2057.5063141201
 30
0.0
  0
VERTEX
  5
544
  8
0
  6
CONTINUOUS
 62
     7
 10
3377.8190245254
 20
2056.1024168805
 30
0.0
  0
VERTEX
  5
545
  8
0
  6
CONTINUOUS
 62
     7
 10
3378.6977020231
 20
2054.8165991664
 30
0.0
  0
VERTEX
  5
546
  8
0
  6
CONTINUOUS
 62
     7
 10
3379.7209432113
 20
2053.7364728527
 30
0.0
  0
VERTEX
  5
547
  8
0
  6
CONTINUOUS
 62
     7
 10
3380.819016129
 20
2052.9356320364
 30
0.0
  0
SEQEND
  5
853
  8
0
  6
CONTINUOUS
 62
     7
  0
LINE
  5
2E9
  8
0
  6
CONTINUOUS
 62
     7
 10
3380.819016129
 20
2052.9356320364
 30
0.0
 11
3400.6180145159
 21
2041.5059135561
 31
0.0
  0
POLYLINE
  5
2EA
  8
0
  6
CONTINUOUS
 62
     7
 66
     1
 10
0.0
 20
0.0
 30
0.0
 70
   128
  0
VERTEX
  5
548
  8
0
  6
CONTINUOUS
 62
     7
 10
3400.6180145159
 20
2041.5059135561
 30
0.0
  0
VERTEX
  5
549
  8
0
  6
CONTINUOUS
 62
     7
 10
3401.7160874335
 20
2041.0389463676
 30
0.0
  0
VERTEX
  5
54A
  8
0
  6
CONTINUOUS
 62
     7
 10
3402.7393286217
 20
2040.9376635526
 30
0.0
  0
VERTEX
  5
54B
  8
0
  6
CONTINUOUS
 62
     7
 10
3403.6180061194
 20
2041.2089818219
 30
0.0
  0
VERTEX
  5
54C
  8
0
  6
CONTINUOUS
 62
     7
 10
3404.2922397918
 20
2041.8344193506
 30
0.0
  0
VERTEX
  5
54D
  8
0
  6
CONTINUOUS
 62
     7
 10
3404.7160895738
 20
2042.7713859059
 30
0.0
  0
VERTEX
  5
54E
  8
0
  6
CONTINUOUS
 62
     7
 10
3404.8606532642
 20
2043.9559208049
 30
0.0
  0
VERTEX
  5
54F
  8
0
  6
CONTINUOUS
 62
     7
 10
3404.7160895738
 20
2045.3074140577
 30
0.0
  0
VERTEX
  5
550
  8
0
  6
CONTINUOUS
 62
     7
 10
3404.2922397918
 20
2046.7336984853
 30
0.0
  0
VERTEX
  5
551
  8
0
  6
CONTINUOUS
 62
     7
 10
3403.6180061194
 20
2048.1375896422
 30
0.0
  0
VERTEX
  5
552
  8
0
  6
CONTINUOUS
 62
     7
 10
3402.7393286217
 20
2049.4234073563
 30
0.0
  0
VERTEX
  5
553
  8
0
  6
CONTINUOUS
 62
     7
 10
3401.7160874335
 20
2050.5035336701
 30
0.0
  0
VERTEX
  5
554
  8
0
  6
CONTINUOUS
 62
     7
 10
3400.6180145159
 20
2051.3043744863
 30
0.0
  0
SEQEND
  5
854
  8
0
  6
CONTINUOUS
 62
     7
  0
LINE
  5
2EB
  8
0
  6
CONTINUOUS
 62
     7
 10
3443.0444230729
 20
2026.8121301584
 30
0.0
 11
3423.2454352227
 21
2038.241842556
 31
0.0
  0
POLYLINE
  5
2EC
  8
0
  6
CONTINUOUS
 62
     7
 66
     1
 10
0.0
 20
0.0
 30
0.0
 70
   128
  0
VERTEX
  5
555
  8
0
  6
CONTINUOUS
 62
     7
 10
3423.2454352227
 20
2038.241842556
 30
0.0
  0
VERTEX
  5
556
  8
0
  6
CONTINUOUS
 62
     7
 10
3422.1473412316
 20
2038.7088219099
 30
0.0
  0
VERTEX
  5
557
  8
0
  6
CONTINUOUS
 62
     7
 10
3421.1241000435
 20
2038.810104725
 30
0.0
  0
VERTEX
  5
558
  8
0
  6
CONTINUOUS
 62
     7
 10
3420.2454225457
 20
2038.5387864556
 30
0.0
  0
VERTEX
  5
559
  8
0
  6
CONTINUOUS
 62
     7
 10
3419.5711994101
 20
2037.9133428442
 30
0.0
  0
VERTEX
  5
55A
  8
0
  6
CONTINUOUS
 62
     7
 10
3419.1473496281
 20
2036.9764249585
 30
0.0
  0
VERTEX
  5
55B
  8
0
  6
CONTINUOUS
 62
     7
 10
3419.0027859377
 20
2035.7918413899
 30
0.0
  0
VERTEX
  5
55C
  8
0
  6
CONTINUOUS
 62
     7
 10
3419.1473496281
 20
2034.4403968067
 30
0.0
  0
VERTEX
  5
55D
  8
0
  6
CONTINUOUS
 62
     7
 10
3419.5711994101
 20
2033.0140637095
 30
0.0
  0
VERTEX
  5
55E
  8
0
  6
CONTINUOUS
 62
     7
 10
3420.2454225457
 20
2031.6101786353
 30
0.0
  0
VERTEX
  5
55F
  8
0
  6
CONTINUOUS
 62
     7
 10
3421.1241000435
 20
2030.3243609212
 30
0.0
  0
VERTEX
  5
560
  8
0
  6
CONTINUOUS
 62
     7
 10
3422.1473412316
 20
2029.2442346075
 30
0.0
  0
VERTEX
  5
561
  8
0
  6
CONTINUOUS
 62
     7
 10
3423.2454352227
 20
2028.4433816258
 30
0.0
  0
SEQEND
  5
855
  8
0
  6
CONTINUOUS
 62
     7
  0
LINE
  5
2ED
  8
0
  6
CONTINUOUS
 62
     7
 10
3423.2454352227
 20
2028.4433816258
 30
0.0
 11
3443.0444230729
 21
2017.0136692282
 31
0.0
  0
POLYLINE
  5
2EE
  8
0
  6
CONTINUOUS
 62
     7
 66
     1
 10
0.0
 20
0.0
 30
0.0
 70
   128
  0
VERTEX
  5
562
  8
0
  6
CONTINUOUS
 62
     7
 10
3443.0444230729
 20
2017.0136692282
 30
0.0
  0
VERTEX
  5
563
  8
0
  6
CONTINUOUS
 62
     7
 10
3444.1424959906
 20
2016.5467020397
 30
0.0
  0
VERTEX
  5
564
  8
0
  6
CONTINUOUS
 62
     7
 10
3445.1657371787
 20
2016.4454192246
 30
0.0
  0
VERTEX
  5
565
  8
0
  6
CONTINUOUS
 62
     7
 10
3446.0444146765
 20
2016.716737494
 30
0.0
  0
VERTEX
  5
566
  8
0
  6
CONTINUOUS
 62
     7
 10
3446.7186588856
 20
2017.34216894
 30
0.0
  0
VERTEX
  5
567
  8
0
  6
CONTINUOUS
 62
     7
 10
3447.1424875942
 20
2018.2791476607
 30
0.0
  0
VERTEX
  5
568
  8
0
  6
CONTINUOUS
 62
     7
 10
3447.2870512846
 20
2019.4636825597
 30
0.0
  0
VERTEX
  5
569
  8
0
  6
CONTINUOUS
 62
     7
 10
3447.1424875942
 20
2020.8151758125
 30
0.0
  0
VERTEX
  5
56A
  8
0
  6
CONTINUOUS
 62
     7
 10
3446.7186588856
 20
2022.2414480747
 30
0.0
  0
VERTEX
  5
56B
  8
0
  6
CONTINUOUS
 62
     7
 10
3446.0444146765
 20
2023.6453453143
 30
0.0
  0
VERTEX
  5
56C
  8
0
  6
CONTINUOUS
 62
     7
 10
3445.1657371787
 20
2024.9311630284
 30
0.0
  0
VERTEX
  5
56D
  8
0
  6
CONTINUOUS
 62
     7
 10
3444.1424959906
 20
2026.0112893421
 30
0.0
  0
VERTEX
  5
56E
  8
0
  6
CONTINUOUS
 62
     7
 10
3443.0444230729
 20
2026.8121301584
 30
0.0
  0
SEQEND
  5
856
  8
0
  6
CONTINUOUS
 62
     7
  0
LINE
  5
2EF
  8
0
  6
CONTINUOUS
 62
     7
 10
3485.47083163
 20
2002.3198858305
 30
0.0
 11
3465.6718437798
 21
2013.7495982281
 31
0.0
  0
POLYLINE
  5
2F0
  8
0
  6
CONTINUOUS
 62
     7
 66
     1
 10
0.0
 20
0.0
 30
0.0
 70
   128
  0
VERTEX
  5
56F
  8
0
  6
CONTINUOUS
 62
     7
 10
3465.6718437798
 20
2013.7495982281
 30
0.0
  0
VERTEX
  5
570
  8
0
  6
CONTINUOUS
 62
     7
 10
3464.5737497887
 20
2014.216577582
 30
0.0
  0
VERTEX
  5
571
  8
0
  6
CONTINUOUS
 62
     7
 10
3463.5505086006
 20
2014.317860397
 30
0.0
  0
VERTEX
  5
572
  8
0
  6
CONTINUOUS
 62
     7
 10
3462.6718311028
 20
2014.0465421277
 30
0.0
  0
VERTEX
  5
573
  8
0
  6
CONTINUOUS
 62
     7
 10
3461.9976079672
 20
2013.4210985163
 30
0.0
  0
VERTEX
  5
574
  8
0
  6
CONTINUOUS
 62
     7
 10
3461.5737581851
 20
2012.4841806306
 30
0.0
  0
VERTEX
  5
575
  8
0
  6
CONTINUOUS
 62
     7
 10
3461.4291944947
 20
2011.2995970619
 30
0.0
  0
VERTEX
  5
576
  8
0
  6
CONTINUOUS
 62
     7
 10
3461.5737581851
 20
2009.9481524788
 30
0.0
  0
VERTEX
  5
577
  8
0
  6
CONTINUOUS
 62
     7
 10
3461.9976079672
 20
2008.5218193816
 30
0.0
  0
VERTEX
  5
578
  8
0
  6
CONTINUOUS
 62
     7
 10
3462.6718311028
 20
2007.1179343074
 30
0.0
  0
VERTEX
  5
579
  8
0
  6
CONTINUOUS
 62
     7
 10
3463.5505086006
 20
2005.8321165933
 30
0.0
  0
VERTEX
  5
57A
  8
0
  6
CONTINUOUS
 62
     7
 10
3464.5737497887
 20
2004.7519902795
 30
0.0
  0
VERTEX
  5
57B
  8
0
  6
CONTINUOUS
 62
     7
 10
3465.6718437798
 20
2003.9511372979
 30
0.0
  0
SEQEND
  5
857
  8
0
  6
CONTINUOUS
 62
     7
  0
LINE
  5
2F1
  8
0
  6
CONTINUOUS
 62
     7
 10
3465.6718437798
 20
2003.9511372979
 30
0.0
 11
3485.47083163
 21
1992.5214249002
 31
0.0
  0
POLYLINE
  5
2F2
  8
0
  6
CONTINUOUS
 62
     7
 66
     1
 10
0.0
 20
0.0
 30
0.0
 70
   128
  0
VERTEX
  5
57C
  8
0
  6
CONTINUOUS
 62
     7
 10
3485.47083163
 20
1992.5214249002
 30
0.0
  0
VERTEX
  5
57D
  8
0
  6
CONTINUOUS
 62
     7
 10
3486.5689045477
 20
1992.0544577118
 30
0.0
  0
VERTEX
  5
57E
  8
0
  6
CONTINUOUS
 62
     7
 10
3487.5921457358
 20
1991.9531748967
 30
0.0
  0
VERTEX
  5
57F
  8
0
  6
CONTINUOUS
 62
     7
 10
3488.4708232336
 20
1992.2244931661
 30
0.0
  0
VERTEX
  5
580
  8
0
  6
CONTINUOUS
 62
     7
 10
3489.1450674426
 20
1992.849924612
 30
0.0
  0
VERTEX
  5
581
  8
0
  6
CONTINUOUS
 62
     7
 10
3489.5688961512
 20
1993.7869033328
 30
0.0
  0
VERTEX
  5
582
  8
0
  6
CONTINUOUS
 62
     7
 10
3489.7134598416
 20
1994.9714382318
 30
0.0
  0
VERTEX
  5
583
  8
0
  6
CONTINUOUS
 62
     7
 10
3489.5688961512
 20
1996.3229314846
 30
0.0
  0
VERTEX
  5
584
  8
0
  6
CONTINUOUS
 62
     7
 10
3489.1450674426
 20
1997.7492037468
 30
0.0
  0
VERTEX
  5
585
  8
0
  6
CONTINUOUS
 62
     7
 10
3488.4708232336
 20
1999.1531009864
 30
0.0
  0
VERTEX
  5
586
  8
0
  6
CONTINUOUS
 62
     7
 10
3487.5921457358
 20
2000.4389187004
 30
0.0
  0
VERTEX
  5
587
  8
0
  6
CONTINUOUS
 62
     7
 10
3486.5689045477
 20
2001.5190450142
 30
0.0
  0
VERTEX
  5
588
  8
0
  6
CONTINUOUS
 62
     7
 10
3485.47083163
 20
2002.3198858305
 30
0.0
  0
SEQEND
  5
858
  8
0
  6
CONTINUOUS
 62
     7
  0
LINE
  5
2F3
  8
0
  6
CONTINUOUS
 62
     7
 10
3515.3107226674
 20
1929.9770308604
 30
0.0
 11
3515.3107226674
 21
2032.3712785346
 31
0.0
  0
LINE
  5
2F4
  8
0
  6
CONTINUOUS
 62
     7
 10
3518.2098608138
 20
2038.3725697508
 30
0.0
 11
3526.9779848231
 21
2043.4342999994
 31
0.0
  0
LINE
  5
2F5
  8
0
  6
CONTINUOUS
 62
     7
 10
2973.7376527872
 20
2352.6896850166
 30
0.0
 11
2982.5057767964
 21
2357.7514152652
 31
0.0
  0
LINE
  5
2F6
  8
0
  6
CONTINUOUS
 62
     7
 10
3518.2098608138
 20
2037.3927041899
 30
0.0
 11
3526.9779848231
 21
2042.4544344385
 31
0.0
  0
ARC
  5
2F7
  8
0
  6
CONTINUOUS
 62
     7
 10
3522.5889564511
 20
2049.3158735758
 30
0.0
 40
8.145116149239758
 50
302.6056593087
 51
357.3942504421
  0
ARC
  5
2F8
  8
0
  6
CONTINUOUS
 62
     7
 10
3523.5827516911
 20
2048.7421761869
 30
0.0
 40
6.300885464996256
 50
302.6053984151
 51
357.3943215218
  0
ARC
  5
2F9
  8
0
  6
CONTINUOUS
 62
     7
 10
2979.1105436644
 20
2363.0592914528
 30
0.0
 40
6.300885464995244
 50
302.6053984151
 51
357.3943215218
  0
POLYLINE
  5
2FA
  8
0
  6
CONTINUOUS
 62
     7
 66
     1
 10
0.0
 20
0.0
 30
0.0
 70
   128
  0
VERTEX
  5
589
  8
0
  6
CONTINUOUS
 62
     7
 10
3514.204928974
 20
2066.7007920766
 30
0.0
  0
VERTEX
  5
58A
  8
0
  6
CONTINUOUS
 62
     7
 10
3514.035203615
 20
2066.4485944886
 30
0.0
  0
VERTEX
  5
58B
  8
0
  6
CONTINUOUS
 62
     7
 10
3513.7866847228
 20
2065.6616928391
 30
0.0
  0
VERTEX
  5
58C
  8
0
  6
CONTINUOUS
 62
     7
 10
3513.7866847228
 20
2064.6881056598
 30
0.0
  0
VERTEX
  5
58D
  8
0
  6
CONTINUOUS
 62
     7
 10
3514.035203615
 20
2063.6143188745
 30
0.0
  0
VERTEX
  5
58E
  8
0
  6
CONTINUOUS
 62
     7
 10
3514.5101353774
 20
2062.5357350414
 30
0.0
  0
VERTEX
  5
58F
  8
0
  6
CONTINUOUS
 62
     7
 10
3515.1693120882
 20
2061.5481441931
 30
0.0
  0
VERTEX
  5
590
  8
0
  6
CONTINUOUS
 62
     7
 10
3515.9541285543
 20
2060.7394016712
 30
0.0
  0
VERTEX
  5
591
  8
0
  6
CONTINUOUS
 62
     7
 10
3516.7948949618
 20
2060.181276466
 30
0.0
  0
VERTEX
  5
592
  8
0
  6
CONTINUOUS
 62
     7
 10
3517.6168638749
 20
2059.9233924138
 30
0.0
  0
VERTEX
  5
593
  8
0
  6
CONTINUOUS
 62
     7
 10
3518.113585558
 20
2059.9300702591
 30
0.0
  0
SEQEND
  5
859
  8
0
  6
CONTINUOUS
 62
     7
  0
ARC
  5
2FB
  8
0
  6
CONTINUOUS
 62
     7
 10
3488.1499332432
 20
1995.665846327
 30
0.0
 40
3.224558388020355
 50
235.4101819285
 51
282.8066109632
  0
LINE
  5
2FC
  8
0
  6
CONTINUOUS
 62
     7
 10
3466.5203717929
 20
2004.4409820932
 30
0.0
 11
3486.3193596431
 21
1993.0112696956
 31
0.0
  0
ARC
  5
2FD
  8
0
  6
CONTINUOUS
 62
     7
 10
3516.7468811525
 20
1929.1165685062
 30
0.0
 40
2.31455174271726
 50
170.7858492356
 51
309.2036780098
  0
ARC
  5
2FE
  8
0
  6
CONTINUOUS
 62
     7
 10
2972.486530327
 20
2243.4721877089
 30
0.0
 40
2.51853725409696
 50
172.4224692256
 51
236.2653909416
  0
ARC
  5
2FF
  8
0
  6
CONTINUOUS
 62
     7
 10
3517.0781243278
 20
1929.6903271167
 30
0.0
 40
1.790504863315063
 50
170.785875734
 51
309.2035077582
  0
POLYLINE
  5
300
  8
0
  6
CONTINUOUS
 62
     7
 66
     1
 10
0.0
 20
0.0
 30
0.0
 70
   128
  0
VERTEX
  5
594
  8
0
  6
CONTINUOUS
 62
     7
 10
3463.1264757431
 20
2014.2394044139
 30
0.0
  0
VERTEX
  5
595
  8
0
  6
CONTINUOUS
 62
     7
 10
3462.8461359803
 20
2013.9109433116
 30
0.0
  0
VERTEX
  5
596
  8
0
  6
CONTINUOUS
 62
     7
 10
3462.4222861982
 20
2012.9740254259
 30
0.0
  0
VERTEX
  5
597
  8
0
  6
CONTINUOUS
 62
     7
 10
3462.2777225078
 20
2011.7894418573
 30
0.0
  0
VERTEX
  5
598
  8
0
  6
CONTINUOUS
 62
     7
 10
3462.4222861982
 20
2010.4379972741
 30
0.0
  0
VERTEX
  5
599
  8
0
  6
CONTINUOUS
 62
     7
 10
3462.8461359803
 20
2009.0116641769
 30
0.0
  0
VERTEX
  5
59A
  8
0
  6
CONTINUOUS
 62
     7
 10
3463.5203591159
 20
2007.6077791027
 30
0.0
  0
VERTEX
  5
59B
  8
0
  6
CONTINUOUS
 62
     7
 10
3464.3990366136
 20
2006.3219613886
 30
0.0
  0
VERTEX
  5
59C
  8
0
  6
CONTINUOUS
 62
     7
 10
3465.4222778018
 20
2005.2418350749
 30
0.0
  0
VERTEX
  5
59D
  8
0
  6
CONTINUOUS
 62
     7
 10
3466.5203717929
 20
2004.4409820932
 30
0.0
  0
SEQEND
  5
85A
  8
0
  6
CONTINUOUS
 62
     7
  0
LINE
  5
301
  8
0
  6
CONTINUOUS
 62
     7
 10
3518.2098608138
 20
1928.3028545253
 30
0.0
 11
3526.9779848231
 21
1933.3645847739
 31
0.0
  0
LINE
  5
302
  8
0
  6
CONTINUOUS
 62
     7
 10
3518.2098608138
 20
1927.3230132993
 30
0.0
 11
3526.9779848231
 21
1932.3847435479
 31
0.0
  0
ARC
  5
303
  8
0
  6
CONTINUOUS
 62
     7
 10
3528.4409546498
 20
1931.5710128517
 30
0.0
 40
2.31455847932725
 50
350.7862907086
 51
129.2032278182
  0
ARC
  5
304
  8
0
  6
CONTINUOUS
 62
     7
 10
3528.1097208023
 20
1930.9972705515
 30
0.0
 40
1.790504856822324
 50
350.785879586
 51
129.2034870003
  0
ARC
  5
305
  8
0
  6
CONTINUOUS
 62
     7
 10
3445.7235246861
 20
2020.1580906549
 30
0.0
 40
3.224558388024144
 50
235.4101819285
 51
282.8066109632
  0
LINE
  5
306
  8
0
  6
CONTINUOUS
 62
     7
 10
3530.7256506533
 20
1931.200411818
 30
0.0
 11
3530.7256506533
 21
1915.5636400076
 31
0.0
  0
LINE
  5
307
  8
0
  6
CONTINUOUS
 62
     7
 10
3529.8771224755
 20
1915.0737951173
 30
0.0
 11
3530.7256506533
 21
1915.5636400076
 31
0.0
  0
LINE
  5
308
  8
0
  6
CONTINUOUS
 62
     7
 10
3529.8771224755
 20
1930.7105669277
 30
0.0
 11
3529.8771224755
 21
1915.0737951173
 31
0.0
  0
LINE
  5
309
  8
0
  6
CONTINUOUS
 62
     7
 10
3529.8771224755
 20
1915.0737951173
 30
0.0
 11
2985.4049144489
 21
2229.3909103831
 31
0.0
  0
LINE
  5
30A
  8
0
  6
CONTINUOUS
 62
     7
 10
2985.4049144489
 20
2233.1126766097
 30
0.0
 11
2985.4049144489
 21
2229.3909103831
 31
0.0
  0
LINE
  5
30B
  8
0
  6
CONTINUOUS
 62
     7
 10
3424.0939632358
 20
2028.9332264211
 30
0.0
 11
3443.892951086
 21
2017.5035140235
 31
0.0
  0
POLYLINE
  5
30C
  8
0
  6
CONTINUOUS
 62
     7
 66
     1
 10
0.0
 20
0.0
 30
0.0
 70
   128
  0
VERTEX
  5
59E
  8
0
  6
CONTINUOUS
 62
     7
 10
3420.7000882595
 20
2038.7316365764
 30
0.0
  0
VERTEX
  5
59F
  8
0
  6
CONTINUOUS
 62
     7
 10
3420.4197274232
 20
2038.4031876395
 30
0.0
  0
VERTEX
  5
5A0
  8
0
  6
CONTINUOUS
 62
     7
 10
3419.9958776411
 20
2037.4662697538
 30
0.0
  0
VERTEX
  5
5A1
  8
0
  6
CONTINUOUS
 62
     7
 10
3419.8513139508
 20
2036.2816861852
 30
0.0
  0
VERTEX
  5
5A2
  8
0
  6
CONTINUOUS
 62
     7
 10
3419.9958776411
 20
2034.930241602
 30
0.0
  0
VERTEX
  5
5A3
  8
0
  6
CONTINUOUS
 62
     7
 10
3420.4197274232
 20
2033.5039085048
 30
0.0
  0
VERTEX
  5
5A4
  8
0
  6
CONTINUOUS
 62
     7
 10
3421.0939505588
 20
2032.1000234306
 30
0.0
  0
VERTEX
  5
5A5
  8
0
  6
CONTINUOUS
 62
     7
 10
3421.9726280566
 20
2030.8142057166
 30
0.0
  0
VERTEX
  5
5A6
  8
0
  6
CONTINUOUS
 62
     7
 10
3422.9958692447
 20
2029.7340794028
 30
0.0
  0
VERTEX
  5
5A7
  8
0
  6
CONTINUOUS
 62
     7
 10
3424.0939632358
 20
2028.9332264211
 30
0.0
  0
SEQEND
  5
85B
  8
0
  6
CONTINUOUS
 62
     7
  0
ARC
  5
30D
  8
0
  6
CONTINUOUS
 62
     7
 10
3403.2971439682
 20
2044.6504252343
 30
0.0
 40
3.224648490739682
 50
235.4106850726
 51
282.805931769
  0
LINE
  5
30E
  8
0
  6
CONTINUOUS
 62
     7
 10
3381.6675441421
 20
2053.4254768317
 30
0.0
 11
3401.4665425289
 21
2041.9957583514
 31
0.0
  0
POLYLINE
  5
30F
  8
0
  6
CONTINUOUS
 62
     7
 66
     1
 10
0.0
 20
0.0
 30
0.0
 70
   128
  0
VERTEX
  5
5A8
  8
0
  6
CONTINUOUS
 62
     7
 10
3378.2736691657
 20
2063.223886987
 30
0.0
  0
VERTEX
  5
5A9
  8
0
  6
CONTINUOUS
 62
     7
 10
3377.9933083294
 20
2062.8954380502
 30
0.0
  0
VERTEX
  5
5AA
  8
0
  6
CONTINUOUS
 62
     7
 10
3377.5694690841
 20
2061.9585140817
 30
0.0
  0
VERTEX
  5
5AB
  8
0
  6
CONTINUOUS
 62
     7
 10
3377.4249053937
 20
2060.7739305131
 30
0.0
  0
VERTEX
  5
5AC
  8
0
  6
CONTINUOUS
 62
     7
 10
3377.5694690841
 20
2059.4224859299
 30
0.0
  0
VERTEX
  5
5AD
  8
0
  6
CONTINUOUS
 62
     7
 10
3377.9933083294
 20
2057.9961589154
 30
0.0
  0
VERTEX
  5
5AE
  8
0
  6
CONTINUOUS
 62
     7
 10
3378.6675525385
 20
2056.5922616758
 30
0.0
  0
VERTEX
  5
5AF
  8
0
  6
CONTINUOUS
 62
     7
 10
3379.5462300362
 20
2055.3064439618
 30
0.0
  0
VERTEX
  5
5B0
  8
0
  6
CONTINUOUS
 62
     7
 10
3380.5694712244
 20
2054.226317648
 30
0.0
  0
VERTEX
  5
5B1
  8
0
  6
CONTINUOUS
 62
     7
 10
3381.6675441421
 20
2053.4254768317
 30
0.0
  0
SEQEND
  5
85C
  8
0
  6
CONTINUOUS
 62
     7
  0
ARC
  5
310
  8
0
  6
CONTINUOUS
 62
     7
 10
3360.8707354111
 20
2069.1426695622
 30
0.0
 40
3.224648490743612
 50
235.4106850726
 51
282.805931769
  0
LINE
  5
311
  8
0
  6
CONTINUOUS
 62
     7
 10
3339.2411461217
 20
2077.9177150769
 30
0.0
 11
3359.0401339719
 21
2066.4880026793
 31
0.0
  0
POLYLINE
  5
312
  8
0
  6
CONTINUOUS
 62
     7
 66
     1
 10
0.0
 20
0.0
 30
0.0
 70
   128
  0
VERTEX
  5
5B2
  8
0
  6
CONTINUOUS
 62
     7
 10
3335.8472606086
 20
2087.7161313149
 30
0.0
  0
VERTEX
  5
5B3
  8
0
  6
CONTINUOUS
 62
     7
 10
3335.5669103091
 20
2087.3876762954
 30
0.0
  0
VERTEX
  5
5B4
  8
0
  6
CONTINUOUS
 62
     7
 10
3335.143060527
 20
2086.4507584097
 30
0.0
  0
VERTEX
  5
5B5
  8
0
  6
CONTINUOUS
 62
     7
 10
3334.9984968366
 20
2085.266174841
 30
0.0
  0
VERTEX
  5
5B6
  8
0
  6
CONTINUOUS
 62
     7
 10
3335.143060527
 20
2083.9147302578
 30
0.0
  0
VERTEX
  5
5B7
  8
0
  6
CONTINUOUS
 62
     7
 10
3335.5669103091
 20
2082.4883971606
 30
0.0
  0
VERTEX
  5
5B8
  8
0
  6
CONTINUOUS
 62
     7
 10
3336.2411439814
 20
2081.0845060037
 30
0.0
  0
VERTEX
  5
5B9
  8
0
  6
CONTINUOUS
 62
     7
 10
3337.1198214792
 20
2079.7986882897
 30
0.0
  0
VERTEX
  5
5BA
  8
0
  6
CONTINUOUS
 62
     7
 10
3338.1430626673
 20
2078.7185619759
 30
0.0
  0
VERTEX
  5
5BB
  8
0
  6
CONTINUOUS
 62
     7
 10
3339.2411461217
 20
2077.9177150769
 30
0.0
  0
SEQEND
  5
85D
  8
0
  6
CONTINUOUS
 62
     7
  0
ARC
  5
313
  8
0
  6
CONTINUOUS
 62
     7
 10
3318.444334241
 20
2093.6349250654
 30
0.0
 40
3.224661884107206
 50
235.4106897427
 51
282.8058390744
  0
LINE
  5
314
  8
0
  6
CONTINUOUS
 62
     7
 10
3296.8147322963
 20
2102.4099624462
 30
0.0
 11
3316.6137254148
 21
2090.9802470072
 31
0.0
  0
POLYLINE
  5
315
  8
0
  6
CONTINUOUS
 62
     7
 66
     1
 10
0.0
 20
0.0
 30
0.0
 70
   128
  0
VERTEX
  5
5BC
  8
0
  6
CONTINUOUS
 62
     7
 10
3293.4208573199
 20
2112.2083726015
 30
0.0
  0
VERTEX
  5
5BD
  8
0
  6
CONTINUOUS
 62
     7
 10
3293.140501752
 20
2111.8799206233
 30
0.0
  0
VERTEX
  5
5BE
  8
0
  6
CONTINUOUS
 62
     7
 10
3292.7166572383
 20
2110.9429996962
 30
0.0
  0
VERTEX
  5
5BF
  8
0
  6
CONTINUOUS
 62
     7
 10
3292.5720935479
 20
2109.7584161276
 30
0.0
  0
VERTEX
  5
5C0
  8
0
  6
CONTINUOUS
 62
     7
 10
3292.7166572383
 20
2108.4069715444
 30
0.0
  0
VERTEX
  5
5C1
  8
0
  6
CONTINUOUS
 62
     7
 10
3293.140501752
 20
2106.9806414885
 30
0.0
  0
VERTEX
  5
5C2
  8
0
  6
CONTINUOUS
 62
     7
 10
3293.8147354243
 20
2105.5767503317
 30
0.0
  0
VERTEX
  5
5C3
  8
0
  6
CONTINUOUS
 62
     7
 10
3294.6934129221
 20
2104.2909326176
 30
0.0
  0
VERTEX
  5
5C4
  8
0
  6
CONTINUOUS
 62
     7
 10
3295.7166593786
 20
2103.2108032624
 30
0.0
  0
VERTEX
  5
5C5
  8
0
  6
CONTINUOUS
 62
     7
 10
3296.8147322963
 20
2102.4099624462
 30
0.0
  0
SEQEND
  5
85E
  8
0
  6
CONTINUOUS
 62
     7
  0
ARC
  5
316
  8
0
  6
CONTINUOUS
 62
     7
 10
3191.1651138381
 20
2167.1116550078
 30
0.0
 40
3.22466188411397
 50
235.4106897428
 51
282.8058390743
  0
LINE
  5
317
  8
0
  6
CONTINUOUS
 62
     7
 10
3189.334505012
 20
2164.4569769496
 30
0.0
 11
3169.5355118934
 21
2175.8866923886
 31
0.0
  0
POLYLINE
  5
318
  8
0
  6
CONTINUOUS
 62
     7
 66
     1
 10
0.0
 20
0.0
 30
0.0
 70
   128
  0
VERTEX
  5
5C6
  8
0
  6
CONTINUOUS
 62
     7
 10
3169.5355118934
 20
2175.8866923886
 30
0.0
  0
VERTEX
  5
5C7
  8
0
  6
CONTINUOUS
 62
     7
 10
3168.4374389758
 20
2176.6875332048
 30
0.0
  0
VERTEX
  5
5C8
  8
0
  6
CONTINUOUS
 62
     7
 10
3167.4141925193
 20
2177.76766256
 30
0.0
  0
VERTEX
  5
5C9
  8
0
  6
CONTINUOUS
 62
     7
 10
3166.5355150215
 20
2179.053480274
 30
0.0
  0
VERTEX
  5
5CA
  8
0
  6
CONTINUOUS
 62
     7
 10
3165.8612813492
 20
2180.4573714309
 30
0.0
  0
VERTEX
  5
5CB
  8
0
  6
CONTINUOUS
 62
     7
 10
3165.4374368355
 20
2181.8837014868
 30
0.0
  0
VERTEX
  5
5CC
  8
0
  6
CONTINUOUS
 62
     7
 10
3165.2928731451
 20
2183.23514607
 30
0.0
  0
VERTEX
  5
5CD
  8
0
  6
CONTINUOUS
 62
     7
 10
3165.4374368355
 20
2184.4197296386
 30
0.0
  0
VERTEX
  5
5CE
  8
0
  6
CONTINUOUS
 62
     7
 10
3165.8612813492
 20
2185.3566505657
 30
0.0
  0
VERTEX
  5
5CF
  8
0
  6
CONTINUOUS
 62
     7
 10
3166.1416369171
 20
2185.6851025439
 30
0.0
  0
SEQEND
  5
85F
  8
0
  6
CONTINUOUS
 62
     7
  0
ARC
  5
319
  8
0
  6
CONTINUOUS
 62
     7
 10
3148.7387028093
 20
2191.6038896965
 30
0.0
 40
3.224653032596844
 50
235.4105209311
 51
282.8059198619
  0
LINE
  5
31A
  8
0
  6
CONTINUOUS
 62
     7
 10
3146.9080911865
 20
2188.9492243189
 30
0.0
 11
3127.1091033364
 21
2200.3789367165
 31
0.0
  0
POLYLINE
  5
31B
  8
0
  6
CONTINUOUS
 62
     7
 66
     1
 10
0.0
 20
0.0
 30
0.0
 70
   128
  0
VERTEX
  5
5D0
  8
0
  6
CONTINUOUS
 62
     7
 10
3127.1091033364
 20
2200.3789367165
 30
0.0
  0
VERTEX
  5
5D1
  8
0
  6
CONTINUOUS
 62
     7
 10
3126.0110304187
 20
2201.1797775327
 30
0.0
  0
VERTEX
  5
5D2
  8
0
  6
CONTINUOUS
 62
     7
 10
3124.9877892305
 20
2202.2599038465
 30
0.0
  0
VERTEX
  5
5D3
  8
0
  6
CONTINUOUS
 62
     7
 10
3124.1091117328
 20
2203.5457215606
 30
0.0
  0
VERTEX
  5
5D4
  8
0
  6
CONTINUOUS
 62
     7
 10
3123.4348675237
 20
2204.9496188002
 30
0.0
  0
VERTEX
  5
5D5
  8
0
  6
CONTINUOUS
 62
     7
 10
3123.0110282784
 20
2206.3759458147
 30
0.0
  0
VERTEX
  5
5D6
  8
0
  6
CONTINUOUS
 62
     7
 10
3122.866464588
 20
2207.7273903979
 30
0.0
  0
VERTEX
  5
5D7
  8
0
  6
CONTINUOUS
 62
     7
 10
3123.0110282784
 20
2208.9119739665
 30
0.0
  0
VERTEX
  5
5D8
  8
0
  6
CONTINUOUS
 62
     7
 10
3123.4348675237
 20
2209.8488979349
 30
0.0
  0
VERTEX
  5
5D9
  8
0
  6
CONTINUOUS
 62
     7
 10
3123.71522836
 20
2210.1773468718
 30
0.0
  0
SEQEND
  5
860
  8
0
  6
CONTINUOUS
 62
     7
  0
ARC
  5
31C
  8
0
  6
CONTINUOUS
 62
     7
 10
3106.3122946055
 20
2216.096129447
 30
0.0
 40
3.224648490738724
 50
235.4106850726
 51
282.805931769
  0
LINE
  5
31D
  8
0
  6
CONTINUOUS
 62
     7
 10
3104.4816931662
 20
2213.4414625641
 30
0.0
 11
3084.6826947793
 21
2224.8711810444
 31
0.0
  0
POLYLINE
  5
31E
  8
0
  6
CONTINUOUS
 62
     7
 66
     1
 10
0.0
 20
0.0
 30
0.0
 70
   128
  0
VERTEX
  5
5DA
  8
0
  6
CONTINUOUS
 62
     7
 10
3084.6826947793
 20
2224.8711810444
 30
0.0
  0
VERTEX
  5
5DB
  8
0
  6
CONTINUOUS
 62
     7
 10
3083.5846218616
 20
2225.6720218607
 30
0.0
  0
VERTEX
  5
5DC
  8
0
  6
CONTINUOUS
 62
     7
 10
3082.5613806735
 20
2226.7521481745
 30
0.0
  0
VERTEX
  5
5DD
  8
0
  6
CONTINUOUS
 62
     7
 10
3081.6827031757
 20
2228.0379658885
 30
0.0
  0
VERTEX
  5
5DE
  8
0
  6
CONTINUOUS
 62
     7
 10
3081.0084695034
 20
2229.4418570454
 30
0.0
  0
VERTEX
  5
5DF
  8
0
  6
CONTINUOUS
 62
     7
 10
3080.5846197213
 20
2230.8681901426
 30
0.0
  0
VERTEX
  5
5E0
  8
0
  6
CONTINUOUS
 62
     7
 10
3080.4400560309
 20
2232.2196347258
 30
0.0
  0
VERTEX
  5
5E1
  8
0
  6
CONTINUOUS
 62
     7
 10
3080.5846197213
 20
2233.4042182944
 30
0.0
  0
VERTEX
  5
5E2
  8
0
  6
CONTINUOUS
 62
     7
 10
3081.0084695034
 20
2234.3411361801
 30
0.0
  0
VERTEX
  5
5E3
  8
0
  6
CONTINUOUS
 62
     7
 10
3081.288819803
 20
2234.6695911997
 30
0.0
  0
SEQEND
  5
861
  8
0
  6
CONTINUOUS
 62
     7
  0
ARC
  5
31F
  8
0
  6
CONTINUOUS
 62
     7
 10
3063.8858680394
 20
2240.5882865961
 30
0.0
 40
3.224567472275461
 50
235.409853646
 51
282.806587147
  0
LINE
  5
320
  8
0
  6
CONTINUOUS
 62
     7
 10
3062.0552740724
 20
2237.9337129747
 30
0.0
 11
3042.2562862222
 21
2249.3634253724
 31
0.0
  0
POLYLINE
  5
321
  8
0
  6
CONTINUOUS
 62
     7
 66
     1
 10
0.0
 20
0.0
 30
0.0
 70
   128
  0
VERTEX
  5
5E4
  8
0
  6
CONTINUOUS
 62
     7
 10
3042.2562862222
 20
2249.3634253724
 30
0.0
  0
VERTEX
  5
5E5
  8
0
  6
CONTINUOUS
 62
     7
 10
3041.1582133046
 20
2250.1642661886
 30
0.0
  0
VERTEX
  5
5E6
  8
0
  6
CONTINUOUS
 62
     7
 10
3040.1349721164
 20
2251.2443925024
 30
0.0
  0
VERTEX
  5
5E7
  8
0
  6
CONTINUOUS
 62
     7
 10
3039.2562946187
 20
2252.5302102164
 30
0.0
  0
VERTEX
  5
5E8
  8
0
  6
CONTINUOUS
 62
     7
 10
3038.5820504096
 20
2253.934107456
 30
0.0
  0
VERTEX
  5
5E9
  8
0
  6
CONTINUOUS
 62
     7
 10
3038.158221701
 20
2255.3604283878
 30
0.0
  0
VERTEX
  5
5EA
  8
0
  6
CONTINUOUS
 62
     7
 10
3038.0136580106
 20
2256.711872971
 30
0.0
  0
VERTEX
  5
5EB
  8
0
  6
CONTINUOUS
 62
     7
 10
3038.158221701
 20
2257.8964565396
 30
0.0
  0
VERTEX
  5
5EC
  8
0
  6
CONTINUOUS
 62
     7
 10
3038.5820504096
 20
2258.8333865908
 30
0.0
  0
VERTEX
  5
5ED
  8
0
  6
CONTINUOUS
 62
     7
 10
3038.8624112459
 20
2259.1618355276
 30
0.0
  0
SEQEND
  5
862
  8
0
  6
CONTINUOUS
 62
     7
  0
POLYLINE
  5
322
  8
0
  6
CONTINUOUS
 62
     7
 66
     1
 10
0.0
 20
0.0
 30
0.0
 70
   128
  0
VERTEX
  5
5EE
  8
0
  6
CONTINUOUS
 62
     7
 10
2997.5671529801
 20
2363.1820916631
 30
0.0
  0
VERTEX
  5
5EF
  8
0
  6
CONTINUOUS
 62
     7
 10
2997.6928138089
 20
2364.0722830636
 30
0.0
  0
VERTEX
  5
5F0
  8
0
  6
CONTINUOUS
 62
     7
 10
2998.0169862942
 20
2364.6897485123
 30
0.0
  0
SEQEND
  5
863
  8
0
  6
CONTINUOUS
 62
     7
  0
POLYLINE
  5
323
  8
0
  6
CONTINUOUS
 62
     7
 66
     1
 10
0.0
 20
0.0
 30
0.0
 70
   128
  0
VERTEX
  5
5F1
  8
0
  6
CONTINUOUS
 62
     7
 10
3001.9256428783
 20
2357.9190266949
 30
0.0
  0
VERTEX
  5
5F2
  8
0
  6
CONTINUOUS
 62
     7
 10
3001.8097811917
 20
2357.9042932616
 30
0.0
  0
VERTEX
  5
5F3
  8
0
  6
CONTINUOUS
 62
     7
 10
3001.0249647256
 20
2358.001680544
 30
0.0
  0
VERTEX
  5
5F4
  8
0
  6
CONTINUOUS
 62
     7
 10
3000.1841983181
 20
2358.4142835704
 30
0.0
  0
VERTEX
  5
5F5
  8
0
  6
CONTINUOUS
 62
     7
 10
2999.362229405
 20
2359.1054246246
 30
0.0
  0
VERTEX
  5
5F6
  8
0
  6
CONTINUOUS
 62
     7
 10
2998.6320774014
 20
2360.0137746635
 30
0.0
  0
VERTEX
  5
5F7
  8
0
  6
CONTINUOUS
 62
     7
 10
2998.0586063071
 20
2361.058523861
 30
0.0
  0
VERTEX
  5
5F8
  8
0
  6
CONTINUOUS
 62
     7
 10
2997.6928138089
 20
2362.1468640275
 30
0.0
  0
VERTEX
  5
5F9
  8
0
  6
CONTINUOUS
 62
     7
 10
2997.5671529801
 20
2363.1820916631
 30
0.0
  0
SEQEND
  5
864
  8
0
  6
CONTINUOUS
 62
     7
  0
ARC
  5
324
  8
0
  6
CONTINUOUS
 62
     7
 10
3021.4594594823
 20
2265.080530924
 30
0.0
 40
3.224567472285479
 50
235.409853646
 51
282.806587147
  0
LINE
  5
325
  8
0
  6
CONTINUOUS
 62
     7
 10
3019.6288655153
 20
2262.4259573026
 30
0.0
 11
2999.8298776652
 21
2273.8556697003
 31
0.0
  0
POLYLINE
  5
326
  8
0
  6
CONTINUOUS
 62
     7
 66
     1
 10
0.0
 20
0.0
 30
0.0
 70
   128
  0
VERTEX
  5
5FA
  8
0
  6
CONTINUOUS
 62
     7
 10
2999.8298776652
 20
2273.8556697003
 30
0.0
  0
VERTEX
  5
5FB
  8
0
  6
CONTINUOUS
 62
     7
 10
2998.7318047475
 20
2274.6565105165
 30
0.0
  0
VERTEX
  5
5FC
  8
0
  6
CONTINUOUS
 62
     7
 10
2997.7085635593
 20
2275.7366368303
 30
0.0
  0
VERTEX
  5
5FD
  8
0
  6
CONTINUOUS
 62
     7
 10
2996.8298860616
 20
2277.0224545443
 30
0.0
  0
VERTEX
  5
5FE
  8
0
  6
CONTINUOUS
 62
     7
 10
2996.1556418525
 20
2278.4263517839
 30
0.0
  0
VERTEX
  5
5FF
  8
0
  6
CONTINUOUS
 62
     7
 10
2995.7318131439
 20
2279.8526727157
 30
0.0
  0
VERTEX
  5
600
  8
0
  6
CONTINUOUS
 62
     7
 10
2995.5872494535
 20
2281.2041172989
 30
0.0
  0
VERTEX
  5
601
  8
0
  6
CONTINUOUS
 62
     7
 10
2995.7318131439
 20
2282.3887008675
 30
0.0
  0
VERTEX
  5
602
  8
0
  6
CONTINUOUS
 62
     7
 10
2996.1556418525
 20
2283.3256309187
 30
0.0
  0
VERTEX
  5
603
  8
0
  6
CONTINUOUS
 62
     7
 10
2996.4360026888
 20
2283.6540798556
 30
0.0
  0
SEQEND
  5
865
  8
0
  6
CONTINUOUS
 62
     7
  0
LINE
  5
327
  8
0
  6
CONTINUOUS
 62
     7
 10
3529.8771224755
 20
2431.5359014643
 30
0.0
 11
3530.7256506533
 21
2432.0257463546
 31
0.0
  0
LINE
  5
328
  8
0
  6
CONTINUOUS
 62
     7
 10
3529.8771224755
 20
2431.5359014643
 30
0.0
 11
2985.4049144489
 21
2745.8530167301
 31
0.0
  0
LINE
  5
329
  8
0
  6
CONTINUOUS
 62
     7
 10
2985.4049144489
 20
2745.8530167301
 30
0.0
 11
2986.2534426266
 21
2746.3428616205
 31
0.0
  0
LINE
  5
32A
  8
0
  6
CONTINUOUS
 62
     7
 10
3530.7256506533
 20
2432.0257463546
 30
0.0
 11
2986.2534426266
 21
2746.3428616205
 31
0.0
  0
LINE
  5
32B
  8
0
  6
CONTINUOUS
 62
     7
 10
3530.7256506533
 20
2416.3889745442
 30
0.0
 11
3530.7256506533
 21
2432.0257463546
 31
0.0
  0
LINE
  5
32C
  8
0
  6
CONTINUOUS
 62
     7
 10
3529.8771224755
 20
2415.8991296539
 30
0.0
 11
3529.8771224755
 21
2431.5359014643
 31
0.0
  0
POLYLINE
  5
32D
  8
0
  6
CONTINUOUS
 62
     7
 66
     1
 10
0.0
 20
0.0
 30
0.0
 70
   128
  0
VERTEX
  5
604
  8
0
  6
CONTINUOUS
 62
     7
 10
2996.7186248023
 20
2730.135651057
 30
0.0
  0
VERTEX
  5
605
  8
0
  6
CONTINUOUS
 62
     7
 10
2996.8442856312
 20
2731.0257937879
 30
0.0
  0
VERTEX
  5
606
  8
0
  6
CONTINUOUS
 62
     7
 10
2997.2100781294
 20
2731.6918475951
 30
0.0
  0
VERTEX
  5
607
  8
0
  6
CONTINUOUS
 62
     7
 10
2997.7835492237
 20
2732.0744811607
 30
0.0
  0
VERTEX
  5
608
  8
0
  6
CONTINUOUS
 62
     7
 10
2998.5137012273
 20
2732.1397669707
 30
0.0
  0
VERTEX
  5
609
  8
0
  6
CONTINUOUS
 62
     7
 10
2999.3356701403
 20
2731.8818342489
 30
0.0
  0
VERTEX
  5
60A
  8
0
  6
CONTINUOUS
 62
     7
 10
3000.1764365479
 20
2731.3237577133
 30
0.0
  0
VERTEX
  5
60B
  8
0
  6
CONTINUOUS
 62
     7
 10
3000.961253014
 20
2730.5150151914
 30
0.0
  0
VERTEX
  5
60C
  8
0
  6
CONTINUOUS
 62
     7
 10
3001.6204297247
 20
2729.5274730127
 30
0.0
  0
VERTEX
  5
60D
  8
0
  6
CONTINUOUS
 62
     7
 10
3002.0953614871
 20
2728.4488891796
 30
0.0
  0
VERTEX
  5
60E
  8
0
  6
CONTINUOUS
 62
     7
 10
3002.3438803794
 20
2727.3750537246
 30
0.0
  0
VERTEX
  5
60F
  8
0
  6
CONTINUOUS
 62
     7
 10
3002.3438803794
 20
2726.4014665454
 30
0.0
  0
VERTEX
  5
610
  8
0
  6
CONTINUOUS
 62
     7
 10
3002.0953614871
 20
2725.6145648959
 30
0.0
  0
VERTEX
  5
611
  8
0
  6
CONTINUOUS
 62
     7
 10
3001.6204297247
 20
2725.0843256038
 30
0.0
  0
VERTEX
  5
612
  8
0
  6
CONTINUOUS
 62
     7
 10
3000.961253014
 20
2724.8578526556
 30
0.0
  0
VERTEX
  5
613
  8
0
  6
CONTINUOUS
 62
     7
 10
3000.1764365479
 20
2724.9552399379
 30
0.0
  0
VERTEX
  5
614
  8
0
  6
CONTINUOUS
 62
     7
 10
2999.3356701403
 20
2725.3677942947
 30
0.0
  0
VERTEX
  5
615
  8
0
  6
CONTINUOUS
 62
     7
 10
2998.5137012273
 20
2726.0589840186
 30
0.0
  0
VERTEX
  5
616
  8
0
  6
CONTINUOUS
 62
     7
 10
2997.7835492237
 20
2726.9672853878
 30
0.0
  0
VERTEX
  5
617
  8
0
  6
CONTINUOUS
 62
     7
 10
2997.2100781294
 20
2728.0120345853
 30
0.0
  0
VERTEX
  5
618
  8
0
  6
CONTINUOUS
 62
     7
 10
2996.8442856312
 20
2729.1003260821
 30
0.0
  0
VERTEX
  5
619
  8
0
  6
CONTINUOUS
 62
     7
 10
2996.7186248023
 20
2730.135651057
 30
0.0
  0
SEQEND
  5
866
  8
0
  6
CONTINUOUS
 62
     7
  0
LINE
  5
32E
  8
0
  6
CONTINUOUS
 62
     7
 10
2985.4049144489
 20
2730.2162449197
 30
0.0
 11
2985.4049144489
 21
2745.8530167301
 31
0.0
  0
POLYLINE
  5
32F
  8
0
  6
CONTINUOUS
 62
     7
 66
     1
 10
0.0
 20
0.0
 30
0.0
 70
   128
  0
VERTEX
  5
61A
  8
0
  6
CONTINUOUS
 62
     7
 10
3518.5634121221
 20
2428.8810677214
 30
0.0
  0
VERTEX
  5
61B
  8
0
  6
CONTINUOUS
 62
     7
 10
3518.4377512932
 20
2429.916295357
 30
0.0
  0
VERTEX
  5
61C
  8
0
  6
CONTINUOUS
 62
     7
 10
3518.071958795
 20
2431.0046841931
 30
0.0
  0
VERTEX
  5
61D
  8
0
  6
CONTINUOUS
 62
     7
 10
3517.4984877008
 20
2432.0494333906
 30
0.0
  0
VERTEX
  5
61E
  8
0
  6
CONTINUOUS
 62
     7
 10
3516.7683356972
 20
2432.9577347598
 30
0.0
  0
VERTEX
  5
61F
  8
0
  6
CONTINUOUS
 62
     7
 10
3515.9463667841
 20
2433.6488271445
 30
0.0
  0
VERTEX
  5
620
  8
0
  6
CONTINUOUS
 62
     7
 10
3515.1056003766
 20
2434.0614788405
 30
0.0
  0
VERTEX
  5
621
  8
0
  6
CONTINUOUS
 62
     7
 10
3514.3207839104
 20
2434.1588661228
 30
0.0
  0
VERTEX
  5
622
  8
0
  6
CONTINUOUS
 62
     7
 10
3513.6616071997
 20
2433.9323931746
 30
0.0
  0
VERTEX
  5
623
  8
0
  6
CONTINUOUS
 62
     7
 10
3513.1866754373
 20
2433.4021538825
 30
0.0
  0
VERTEX
  5
624
  8
0
  6
CONTINUOUS
 62
     7
 10
3512.938156545
 20
2432.615252233
 30
0.0
  0
VERTEX
  5
625
  8
0
  6
CONTINUOUS
 62
     7
 10
3512.938156545
 20
2431.6416650538
 30
0.0
  0
VERTEX
  5
626
  8
0
  6
CONTINUOUS
 62
     7
 10
3513.1866754373
 20
2430.5678295988
 30
0.0
  0
VERTEX
  5
627
  8
0
  6
CONTINUOUS
 62
     7
 10
3513.6616071997
 20
2429.4892457657
 30
0.0
  0
VERTEX
  5
628
  8
0
  6
CONTINUOUS
 62
     7
 10
3514.3207839104
 20
2428.501703587
 30
0.0
  0
VERTEX
  5
629
  8
0
  6
CONTINUOUS
 62
     7
 10
3515.1056003766
 20
2427.6929610651
 30
0.0
  0
VERTEX
  5
62A
  8
0
  6
CONTINUOUS
 62
     7
 10
3515.9463667841
 20
2427.1347871903
 30
0.0
  0
VERTEX
  5
62B
  8
0
  6
CONTINUOUS
 62
     7
 10
3516.7683356972
 20
2426.8769518077
 30
0.0
  0
VERTEX
  5
62C
  8
0
  6
CONTINUOUS
 62
     7
 10
3517.4984877008
 20
2426.9422376177
 30
0.0
  0
VERTEX
  5
62D
  8
0
  6
CONTINUOUS
 62
     7
 10
3518.071958795
 20
2427.3248711833
 30
0.0
  0
VERTEX
  5
62E
  8
0
  6
CONTINUOUS
 62
     7
 10
3518.4377512932
 20
2427.9908276513
 30
0.0
  0
VERTEX
  5
62F
  8
0
  6
CONTINUOUS
 62
     7
 10
3518.5634121221
 20
2428.8810677214
 30
0.0
  0
SEQEND
  5
867
  8
0
  6
CONTINUOUS
 62
     7
  0
ARC
  5
330
  8
0
  6
CONTINUOUS
 62
     7
 10
3522.5986006794
 20
2398.9546009507
 30
0.0
 40
8.144823046439404
 50
122.604568991
 51
177.39496581
  0
ARC
  5
331
  8
0
  6
CONTINUOUS
 62
     7
 10
2978.1263926527
 20
2713.2717162166
 30
0.0
 40
8.144823046445005
 50
122.604568991
 51
177.39496581
  0
ARC
  5
332
  8
0
  6
CONTINUOUS
 62
     7
 10
3521.6049821605
 20
2399.5282475538
 30
0.0
 40
6.30077136931263
 50
122.6048553926
 51
177.3948589085
  0
LINE
  5
333
  8
0
  6
CONTINUOUS
 62
     7
 10
3146.0595631735
 20
2555.9026864686
 30
0.0
 11
3126.2605753233
 21
2567.3323988662
 31
0.0
  0
POLYLINE
  5
334
  8
0
  6
CONTINUOUS
 62
     7
 66
     1
 10
0.0
 20
0.0
 30
0.0
 70
   128
  0
VERTEX
  5
630
  8
0
  6
CONTINUOUS
 62
     7
 10
3146.0595631735
 20
2565.7012447381
 30
0.0
  0
VERTEX
  5
631
  8
0
  6
CONTINUOUS
 62
     7
 10
3147.1576466278
 20
2564.9003978391
 30
0.0
  0
VERTEX
  5
632
  8
0
  6
CONTINUOUS
 62
     7
 10
3148.180887816
 20
2563.8202715253
 30
0.0
  0
VERTEX
  5
633
  8
0
  6
CONTINUOUS
 62
     7
 10
3149.0595653137
 20
2562.5344051417
 30
0.0
  0
VERTEX
  5
634
  8
0
  6
CONTINUOUS
 62
     7
 10
3149.7337989861
 20
2561.1305139848
 30
0.0
  0
VERTEX
  5
635
  8
0
  6
CONTINUOUS
 62
     7
 10
3150.1576487681
 20
2559.7042295572
 30
0.0
  0
VERTEX
  5
636
  8
0
  6
CONTINUOUS
 62
     7
 10
3150.3022124585
 20
2558.3527363044
 30
0.0
  0
VERTEX
  5
637
  8
0
  6
CONTINUOUS
 62
     7
 10
3150.1576487681
 20
2557.1681527357
 30
0.0
  0
VERTEX
  5
638
  8
0
  6
CONTINUOUS
 62
     7
 10
3149.7337989861
 20
2556.23123485
 30
0.0
  0
VERTEX
  5
639
  8
0
  6
CONTINUOUS
 62
     7
 10
3149.0595653137
 20
2555.6057973214
 30
0.0
  0
VERTEX
  5
63A
  8
0
  6
CONTINUOUS
 62
     7
 10
3148.180887816
 20
2555.3345277216
 30
0.0
  0
VERTEX
  5
63B
  8
0
  6
CONTINUOUS
 62
     7
 10
3147.1576466278
 20
2555.4358105367
 30
0.0
  0
VERTEX
  5
63C
  8
0
  6
CONTINUOUS
 62
     7
 10
3146.0595631735
 20
2555.9026864686
 30
0.0
  0
SEQEND
  5
868
  8
0
  6
CONTINUOUS
 62
     7
  0
LINE
  5
335
  8
0
  6
CONTINUOUS
 62
     7
 10
3126.2605753233
 20
2577.1309571357
 30
0.0
 11
3146.0595631735
 21
2565.7012447381
 31
0.0
  0
POLYLINE
  5
336
  8
0
  6
CONTINUOUS
 62
     7
 66
     1
 10
0.0
 20
0.0
 30
0.0
 70
   128
  0
VERTEX
  5
63D
  8
0
  6
CONTINUOUS
 62
     7
 10
3126.2605753233
 20
2567.3323988662
 30
0.0
  0
VERTEX
  5
63E
  8
0
  6
CONTINUOUS
 62
     7
 10
3125.1625024056
 20
2568.1333370217
 30
0.0
  0
VERTEX
  5
63F
  8
0
  6
CONTINUOUS
 62
     7
 10
3124.1392612174
 20
2569.2134633355
 30
0.0
  0
VERTEX
  5
640
  8
0
  6
CONTINUOUS
 62
     7
 10
3123.2605837197
 20
2570.4992323799
 30
0.0
  0
VERTEX
  5
641
  8
0
  6
CONTINUOUS
 62
     7
 10
3122.5863395106
 20
2571.9031296195
 30
0.0
  0
VERTEX
  5
642
  8
0
  6
CONTINUOUS
 62
     7
 10
3122.1625002653
 20
2573.3294079644
 30
0.0
  0
VERTEX
  5
643
  8
0
  6
CONTINUOUS
 62
     7
 10
3122.0179365749
 20
2574.6809012172
 30
0.0
  0
VERTEX
  5
644
  8
0
  6
CONTINUOUS
 62
     7
 10
3122.1625002653
 20
2575.8654847859
 30
0.0
  0
VERTEX
  5
645
  8
0
  6
CONTINUOUS
 62
     7
 10
3122.5863395106
 20
2576.8024087543
 30
0.0
  0
VERTEX
  5
646
  8
0
  6
CONTINUOUS
 62
     7
 10
3123.2605837197
 20
2577.4278402002
 30
0.0
  0
VERTEX
  5
647
  8
0
  6
CONTINUOUS
 62
     7
 10
3124.1392612174
 20
2577.6992071392
 30
0.0
  0
VERTEX
  5
648
  8
0
  6
CONTINUOUS
 62
     7
 10
3125.1625024056
 20
2577.5979243242
 30
0.0
  0
VERTEX
  5
649
  8
0
  6
CONTINUOUS
 62
     7
 10
3126.2605753233
 20
2577.1309571357
 30
0.0
  0
SEQEND
  5
869
  8
0
  6
CONTINUOUS
 62
     7
  0
LINE
  5
337
  8
0
  6
CONTINUOUS
 62
     7
 10
3188.4859769989
 20
2531.4104390993
 30
0.0
 11
3168.6869838803
 21
2542.8401545383
 31
0.0
  0
POLYLINE
  5
338
  8
0
  6
CONTINUOUS
 62
     7
 66
     1
 10
0.0
 20
0.0
 30
0.0
 70
   128
  0
VERTEX
  5
64A
  8
0
  6
CONTINUOUS
 62
     7
 10
3188.4859769989
 20
2541.2089973688
 30
0.0
  0
VERTEX
  5
64B
  8
0
  6
CONTINUOUS
 62
     7
 10
3189.5840499166
 20
2540.4081565526
 30
0.0
  0
VERTEX
  5
64C
  8
0
  6
CONTINUOUS
 62
     7
 10
3190.6072963731
 20
2539.3280271974
 30
0.0
  0
VERTEX
  5
64D
  8
0
  6
CONTINUOUS
 62
     7
 10
3191.4859738708
 20
2538.0421608137
 30
0.0
  0
VERTEX
  5
64E
  8
0
  6
CONTINUOUS
 62
     7
 10
3192.1602075432
 20
2536.6382696568
 30
0.0
  0
VERTEX
  5
64F
  8
0
  6
CONTINUOUS
 62
     7
 10
3192.5840520568
 20
2535.2119882706
 30
0.0
  0
VERTEX
  5
650
  8
0
  6
CONTINUOUS
 62
     7
 10
3192.7286157472
 20
2533.8604950178
 30
0.0
  0
VERTEX
  5
651
  8
0
  6
CONTINUOUS
 62
     7
 10
3192.5840520568
 20
2532.6759114492
 30
0.0
  0
VERTEX
  5
652
  8
0
  6
CONTINUOUS
 62
     7
 10
3192.1602075432
 20
2531.7389905221
 30
0.0
  0
VERTEX
  5
653
  8
0
  6
CONTINUOUS
 62
     7
 10
3191.4859738708
 20
2531.1135529935
 30
0.0
  0
VERTEX
  5
654
  8
0
  6
CONTINUOUS
 62
     7
 10
3190.6072963731
 20
2530.8422833937
 30
0.0
  0
VERTEX
  5
655
  8
0
  6
CONTINUOUS
 62
     7
 10
3189.5840499166
 20
2530.9435692501
 30
0.0
  0
VERTEX
  5
656
  8
0
  6
CONTINUOUS
 62
     7
 10
3188.4859769989
 20
2531.4104390993
 30
0.0
  0
SEQEND
  5
86A
  8
0
  6
CONTINUOUS
 62
     7
  0
LINE
  5
339
  8
0
  6
CONTINUOUS
 62
     7
 10
3168.6869838803
 20
2552.6387128078
 30
0.0
 11
3188.4859769989
 21
2541.2089973688
 31
0.0
  0
POLYLINE
  5
33A
  8
0
  6
CONTINUOUS
 62
     7
 66
     1
 10
0.0
 20
0.0
 30
0.0
 70
   128
  0
VERTEX
  5
657
  8
0
  6
CONTINUOUS
 62
     7
 10
3168.6869838803
 20
2542.8401545383
 30
0.0
  0
VERTEX
  5
658
  8
0
  6
CONTINUOUS
 62
     7
 10
3167.5889109627
 20
2543.6410926938
 30
0.0
  0
VERTEX
  5
659
  8
0
  6
CONTINUOUS
 62
     7
 10
3166.5656645062
 20
2544.721222049
 30
0.0
  0
VERTEX
  5
65A
  8
0
  6
CONTINUOUS
 62
     7
 10
3165.6869870084
 20
2546.0069910934
 30
0.0
  0
VERTEX
  5
65B
  8
0
  6
CONTINUOUS
 62
     7
 10
3165.0127533361
 20
2547.4108822503
 30
0.0
  0
VERTEX
  5
65C
  8
0
  6
CONTINUOUS
 62
     7
 10
3164.5889088224
 20
2548.8371636365
 30
0.0
  0
VERTEX
  5
65D
  8
0
  6
CONTINUOUS
 62
     7
 10
3164.444345132
 20
2550.1886568893
 30
0.0
  0
VERTEX
  5
65E
  8
0
  6
CONTINUOUS
 62
     7
 10
3164.5889088224
 20
2551.3732404579
 30
0.0
  0
VERTEX
  5
65F
  8
0
  6
CONTINUOUS
 62
     7
 10
3165.0127533361
 20
2552.310161385
 30
0.0
  0
VERTEX
  5
660
  8
0
  6
CONTINUOUS
 62
     7
 10
3165.6869870084
 20
2552.9355989137
 30
0.0
  0
VERTEX
  5
661
  8
0
  6
CONTINUOUS
 62
     7
 10
3166.5656645062
 20
2553.2069658527
 30
0.0
  0
VERTEX
  5
662
  8
0
  6
CONTINUOUS
 62
     7
 10
3167.5889109627
 20
2553.1056799963
 30
0.0
  0
VERTEX
  5
663
  8
0
  6
CONTINUOUS
 62
     7
 10
3168.6869838803
 20
2552.6387128078
 30
0.0
  0
SEQEND
  5
86B
  8
0
  6
CONTINUOUS
 62
     7
  0
LINE
  5
33B
  8
0
  6
CONTINUOUS
 62
     7
 10
3103.6331651531
 20
2580.3949247138
 30
0.0
 11
3083.8341667662
 21
2591.8246431942
 31
0.0
  0
POLYLINE
  5
33C
  8
0
  6
CONTINUOUS
 62
     7
 66
     1
 10
0.0
 20
0.0
 30
0.0
 70
   128
  0
VERTEX
  5
664
  8
0
  6
CONTINUOUS
 62
     7
 10
3103.6331651531
 20
2590.1934829833
 30
0.0
  0
VERTEX
  5
665
  8
0
  6
CONTINUOUS
 62
     7
 10
3104.7312380708
 20
2589.392642167
 30
0.0
  0
VERTEX
  5
666
  8
0
  6
CONTINUOUS
 62
     7
 10
3105.7544792589
 20
2588.3125158533
 30
0.0
  0
VERTEX
  5
667
  8
0
  6
CONTINUOUS
 62
     7
 10
3106.6331567567
 20
2587.0266494696
 30
0.0
  0
VERTEX
  5
668
  8
0
  6
CONTINUOUS
 62
     7
 10
3107.3074009657
 20
2585.62275223
 30
0.0
  0
VERTEX
  5
669
  8
0
  6
CONTINUOUS
 62
     7
 10
3107.7312402111
 20
2584.1964738851
 30
0.0
  0
VERTEX
  5
66A
  8
0
  6
CONTINUOUS
 62
     7
 10
3107.8758039015
 20
2582.8449806323
 30
0.0
  0
VERTEX
  5
66B
  8
0
  6
CONTINUOUS
 62
     7
 10
3107.7312402111
 20
2581.6603970637
 30
0.0
  0
VERTEX
  5
66C
  8
0
  6
CONTINUOUS
 62
     7
 10
3107.3074009657
 20
2580.7234730952
 30
0.0
  0
VERTEX
  5
66D
  8
0
  6
CONTINUOUS
 62
     7
 10
3106.6331567567
 20
2580.0980416493
 30
0.0
  0
VERTEX
  5
66E
  8
0
  6
CONTINUOUS
 62
     7
 10
3105.7544792589
 20
2579.8267720495
 30
0.0
  0
VERTEX
  5
66F
  8
0
  6
CONTINUOUS
 62
     7
 10
3104.7312380708
 20
2579.9280548646
 30
0.0
  0
VERTEX
  5
670
  8
0
  6
CONTINUOUS
 62
     7
 10
3103.6331651531
 20
2580.3949247138
 30
0.0
  0
SEQEND
  5
86C
  8
0
  6
CONTINUOUS
 62
     7
  0
LINE
  5
33D
  8
0
  6
CONTINUOUS
 62
     7
 10
3083.8341667662
 20
2601.6232014636
 30
0.0
 11
3103.6331651531
 21
2590.1934829833
 31
0.0
  0
POLYLINE
  5
33E
  8
0
  6
CONTINUOUS
 62
     7
 66
     1
 10
0.0
 20
0.0
 30
0.0
 70
   128
  0
VERTEX
  5
671
  8
0
  6
CONTINUOUS
 62
     7
 10
3083.8341667662
 20
2591.8246431942
 30
0.0
  0
VERTEX
  5
672
  8
0
  6
CONTINUOUS
 62
     7
 10
3082.7360938485
 20
2592.6255813496
 30
0.0
  0
VERTEX
  5
673
  8
0
  6
CONTINUOUS
 62
     7
 10
3081.7128526604
 20
2593.7057076634
 30
0.0
  0
VERTEX
  5
674
  8
0
  6
CONTINUOUS
 62
     7
 10
3080.8341751626
 20
2594.9914767079
 30
0.0
  0
VERTEX
  5
675
  8
0
  6
CONTINUOUS
 62
     7
 10
3080.1599414903
 20
2596.3953678647
 30
0.0
  0
VERTEX
  5
676
  8
0
  6
CONTINUOUS
 62
     7
 10
3079.7360917082
 20
2597.8216522923
 30
0.0
  0
VERTEX
  5
677
  8
0
  6
CONTINUOUS
 62
     7
 10
3079.5915280178
 20
2599.1731455451
 30
0.0
  0
VERTEX
  5
678
  8
0
  6
CONTINUOUS
 62
     7
 10
3079.7360917082
 20
2600.3577291138
 30
0.0
  0
VERTEX
  5
679
  8
0
  6
CONTINUOUS
 62
     7
 10
3080.1599414903
 20
2601.2946469995
 30
0.0
  0
VERTEX
  5
67A
  8
0
  6
CONTINUOUS
 62
     7
 10
3080.8341751626
 20
2601.9200845281
 30
0.0
  0
VERTEX
  5
67B
  8
0
  6
CONTINUOUS
 62
     7
 10
3081.7128526604
 20
2602.1914514671
 30
0.0
  0
VERTEX
  5
67C
  8
0
  6
CONTINUOUS
 62
     7
 10
3082.7360938485
 20
2602.0901686521
 30
0.0
  0
VERTEX
  5
67D
  8
0
  6
CONTINUOUS
 62
     7
 10
3083.8341667662
 20
2601.6232014636
 30
0.0
  0
SEQEND
  5
86D
  8
0
  6
CONTINUOUS
 62
     7
  0
LINE
  5
33F
  8
0
  6
CONTINUOUS
 62
     7
 10
3061.2067460593
 20
2604.8871751244
 30
0.0
 11
3041.4077582091
 21
2616.3168875221
 31
0.0
  0
POLYLINE
  5
340
  8
0
  6
CONTINUOUS
 62
     7
 66
     1
 10
0.0
 20
0.0
 30
0.0
 70
   128
  0
VERTEX
  5
67E
  8
0
  6
CONTINUOUS
 62
     7
 10
3061.2067460593
 20
2614.6857333939
 30
0.0
  0
VERTEX
  5
67F
  8
0
  6
CONTINUOUS
 62
     7
 10
3062.3048400504
 20
2613.8848804122
 30
0.0
  0
VERTEX
  5
680
  8
0
  6
CONTINUOUS
 62
     7
 10
3063.3280812386
 20
2612.8047540985
 30
0.0
  0
VERTEX
  5
681
  8
0
  6
CONTINUOUS
 62
     7
 10
3064.2067587363
 20
2611.5188877148
 30
0.0
  0
VERTEX
  5
682
  8
0
  6
CONTINUOUS
 62
     7
 10
3064.880981872
 20
2610.1150026406
 30
0.0
  0
VERTEX
  5
683
  8
0
  6
CONTINUOUS
 62
     7
 10
3065.304831654
 20
2608.688718213
 30
0.0
  0
VERTEX
  5
684
  8
0
  6
CONTINUOUS
 62
     7
 10
3065.4493953444
 20
2607.3372249602
 30
0.0
  0
VERTEX
  5
685
  8
0
  6
CONTINUOUS
 62
     7
 10
3065.304831654
 20
2606.1526413916
 30
0.0
  0
VERTEX
  5
686
  8
0
  6
CONTINUOUS
 62
     7
 10
3064.880981872
 20
2605.2157235059
 30
0.0
  0
VERTEX
  5
687
  8
0
  6
CONTINUOUS
 62
     7
 10
3064.2067587363
 20
2604.5902798945
 30
0.0
  0
VERTEX
  5
688
  8
0
  6
CONTINUOUS
 62
     7
 10
3063.3280812386
 20
2604.3190102947
 30
0.0
  0
VERTEX
  5
689
  8
0
  6
CONTINUOUS
 62
     7
 10
3062.3048400504
 20
2604.4202931098
 30
0.0
  0
VERTEX
  5
68A
  8
0
  6
CONTINUOUS
 62
     7
 10
3061.2067460593
 20
2604.8871751244
 30
0.0
  0
SEQEND
  5
86E
  8
0
  6
CONTINUOUS
 62
     7
  0
LINE
  5
341
  8
0
  6
CONTINUOUS
 62
     7
 10
3041.4077582091
 20
2626.1154457915
 30
0.0
 11
3061.2067460593
 21
2614.6857333939
 31
0.0
  0
POLYLINE
  5
342
  8
0
  6
CONTINUOUS
 62
     7
 66
     1
 10
0.0
 20
0.0
 30
0.0
 70
   128
  0
VERTEX
  5
68B
  8
0
  6
CONTINUOUS
 62
     7
 10
3041.4077582091
 20
2616.3168875221
 30
0.0
  0
VERTEX
  5
68C
  8
0
  6
CONTINUOUS
 62
     7
 10
3040.3096852915
 20
2617.1178256776
 30
0.0
  0
VERTEX
  5
68D
  8
0
  6
CONTINUOUS
 62
     7
 10
3039.2864441033
 20
2618.1979519913
 30
0.0
  0
VERTEX
  5
68E
  8
0
  6
CONTINUOUS
 62
     7
 10
3038.4077666056
 20
2619.4837210358
 30
0.0
  0
VERTEX
  5
68F
  8
0
  6
CONTINUOUS
 62
     7
 10
3037.7335223965
 20
2620.8876182754
 30
0.0
  0
VERTEX
  5
690
  8
0
  6
CONTINUOUS
 62
     7
 10
3037.3096936879
 20
2622.3138905375
 30
0.0
  0
VERTEX
  5
691
  8
0
  6
CONTINUOUS
 62
     7
 10
3037.1651299975
 20
2623.6653837903
 30
0.0
  0
VERTEX
  5
692
  8
0
  6
CONTINUOUS
 62
     7
 10
3037.3096936879
 20
2624.849967359
 30
0.0
  0
VERTEX
  5
693
  8
0
  6
CONTINUOUS
 62
     7
 10
3037.7335223965
 20
2625.7868974101
 30
0.0
  0
VERTEX
  5
694
  8
0
  6
CONTINUOUS
 62
     7
 10
3038.4077666056
 20
2626.412328856
 30
0.0
  0
VERTEX
  5
695
  8
0
  6
CONTINUOUS
 62
     7
 10
3039.2864441033
 20
2626.6836957951
 30
0.0
  0
VERTEX
  5
696
  8
0
  6
CONTINUOUS
 62
     7
 10
3040.3096852915
 20
2626.58241298
 30
0.0
  0
VERTEX
  5
697
  8
0
  6
CONTINUOUS
 62
     7
 10
3041.4077582091
 20
2626.1154457915
 30
0.0
  0
SEQEND
  5
86F
  8
0
  6
CONTINUOUS
 62
     7
  0
LINE
  5
343
  8
0
  6
CONTINUOUS
 62
     7
 10
3018.7803375023
 20
2629.3794194524
 30
0.0
 11
2998.9813496521
 21
2640.80913185
 31
0.0
  0
POLYLINE
  5
344
  8
0
  6
CONTINUOUS
 62
     7
 66
     1
 10
0.0
 20
0.0
 30
0.0
 70
   128
  0
VERTEX
  5
698
  8
0
  6
CONTINUOUS
 62
     7
 10
3018.7803375023
 20
2639.1779777218
 30
0.0
  0
VERTEX
  5
699
  8
0
  6
CONTINUOUS
 62
     7
 10
3019.8784314934
 20
2638.3771247402
 30
0.0
  0
VERTEX
  5
69A
  8
0
  6
CONTINUOUS
 62
     7
 10
3020.9016726815
 20
2637.2969984264
 30
0.0
  0
VERTEX
  5
69B
  8
0
  6
CONTINUOUS
 62
     7
 10
3021.7803501793
 20
2636.0111320427
 30
0.0
  0
VERTEX
  5
69C
  8
0
  6
CONTINUOUS
 62
     7
 10
3022.4545733149
 20
2634.6072469685
 30
0.0
  0
VERTEX
  5
69D
  8
0
  6
CONTINUOUS
 62
     7
 10
3022.8784230969
 20
2633.1809625409
 30
0.0
  0
VERTEX
  5
69E
  8
0
  6
CONTINUOUS
 62
     7
 10
3023.0229867873
 20
2631.8294692881
 30
0.0
  0
VERTEX
  5
69F
  8
0
  6
CONTINUOUS
 62
     7
 10
3022.8784230969
 20
2630.6448857195
 30
0.0
  0
VERTEX
  5
6A0
  8
0
  6
CONTINUOUS
 62
     7
 10
3022.4545733149
 20
2629.7079678338
 30
0.0
  0
VERTEX
  5
6A1
  8
0
  6
CONTINUOUS
 62
     7
 10
3021.7803501793
 20
2629.0825242224
 30
0.0
  0
VERTEX
  5
6A2
  8
0
  6
CONTINUOUS
 62
     7
 10
3020.9016726815
 20
2628.8112546227
 30
0.0
  0
VERTEX
  5
6A3
  8
0
  6
CONTINUOUS
 62
     7
 10
3019.8784314934
 20
2628.9125374377
 30
0.0
  0
VERTEX
  5
6A4
  8
0
  6
CONTINUOUS
 62
     7
 10
3018.7803375023
 20
2629.3794194524
 30
0.0
  0
SEQEND
  5
870
  8
0
  6
CONTINUOUS
 62
     7
  0
LINE
  5
345
  8
0
  6
CONTINUOUS
 62
     7
 10
2998.9813496521
 20
2650.6076901195
 30
0.0
 11
3018.7803375023
 21
2639.1779777218
 31
0.0
  0
POLYLINE
  5
346
  8
0
  6
CONTINUOUS
 62
     7
 66
     1
 10
0.0
 20
0.0
 30
0.0
 70
   128
  0
VERTEX
  5
6A5
  8
0
  6
CONTINUOUS
 62
     7
 10
2998.9813496521
 20
2640.80913185
 30
0.0
  0
VERTEX
  5
6A6
  8
0
  6
CONTINUOUS
 62
     7
 10
2997.8832767344
 20
2641.6100700055
 30
0.0
  0
VERTEX
  5
6A7
  8
0
  6
CONTINUOUS
 62
     7
 10
2996.8600355462
 20
2642.6901963193
 30
0.0
  0
VERTEX
  5
6A8
  8
0
  6
CONTINUOUS
 62
     7
 10
2995.9813580485
 20
2643.9759653637
 30
0.0
  0
VERTEX
  5
6A9
  8
0
  6
CONTINUOUS
 62
     7
 10
2995.3071138394
 20
2645.3798626033
 30
0.0
  0
VERTEX
  5
6AA
  8
0
  6
CONTINUOUS
 62
     7
 10
2994.8832851308
 20
2646.8061348655
 30
0.0
  0
VERTEX
  5
6AB
  8
0
  6
CONTINUOUS
 62
     7
 10
2994.7387214404
 20
2648.1576281183
 30
0.0
  0
VERTEX
  5
6AC
  8
0
  6
CONTINUOUS
 62
     7
 10
2994.8832851308
 20
2649.3422116869
 30
0.0
  0
VERTEX
  5
6AD
  8
0
  6
CONTINUOUS
 62
     7
 10
2995.3071138394
 20
2650.279141738
 30
0.0
  0
VERTEX
  5
6AE
  8
0
  6
CONTINUOUS
 62
     7
 10
2995.9813580485
 20
2650.904573184
 30
0.0
  0
VERTEX
  5
6AF
  8
0
  6
CONTINUOUS
 62
     7
 10
2996.8600355462
 20
2651.175940123
 30
0.0
  0
VERTEX
  5
6B0
  8
0
  6
CONTINUOUS
 62
     7
 10
2997.8832767344
 20
2651.0746573079
 30
0.0
  0
VERTEX
  5
6B1
  8
0
  6
CONTINUOUS
 62
     7
 10
2998.9813496521
 20
2650.6076901195
 30
0.0
  0
SEQEND
  5
871
  8
0
  6
CONTINUOUS
 62
     7
  0
LINE
  5
347
  8
0
  6
CONTINUOUS
 62
     7
 10
3514.4621946544
 20
2296.9305660146
 30
0.0
 11
3514.4621946544
 21
2399.3247893539
 31
0.0
  0
LINE
  5
348
  8
0
  6
CONTINUOUS
 62
     7
 10
2969.9899866277
 20
2611.2476812804
 30
0.0
 11
2969.9899866277
 21
2713.6419046198
 31
0.0
  0
LINE
  5
349
  8
0
  6
CONTINUOUS
 62
     7
 10
3358.1916059588
 20
2443.2400230985
 30
0.0
 11
3338.3926181086
 21
2454.6697354961
 31
0.0
  0
POLYLINE
  5
34A
  8
0
  6
CONTINUOUS
 62
     7
 66
     1
 10
0.0
 20
0.0
 30
0.0
 70
   128
  0
VERTEX
  5
6B2
  8
0
  6
CONTINUOUS
 62
     7
 10
3338.3926181086
 20
2454.6697354961
 30
0.0
  0
VERTEX
  5
6B3
  8
0
  6
CONTINUOUS
 62
     7
 10
3337.2945346542
 20
2455.1367087673
 30
0.0
  0
VERTEX
  5
6B4
  8
0
  6
CONTINUOUS
 62
     7
 10
3336.2712934661
 20
2455.2379915824
 30
0.0
  0
VERTEX
  5
6B5
  8
0
  6
CONTINUOUS
 62
     7
 10
3335.3926159683
 20
2454.9666246434
 30
0.0
  0
VERTEX
  5
6B6
  8
0
  6
CONTINUOUS
 62
     7
 10
3334.718382296
 20
2454.3411871147
 30
0.0
  0
VERTEX
  5
6B7
  8
0
  6
CONTINUOUS
 62
     7
 10
3334.2945325139
 20
2453.404269229
 30
0.0
  0
VERTEX
  5
6B8
  8
0
  6
CONTINUOUS
 62
     7
 10
3334.1499688235
 20
2452.2196856604
 30
0.0
  0
VERTEX
  5
6B9
  8
0
  6
CONTINUOUS
 62
     7
 10
3334.2945325139
 20
2450.8681924076
 30
0.0
  0
VERTEX
  5
6BA
  8
0
  6
CONTINUOUS
 62
     7
 10
3334.718382296
 20
2449.44190798
 30
0.0
  0
VERTEX
  5
6BB
  8
0
  6
CONTINUOUS
 62
     7
 10
3335.3926159683
 20
2448.0380168231
 30
0.0
  0
VERTEX
  5
6BC
  8
0
  6
CONTINUOUS
 62
     7
 10
3336.2712934661
 20
2446.7522477786
 30
0.0
  0
VERTEX
  5
6BD
  8
0
  6
CONTINUOUS
 62
     7
 10
3337.2945346542
 20
2445.6721214649
 30
0.0
  0
VERTEX
  5
6BE
  8
0
  6
CONTINUOUS
 62
     7
 10
3338.3926181086
 20
2444.8711772267
 30
0.0
  0
SEQEND
  5
872
  8
0
  6
CONTINUOUS
 62
     7
  0
LINE
  5
34B
  8
0
  6
CONTINUOUS
 62
     7
 10
3338.3926181086
 20
2444.8711772267
 30
0.0
 11
3358.1916059588
 21
2433.441464829
 31
0.0
  0
POLYLINE
  5
34C
  8
0
  6
CONTINUOUS
 62
     7
 66
     1
 10
0.0
 20
0.0
 30
0.0
 70
   128
  0
VERTEX
  5
6BF
  8
0
  6
CONTINUOUS
 62
     7
 10
3358.1916059588
 20
2433.441464829
 30
0.0
  0
VERTEX
  5
6C0
  8
0
  6
CONTINUOUS
 62
     7
 10
3359.2896788765
 20
2432.9745949798
 30
0.0
  0
VERTEX
  5
6C1
  8
0
  6
CONTINUOUS
 62
     7
 10
3360.3129200646
 20
2432.8733121648
 30
0.0
  0
VERTEX
  5
6C2
  8
0
  6
CONTINUOUS
 62
     7
 10
3361.1915975624
 20
2433.1445817645
 30
0.0
  0
VERTEX
  5
6C3
  8
0
  6
CONTINUOUS
 62
     7
 10
3361.8658417714
 20
2433.7700132105
 30
0.0
  0
VERTEX
  5
6C4
  8
0
  6
CONTINUOUS
 62
     7
 10
3362.2896810168
 20
2434.7069371789
 30
0.0
  0
VERTEX
  5
6C5
  8
0
  6
CONTINUOUS
 62
     7
 10
3362.4342447071
 20
2435.8915207475
 30
0.0
  0
VERTEX
  5
6C6
  8
0
  6
CONTINUOUS
 62
     7
 10
3362.2896810168
 20
2437.2430140003
 30
0.0
  0
VERTEX
  5
6C7
  8
0
  6
CONTINUOUS
 62
     7
 10
3361.8658417714
 20
2438.6692923452
 30
0.0
  0
VERTEX
  5
6C8
  8
0
  6
CONTINUOUS
 62
     7
 10
3361.1915975624
 20
2440.0731895848
 30
0.0
  0
VERTEX
  5
6C9
  8
0
  6
CONTINUOUS
 62
     7
 10
3360.3129200646
 20
2441.3590559685
 30
0.0
  0
VERTEX
  5
6CA
  8
0
  6
CONTINUOUS
 62
     7
 10
3359.2896788765
 20
2442.4391822823
 30
0.0
  0
VERTEX
  5
6CB
  8
0
  6
CONTINUOUS
 62
     7
 10
3358.1916059588
 20
2443.2400230985
 30
0.0
  0
SEQEND
  5
873
  8
0
  6
CONTINUOUS
 62
     7
  0
LINE
  5
34D
  8
0
  6
CONTINUOUS
 62
     7
 10
3315.7651974017
 20
2467.7322674264
 30
0.0
 11
3295.9662042832
 21
2479.1619828654
 31
0.0
  0
POLYLINE
  5
34E
  8
0
  6
CONTINUOUS
 62
     7
 66
     1
 10
0.0
 20
0.0
 30
0.0
 70
   128
  0
VERTEX
  5
6CC
  8
0
  6
CONTINUOUS
 62
     7
 10
3295.9662042832
 20
2479.1619828654
 30
0.0
  0
VERTEX
  5
6CD
  8
0
  6
CONTINUOUS
 62
     7
 10
3294.8681313655
 20
2479.6289500539
 30
0.0
  0
VERTEX
  5
6CE
  8
0
  6
CONTINUOUS
 62
     7
 10
3293.844884909
 20
2479.7302359103
 30
0.0
  0
VERTEX
  5
6CF
  8
0
  6
CONTINUOUS
 62
     7
 10
3292.9662074112
 20
2479.4588689713
 30
0.0
  0
VERTEX
  5
6D0
  8
0
  6
CONTINUOUS
 62
     7
 10
3292.2919737389
 20
2478.8334314426
 30
0.0
  0
VERTEX
  5
6D1
  8
0
  6
CONTINUOUS
 62
     7
 10
3291.8681292252
 20
2477.8965105156
 30
0.0
  0
VERTEX
  5
6D2
  8
0
  6
CONTINUOUS
 62
     7
 10
3291.7235655348
 20
2476.7119269469
 30
0.0
  0
VERTEX
  5
6D3
  8
0
  6
CONTINUOUS
 62
     7
 10
3291.8681292252
 20
2475.3604336941
 30
0.0
  0
VERTEX
  5
6D4
  8
0
  6
CONTINUOUS
 62
     7
 10
3292.2919737389
 20
2473.9341523079
 30
0.0
  0
VERTEX
  5
6D5
  8
0
  6
CONTINUOUS
 62
     7
 10
3292.9662074112
 20
2472.530261151
 30
0.0
  0
VERTEX
  5
6D6
  8
0
  6
CONTINUOUS
 62
     7
 10
3293.844884909
 20
2471.2444921066
 30
0.0
  0
VERTEX
  5
6D7
  8
0
  6
CONTINUOUS
 62
     7
 10
3294.8681313655
 20
2470.1643627514
 30
0.0
  0
VERTEX
  5
6D8
  8
0
  6
CONTINUOUS
 62
     7
 10
3295.9662042832
 20
2469.3634245959
 30
0.0
  0
SEQEND
  5
874
  8
0
  6
CONTINUOUS
 62
     7
  0
LINE
  5
34F
  8
0
  6
CONTINUOUS
 62
     7
 10
3295.9662042832
 20
2469.3634245959
 30
0.0
 11
3315.7651974017
 21
2457.9337091569
 31
0.0
  0
POLYLINE
  5
350
  8
0
  6
CONTINUOUS
 62
     7
 66
     1
 10
0.0
 20
0.0
 30
0.0
 70
   128
  0
VERTEX
  5
6D9
  8
0
  6
CONTINUOUS
 62
     7
 10
3315.7651974017
 20
2457.9337091569
 30
0.0
  0
VERTEX
  5
6DA
  8
0
  6
CONTINUOUS
 62
     7
 10
3316.8632703194
 20
2457.4668393077
 30
0.0
  0
VERTEX
  5
6DB
  8
0
  6
CONTINUOUS
 62
     7
 10
3317.8865167759
 20
2457.3655534513
 30
0.0
  0
VERTEX
  5
6DC
  8
0
  6
CONTINUOUS
 62
     7
 10
3318.7651942737
 20
2457.6368230511
 30
0.0
  0
VERTEX
  5
6DD
  8
0
  6
CONTINUOUS
 62
     7
 10
3319.439427946
 20
2458.2622605797
 30
0.0
  0
VERTEX
  5
6DE
  8
0
  6
CONTINUOUS
 62
     7
 10
3319.8632724597
 20
2459.1991815068
 30
0.0
  0
VERTEX
  5
6DF
  8
0
  6
CONTINUOUS
 62
     7
 10
3320.0078361501
 20
2460.3837650754
 30
0.0
  0
VERTEX
  5
6E0
  8
0
  6
CONTINUOUS
 62
     7
 10
3319.8632724597
 20
2461.7352583282
 30
0.0
  0
VERTEX
  5
6E1
  8
0
  6
CONTINUOUS
 62
     7
 10
3319.439427946
 20
2463.1615397145
 30
0.0
  0
VERTEX
  5
6E2
  8
0
  6
CONTINUOUS
 62
     7
 10
3318.7651942737
 20
2464.5654308713
 30
0.0
  0
VERTEX
  5
6E3
  8
0
  6
CONTINUOUS
 62
     7
 10
3317.8865167759
 20
2465.851297255
 30
0.0
  0
VERTEX
  5
6E4
  8
0
  6
CONTINUOUS
 62
     7
 10
3316.8632703194
 20
2466.9314266102
 30
0.0
  0
VERTEX
  5
6E5
  8
0
  6
CONTINUOUS
 62
     7
 10
3315.7651974017
 20
2467.7322674264
 30
0.0
  0
SEQEND
  5
875
  8
0
  6
CONTINUOUS
 62
     7
  0
LINE
  5
351
  8
0
  6
CONTINUOUS
 62
     7
 10
3400.6180145159
 20
2418.7477787706
 30
0.0
 11
3380.819016129
 21
2430.1774972509
 31
0.0
  0
POLYLINE
  5
352
  8
0
  6
CONTINUOUS
 62
     7
 66
     1
 10
0.0
 20
0.0
 30
0.0
 70
   128
  0
VERTEX
  5
6E6
  8
0
  6
CONTINUOUS
 62
     7
 10
3380.819016129
 20
2430.1774972509
 30
0.0
  0
VERTEX
  5
6E7
  8
0
  6
CONTINUOUS
 62
     7
 10
3379.7209432113
 20
2430.6444644394
 30
0.0
  0
VERTEX
  5
6E8
  8
0
  6
CONTINUOUS
 62
     7
 10
3378.6977020231
 20
2430.7457472544
 30
0.0
  0
VERTEX
  5
6E9
  8
0
  6
CONTINUOUS
 62
     7
 10
3377.8190245254
 20
2430.4743803154
 30
0.0
  0
VERTEX
  5
6EA
  8
0
  6
CONTINUOUS
 62
     7
 10
3377.1447803163
 20
2429.8489488695
 30
0.0
  0
VERTEX
  5
6EB
  8
0
  6
CONTINUOUS
 62
     7
 10
3376.720941071
 20
2428.9120249011
 30
0.0
  0
VERTEX
  5
6EC
  8
0
  6
CONTINUOUS
 62
     7
 10
3376.5763773806
 20
2427.7274413324
 30
0.0
  0
VERTEX
  5
6ED
  8
0
  6
CONTINUOUS
 62
     7
 10
3376.720941071
 20
2426.3759480796
 30
0.0
  0
VERTEX
  5
6EE
  8
0
  6
CONTINUOUS
 62
     7
 10
3377.1447803163
 20
2424.9496697348
 30
0.0
  0
VERTEX
  5
6EF
  8
0
  6
CONTINUOUS
 62
     7
 10
3377.8190245254
 20
2423.5457724952
 30
0.0
  0
VERTEX
  5
6F0
  8
0
  6
CONTINUOUS
 62
     7
 10
3378.6977020231
 20
2422.2600034507
 30
0.0
  0
VERTEX
  5
6F1
  8
0
  6
CONTINUOUS
 62
     7
 10
3379.7209432113
 20
2421.1798771369
 30
0.0
  0
VERTEX
  5
6F2
  8
0
  6
CONTINUOUS
 62
     7
 10
3380.819016129
 20
2420.3789389815
 30
0.0
  0
SEQEND
  5
876
  8
0
  6
CONTINUOUS
 62
     7
  0
LINE
  5
353
  8
0
  6
CONTINUOUS
 62
     7
 10
3380.819016129
 20
2420.3789389815
 30
0.0
 11
3400.6180145159
 21
2408.9492205011
 31
0.0
  0
POLYLINE
  5
354
  8
0
  6
CONTINUOUS
 62
     7
 66
     1
 10
0.0
 20
0.0
 30
0.0
 70
   128
  0
VERTEX
  5
6F3
  8
0
  6
CONTINUOUS
 62
     7
 10
3400.6180145159
 20
2408.9492205011
 30
0.0
  0
VERTEX
  5
6F4
  8
0
  6
CONTINUOUS
 62
     7
 10
3401.7160874335
 20
2408.4823506519
 30
0.0
  0
VERTEX
  5
6F5
  8
0
  6
CONTINUOUS
 62
     7
 10
3402.7393286217
 20
2408.3810678368
 30
0.0
  0
VERTEX
  5
6F6
  8
0
  6
CONTINUOUS
 62
     7
 10
3403.6180061194
 20
2408.6523374366
 30
0.0
  0
VERTEX
  5
6F7
  8
0
  6
CONTINUOUS
 62
     7
 10
3404.2922397918
 20
2409.2777749653
 30
0.0
  0
VERTEX
  5
6F8
  8
0
  6
CONTINUOUS
 62
     7
 10
3404.7160895738
 20
2410.214692851
 30
0.0
  0
VERTEX
  5
6F9
  8
0
  6
CONTINUOUS
 62
     7
 10
3404.8606532642
 20
2411.3992764196
 30
0.0
  0
VERTEX
  5
6FA
  8
0
  6
CONTINUOUS
 62
     7
 10
3404.7160895738
 20
2412.7507696724
 30
0.0
  0
VERTEX
  5
6FB
  8
0
  6
CONTINUOUS
 62
     7
 10
3404.2922397918
 20
2414.1770541
 30
0.0
  0
VERTEX
  5
6FC
  8
0
  6
CONTINUOUS
 62
     7
 10
3403.6180061194
 20
2415.5809452569
 30
0.0
  0
VERTEX
  5
6FD
  8
0
  6
CONTINUOUS
 62
     7
 10
3402.7393286217
 20
2416.8668116406
 30
0.0
  0
VERTEX
  5
6FE
  8
0
  6
CONTINUOUS
 62
     7
 10
3401.7160874335
 20
2417.9469379543
 30
0.0
  0
VERTEX
  5
6FF
  8
0
  6
CONTINUOUS
 62
     7
 10
3400.6180145159
 20
2418.7477787706
 30
0.0
  0
SEQEND
  5
877
  8
0
  6
CONTINUOUS
 62
     7
  0
LINE
  5
355
  8
0
  6
CONTINUOUS
 62
     7
 10
3443.0444230729
 20
2394.2555344427
 30
0.0
 11
3423.2454352227
 21
2405.6852468403
 31
0.0
  0
POLYLINE
  5
356
  8
0
  6
CONTINUOUS
 62
     7
 66
     1
 10
0.0
 20
0.0
 30
0.0
 70
   128
  0
VERTEX
  5
700
  8
0
  6
CONTINUOUS
 62
     7
 10
3423.2454352227
 20
2405.6852468403
 30
0.0
  0
VERTEX
  5
701
  8
0
  6
CONTINUOUS
 62
     7
 10
3422.1473412316
 20
2406.1522261942
 30
0.0
  0
VERTEX
  5
702
  8
0
  6
CONTINUOUS
 62
     7
 10
3421.1241000435
 20
2406.2535090092
 30
0.0
  0
VERTEX
  5
703
  8
0
  6
CONTINUOUS
 62
     7
 10
3420.2454225457
 20
2405.9821420702
 30
0.0
  0
VERTEX
  5
704
  8
0
  6
CONTINUOUS
 62
     7
 10
3419.5711994101
 20
2405.3566984589
 30
0.0
  0
VERTEX
  5
705
  8
0
  6
CONTINUOUS
 62
     7
 10
3419.1473496281
 20
2404.4197805732
 30
0.0
  0
VERTEX
  5
706
  8
0
  6
CONTINUOUS
 62
     7
 10
3419.0027859377
 20
2403.2351970045
 30
0.0
  0
VERTEX
  5
707
  8
0
  6
CONTINUOUS
 62
     7
 10
3419.1473496281
 20
2401.8837037517
 30
0.0
  0
VERTEX
  5
708
  8
0
  6
CONTINUOUS
 62
     7
 10
3419.5711994101
 20
2400.4574193241
 30
0.0
  0
VERTEX
  5
709
  8
0
  6
CONTINUOUS
 62
     7
 10
3420.2454225457
 20
2399.05353425
 30
0.0
  0
VERTEX
  5
70A
  8
0
  6
CONTINUOUS
 62
     7
 10
3421.1241000435
 20
2397.7677652055
 30
0.0
  0
VERTEX
  5
70B
  8
0
  6
CONTINUOUS
 62
     7
 10
3422.1473412316
 20
2396.6876388917
 30
0.0
  0
VERTEX
  5
70C
  8
0
  6
CONTINUOUS
 62
     7
 10
3423.2454352227
 20
2395.8866885708
 30
0.0
  0
SEQEND
  5
878
  8
0
  6
CONTINUOUS
 62
     7
  0
LINE
  5
357
  8
0
  6
CONTINUOUS
 62
     7
 10
3423.2454352227
 20
2395.8866885708
 30
0.0
 11
3443.0444230729
 21
2384.4569761732
 31
0.0
  0
POLYLINE
  5
358
  8
0
  6
CONTINUOUS
 62
     7
 66
     1
 10
0.0
 20
0.0
 30
0.0
 70
   128
  0
VERTEX
  5
70D
  8
0
  6
CONTINUOUS
 62
     7
 10
3443.0444230729
 20
2384.4569761732
 30
0.0
  0
VERTEX
  5
70E
  8
0
  6
CONTINUOUS
 62
     7
 10
3444.1424959906
 20
2383.990106324
 30
0.0
  0
VERTEX
  5
70F
  8
0
  6
CONTINUOUS
 62
     7
 10
3445.1657371787
 20
2383.8888235089
 30
0.0
  0
VERTEX
  5
710
  8
0
  6
CONTINUOUS
 62
     7
 10
3446.0444146765
 20
2384.1600931087
 30
0.0
  0
VERTEX
  5
711
  8
0
  6
CONTINUOUS
 62
     7
 10
3446.7186588856
 20
2384.7855245546
 30
0.0
  0
VERTEX
  5
712
  8
0
  6
CONTINUOUS
 62
     7
 10
3447.1424875942
 20
2385.7224546058
 30
0.0
  0
VERTEX
  5
713
  8
0
  6
CONTINUOUS
 62
     7
 10
3447.2870512846
 20
2386.9070381744
 30
0.0
  0
VERTEX
  5
714
  8
0
  6
CONTINUOUS
 62
     7
 10
3447.1424875942
 20
2388.2585314272
 30
0.0
  0
VERTEX
  5
715
  8
0
  6
CONTINUOUS
 62
     7
 10
3446.7186588856
 20
2389.6848036894
 30
0.0
  0
VERTEX
  5
716
  8
0
  6
CONTINUOUS
 62
     7
 10
3446.0444146765
 20
2391.088700929
 30
0.0
  0
VERTEX
  5
717
  8
0
  6
CONTINUOUS
 62
     7
 10
3445.1657371787
 20
2392.3745673126
 30
0.0
  0
VERTEX
  5
718
  8
0
  6
CONTINUOUS
 62
     7
 10
3444.1424959906
 20
2393.4546936264
 30
0.0
  0
VERTEX
  5
719
  8
0
  6
CONTINUOUS
 62
     7
 10
3443.0444230729
 20
2394.2555344427
 30
0.0
  0
SEQEND
  5
879
  8
0
  6
CONTINUOUS
 62
     7
  0
LINE
  5
359
  8
0
  6
CONTINUOUS
 62
     7
 10
3485.47083163
 20
2369.7632901147
 30
0.0
 11
3465.6718437798
 21
2381.1930025124
 31
0.0
  0
POLYLINE
  5
35A
  8
0
  6
CONTINUOUS
 62
     7
 66
     1
 10
0.0
 20
0.0
 30
0.0
 70
   128
  0
VERTEX
  5
71A
  8
0
  6
CONTINUOUS
 62
     7
 10
3465.6718437798
 20
2381.1930025124
 30
0.0
  0
VERTEX
  5
71B
  8
0
  6
CONTINUOUS
 62
     7
 10
3464.5737497887
 20
2381.6599818663
 30
0.0
  0
VERTEX
  5
71C
  8
0
  6
CONTINUOUS
 62
     7
 10
3463.5505086006
 20
2381.7612646813
 30
0.0
  0
VERTEX
  5
71D
  8
0
  6
CONTINUOUS
 62
     7
 10
3462.6718311028
 20
2381.4898977423
 30
0.0
  0
VERTEX
  5
71E
  8
0
  6
CONTINUOUS
 62
     7
 10
3461.9976079672
 20
2380.864454131
 30
0.0
  0
VERTEX
  5
71F
  8
0
  6
CONTINUOUS
 62
     7
 10
3461.5737581851
 20
2379.9275362452
 30
0.0
  0
VERTEX
  5
720
  8
0
  6
CONTINUOUS
 62
     7
 10
3461.4291944947
 20
2378.7429526766
 30
0.0
  0
VERTEX
  5
721
  8
0
  6
CONTINUOUS
 62
     7
 10
3461.5737581851
 20
2377.3914594238
 30
0.0
  0
VERTEX
  5
722
  8
0
  6
CONTINUOUS
 62
     7
 10
3461.9976079672
 20
2375.9651749962
 30
0.0
  0
VERTEX
  5
723
  8
0
  6
CONTINUOUS
 62
     7
 10
3462.6718311028
 20
2374.561289922
 30
0.0
  0
VERTEX
  5
724
  8
0
  6
CONTINUOUS
 62
     7
 10
3463.5505086006
 20
2373.2755208776
 30
0.0
  0
VERTEX
  5
725
  8
0
  6
CONTINUOUS
 62
     7
 10
3464.5737497887
 20
2372.1953945638
 30
0.0
  0
VERTEX
  5
726
  8
0
  6
CONTINUOUS
 62
     7
 10
3465.6718437798
 20
2371.3944442429
 30
0.0
  0
SEQEND
  5
87A
  8
0
  6
CONTINUOUS
 62
     7
  0
LINE
  5
35B
  8
0
  6
CONTINUOUS
 62
     7
 10
3465.6718437798
 20
2371.3944442429
 30
0.0
 11
3485.47083163
 21
2359.9647318453
 31
0.0
  0
POLYLINE
  5
35C
  8
0
  6
CONTINUOUS
 62
     7
 66
     1
 10
0.0
 20
0.0
 30
0.0
 70
   128
  0
VERTEX
  5
727
  8
0
  6
CONTINUOUS
 62
     7
 10
3485.47083163
 20
2359.9647318453
 30
0.0
  0
VERTEX
  5
728
  8
0
  6
CONTINUOUS
 62
     7
 10
3486.5689045477
 20
2359.4978619961
 30
0.0
  0
VERTEX
  5
729
  8
0
  6
CONTINUOUS
 62
     7
 10
3487.5921457358
 20
2359.396579181
 30
0.0
  0
VERTEX
  5
72A
  8
0
  6
CONTINUOUS
 62
     7
 10
3488.4708232336
 20
2359.6678487808
 30
0.0
  0
VERTEX
  5
72B
  8
0
  6
CONTINUOUS
 62
     7
 10
3489.1450674426
 20
2360.2932802267
 30
0.0
  0
VERTEX
  5
72C
  8
0
  6
CONTINUOUS
 62
     7
 10
3489.5688961512
 20
2361.2302102778
 30
0.0
  0
VERTEX
  5
72D
  8
0
  6
CONTINUOUS
 62
     7
 10
3489.7134598416
 20
2362.4147938465
 30
0.0
  0
VERTEX
  5
72E
  8
0
  6
CONTINUOUS
 62
     7
 10
3489.5688961512
 20
2363.7662870993
 30
0.0
  0
VERTEX
  5
72F
  8
0
  6
CONTINUOUS
 62
     7
 10
3489.1450674426
 20
2365.1925593614
 30
0.0
  0
VERTEX
  5
730
  8
0
  6
CONTINUOUS
 62
     7
 10
3488.4708232336
 20
2366.596456601
 30
0.0
  0
VERTEX
  5
731
  8
0
  6
CONTINUOUS
 62
     7
 10
3487.5921457358
 20
2367.8823229847
 30
0.0
  0
VERTEX
  5
732
  8
0
  6
CONTINUOUS
 62
     7
 10
3486.5689045477
 20
2368.9624492985
 30
0.0
  0
VERTEX
  5
733
  8
0
  6
CONTINUOUS
 62
     7
 10
3485.47083163
 20
2369.7632901147
 30
0.0
  0
SEQEND
  5
87B
  8
0
  6
CONTINUOUS
 62
     7
  0
LINE
  5
35D
  8
0
  6
CONTINUOUS
 62
     7
 10
3515.3107226674
 20
2297.4204108099
 30
0.0
 11
3515.3107226674
 21
2399.8146341492
 31
0.0
  0
LINE
  5
35E
  8
0
  6
CONTINUOUS
 62
     7
 10
3518.2098608138
 20
2405.8158766958
 30
0.0
 11
3526.9779848231
 21
2410.8776069444
 31
0.0
  0
LINE
  5
35F
  8
0
  6
CONTINUOUS
 62
     7
 10
2973.7376527872
 20
2720.1329919617
 30
0.0
 11
2982.5057767964
 21
2725.1947222103
 31
0.0
  0
LINE
  5
360
  8
0
  6
CONTINUOUS
 62
     7
 10
3518.2098608138
 20
2404.8360598046
 30
0.0
 11
3526.9779848231
 21
2409.8977900532
 31
0.0
  0
ARC
  5
361
  8
0
  6
CONTINUOUS
 62
     7
 10
3522.5890401801
 20
2416.7591780735
 30
0.0
 40
8.14502797083903
 50
302.6053569075
 51
357.3949248824
  0
ARC
  5
362
  8
0
  6
CONTINUOUS
 62
     7
 10
3523.5824198493
 20
2416.1856691665
 30
0.0
 40
6.301220996357196
 50
302.6070287488
 51
357.3936530422
  0
ARC
  5
363
  8
0
  6
CONTINUOUS
 62
     7
 10
2979.1102118227
 20
2730.5027844324
 30
0.0
 40
6.301220996354593
 50
302.6070287488
 51
357.3936530422
  0
POLYLINE
  5
364
  8
0
  6
CONTINUOUS
 62
     7
 66
     1
 10
0.0
 20
0.0
 30
0.0
 70
   128
  0
VERTEX
  5
734
  8
0
  6
CONTINUOUS
 62
     7
 10
3514.204928974
 20
2434.1441476912
 30
0.0
  0
VERTEX
  5
735
  8
0
  6
CONTINUOUS
 62
     7
 10
3514.035203615
 20
2433.8919987729
 30
0.0
  0
VERTEX
  5
736
  8
0
  6
CONTINUOUS
 62
     7
 10
3513.7866847228
 20
2433.1050971234
 30
0.0
  0
VERTEX
  5
737
  8
0
  6
CONTINUOUS
 62
     7
 10
3513.7866847228
 20
2432.1315099441
 30
0.0
  0
VERTEX
  5
738
  8
0
  6
CONTINUOUS
 62
     7
 10
3514.035203615
 20
2431.0576744892
 30
0.0
  0
VERTEX
  5
739
  8
0
  6
CONTINUOUS
 62
     7
 10
3514.5101353774
 20
2429.979090656
 30
0.0
  0
VERTEX
  5
73A
  8
0
  6
CONTINUOUS
 62
     7
 10
3515.1693120882
 20
2428.9915484774
 30
0.0
  0
VERTEX
  5
73B
  8
0
  6
CONTINUOUS
 62
     7
 10
3515.9541285543
 20
2428.1828059555
 30
0.0
  0
VERTEX
  5
73C
  8
0
  6
CONTINUOUS
 62
     7
 10
3516.7948949618
 20
2427.6246320806
 30
0.0
  0
VERTEX
  5
73D
  8
0
  6
CONTINUOUS
 62
     7
 10
3517.6168638749
 20
2427.3667966981
 30
0.0
  0
VERTEX
  5
73E
  8
0
  6
CONTINUOUS
 62
     7
 10
3518.113585558
 20
2427.3734258738
 30
0.0
  0
SEQEND
  5
87C
  8
0
  6
CONTINUOUS
 62
     7
  0
ARC
  5
365
  8
0
  6
CONTINUOUS
 62
     7
 10
3488.1499154202
 20
2363.1096856674
 30
0.0
 40
3.224986573245233
 50
235.415812254
 51
282.8052064495
  0
LINE
  5
366
  8
0
  6
CONTINUOUS
 62
     7
 10
3466.5203717929
 20
2371.8842890382
 30
0.0
 11
3486.3193596431
 21
2360.4545766406
 31
0.0
  0
ARC
  5
367
  8
0
  6
CONTINUOUS
 62
     7
 10
3516.746867754
 20
2296.5599252537
 30
0.0
 40
2.314542232447693
 50
170.7852291787
 51
309.2042980668
  0
ARC
  5
368
  8
0
  6
CONTINUOUS
 62
     7
 10
2972.4865541957
 20
2610.9155574533
 30
0.0
 40
2.518562260093554
 50
172.4223106976
 51
236.2651178861
  0
ARC
  5
369
  8
0
  6
CONTINUOUS
 62
     7
 10
3517.0781242799
 20
2297.133686816
 30
0.0
 40
1.790508058762615
 50
170.7852358502
 51
309.203426327
  0
POLYLINE
  5
36A
  8
0
  6
CONTINUOUS
 62
     7
 66
     1
 10
0.0
 20
0.0
 30
0.0
 70
   128
  0
VERTEX
  5
73F
  8
0
  6
CONTINUOUS
 62
     7
 10
3463.1264757431
 20
2381.6827600286
 30
0.0
  0
VERTEX
  5
740
  8
0
  6
CONTINUOUS
 62
     7
 10
3462.8461359803
 20
2381.3542989263
 30
0.0
  0
VERTEX
  5
741
  8
0
  6
CONTINUOUS
 62
     7
 10
3462.4222861982
 20
2380.4173810406
 30
0.0
  0
VERTEX
  5
742
  8
0
  6
CONTINUOUS
 62
     7
 10
3462.2777225078
 20
2379.2327974719
 30
0.0
  0
VERTEX
  5
743
  8
0
  6
CONTINUOUS
 62
     7
 10
3462.4222861982
 20
2377.8813042191
 30
0.0
  0
VERTEX
  5
744
  8
0
  6
CONTINUOUS
 62
     7
 10
3462.8461359803
 20
2376.4550197915
 30
0.0
  0
VERTEX
  5
745
  8
0
  6
CONTINUOUS
 62
     7
 10
3463.5203591159
 20
2375.0511347174
 30
0.0
  0
VERTEX
  5
746
  8
0
  6
CONTINUOUS
 62
     7
 10
3464.3990366136
 20
2373.7653656729
 30
0.0
  0
VERTEX
  5
747
  8
0
  6
CONTINUOUS
 62
     7
 10
3465.4222778018
 20
2372.6852393591
 30
0.0
  0
VERTEX
  5
748
  8
0
  6
CONTINUOUS
 62
     7
 10
3466.5203717929
 20
2371.8842890382
 30
0.0
  0
SEQEND
  5
87D
  8
0
  6
CONTINUOUS
 62
     7
  0
LINE
  5
36B
  8
0
  6
CONTINUOUS
 62
     7
 10
3518.2098608138
 20
2295.74621014
 30
0.0
 11
3526.9779848231
 21
2300.8079403886
 31
0.0
  0
LINE
  5
36C
  8
0
  6
CONTINUOUS
 62
     7
 10
3518.2098608138
 20
2294.7663932488
 30
0.0
 11
3526.9779848231
 21
2299.8281234973
 31
0.0
  0
ARC
  5
36D
  8
0
  6
CONTINUOUS
 62
     7
 10
3528.1097105113
 20
2298.4406285131
 30
0.0
 40
1.790515390836279
 50
350.7858581862
 51
129.2027870852
  0
ARC
  5
36E
  8
0
  6
CONTINUOUS
 62
     7
 10
3528.4409669739
 20
2299.0143898077
 30
0.0
 40
2.314549731532512
 50
350.7857203798
 51
129.2037981469
  0
ARC
  5
36F
  8
0
  6
CONTINUOUS
 62
     7
 10
3445.7235068631
 20
2387.6019299954
 30
0.0
 40
3.224986573243687
 50
235.415812254
 51
282.8052064495
  0
LINE
  5
370
  8
0
  6
CONTINUOUS
 62
     7
 10
3529.8771224755
 20
2298.1539225423
 30
0.0
 11
3529.8771224755
 21
2282.5171507319
 31
0.0
  0
LINE
  5
371
  8
0
  6
CONTINUOUS
 62
     7
 10
3529.8771224755
 20
2282.5171507319
 30
0.0
 11
2985.4049144489
 21
2596.8342659978
 31
0.0
  0
LINE
  5
372
  8
0
  6
CONTINUOUS
 62
     7
 10
2985.4049144489
 20
2600.5560322244
 30
0.0
 11
2985.4049144489
 21
2596.8342659978
 31
0.0
  0
LINE
  5
373
  8
0
  6
CONTINUOUS
 62
     7
 10
3530.7256506533
 20
2298.6437674327
 30
0.0
 11
3530.7256506533
 21
2283.0069956223
 31
0.0
  0
LINE
  5
374
  8
0
  6
CONTINUOUS
 62
     7
 10
3529.8771224755
 20
2282.5171507319
 30
0.0
 11
3530.7256506533
 21
2283.0069956223
 31
0.0
  0
LINE
  5
375
  8
0
  6
CONTINUOUS
 62
     7
 10
3424.0939632358
 20
2396.3765333662
 30
0.0
 11
3443.892951086
 21
2384.9468209685
 31
0.0
  0
POLYLINE
  5
376
  8
0
  6
CONTINUOUS
 62
     7
 66
     1
 10
0.0
 20
0.0
 30
0.0
 70
   128
  0
VERTEX
  5
749
  8
0
  6
CONTINUOUS
 62
     7
 10
3420.7000882595
 20
2406.1749921911
 30
0.0
  0
VERTEX
  5
74A
  8
0
  6
CONTINUOUS
 62
     7
 10
3420.4197274232
 20
2405.8465432542
 30
0.0
  0
VERTEX
  5
74B
  8
0
  6
CONTINUOUS
 62
     7
 10
3419.9958776411
 20
2404.9096253685
 30
0.0
  0
VERTEX
  5
74C
  8
0
  6
CONTINUOUS
 62
     7
 10
3419.8513139508
 20
2403.7250417998
 30
0.0
  0
VERTEX
  5
74D
  8
0
  6
CONTINUOUS
 62
     7
 10
3419.9958776411
 20
2402.3735485471
 30
0.0
  0
VERTEX
  5
74E
  8
0
  6
CONTINUOUS
 62
     7
 10
3420.4197274232
 20
2400.9472641195
 30
0.0
  0
VERTEX
  5
74F
  8
0
  6
CONTINUOUS
 62
     7
 10
3421.0939505588
 20
2399.5433790453
 30
0.0
  0
VERTEX
  5
750
  8
0
  6
CONTINUOUS
 62
     7
 10
3421.9726280566
 20
2398.2576100008
 30
0.0
  0
VERTEX
  5
751
  8
0
  6
CONTINUOUS
 62
     7
 10
3422.9958692447
 20
2397.1774836871
 30
0.0
  0
VERTEX
  5
752
  8
0
  6
CONTINUOUS
 62
     7
 10
3424.0939632358
 20
2396.3765333662
 30
0.0
  0
SEQEND
  5
87E
  8
0
  6
CONTINUOUS
 62
     7
  0
ARC
  5
377
  8
0
  6
CONTINUOUS
 62
     7
 10
3403.2971261467
 20
2412.0942645948
 30
0.0
 40
3.2250766961411
 50
235.4163153541
 51
282.8045272792
  0
LINE
  5
378
  8
0
  6
CONTINUOUS
 62
     7
 10
3381.6675441421
 20
2420.8687837768
 30
0.0
 11
3401.4665425289
 21
2409.4390652964
 31
0.0
  0
POLYLINE
  5
379
  8
0
  6
CONTINUOUS
 62
     7
 66
     1
 10
0.0
 20
0.0
 30
0.0
 70
   128
  0
VERTEX
  5
753
  8
0
  6
CONTINUOUS
 62
     7
 10
3378.2736691657
 20
2430.6672426017
 30
0.0
  0
VERTEX
  5
754
  8
0
  6
CONTINUOUS
 62
     7
 10
3377.9933083294
 20
2430.3387936648
 30
0.0
  0
VERTEX
  5
755
  8
0
  6
CONTINUOUS
 62
     7
 10
3377.5694690841
 20
2429.4018696964
 30
0.0
  0
VERTEX
  5
756
  8
0
  6
CONTINUOUS
 62
     7
 10
3377.4249053937
 20
2428.2172861278
 30
0.0
  0
VERTEX
  5
757
  8
0
  6
CONTINUOUS
 62
     7
 10
3377.5694690841
 20
2426.865792875
 30
0.0
  0
VERTEX
  5
758
  8
0
  6
CONTINUOUS
 62
     7
 10
3377.9933083294
 20
2425.4395145301
 30
0.0
  0
VERTEX
  5
759
  8
0
  6
CONTINUOUS
 62
     7
 10
3378.6675525385
 20
2424.0356172905
 30
0.0
  0
VERTEX
  5
75A
  8
0
  6
CONTINUOUS
 62
     7
 10
3379.5462300362
 20
2422.749848246
 30
0.0
  0
VERTEX
  5
75B
  8
0
  6
CONTINUOUS
 62
     7
 10
3380.5694712244
 20
2421.6697219323
 30
0.0
  0
VERTEX
  5
75C
  8
0
  6
CONTINUOUS
 62
     7
 10
3381.6675441421
 20
2420.8687837768
 30
0.0
  0
SEQEND
  5
87F
  8
0
  6
CONTINUOUS
 62
     7
  0
ARC
  5
37A
  8
0
  6
CONTINUOUS
 62
     7
 10
3360.8707175897
 20
2436.5865089228
 30
0.0
 40
3.225076696141827
 50
235.4163153541
 51
282.8045272792
  0
LINE
  5
37B
  8
0
  6
CONTINUOUS
 62
     7
 10
3339.2411461217
 20
2445.361022022
 30
0.0
 11
3359.0401339719
 21
2433.9313096243
 31
0.0
  0
POLYLINE
  5
37C
  8
0
  6
CONTINUOUS
 62
     7
 66
     1
 10
0.0
 20
0.0
 30
0.0
 70
   128
  0
VERTEX
  5
75D
  8
0
  6
CONTINUOUS
 62
     7
 10
3335.8472606086
 20
2455.1594869296
 30
0.0
  0
VERTEX
  5
75E
  8
0
  6
CONTINUOUS
 62
     7
 10
3335.5669103091
 20
2454.83103191
 30
0.0
  0
VERTEX
  5
75F
  8
0
  6
CONTINUOUS
 62
     7
 10
3335.143060527
 20
2453.8941140243
 30
0.0
  0
VERTEX
  5
760
  8
0
  6
CONTINUOUS
 62
     7
 10
3334.9984968366
 20
2452.7095304557
 30
0.0
  0
VERTEX
  5
761
  8
0
  6
CONTINUOUS
 62
     7
 10
3335.143060527
 20
2451.3580372029
 30
0.0
  0
VERTEX
  5
762
  8
0
  6
CONTINUOUS
 62
     7
 10
3335.5669103091
 20
2449.9317527753
 30
0.0
  0
VERTEX
  5
763
  8
0
  6
CONTINUOUS
 62
     7
 10
3336.2411439814
 20
2448.5278616184
 30
0.0
  0
VERTEX
  5
764
  8
0
  6
CONTINUOUS
 62
     7
 10
3337.1198214792
 20
2447.242092574
 30
0.0
  0
VERTEX
  5
765
  8
0
  6
CONTINUOUS
 62
     7
 10
3338.1430626673
 20
2446.1619662602
 30
0.0
  0
VERTEX
  5
766
  8
0
  6
CONTINUOUS
 62
     7
 10
3339.2411461217
 20
2445.361022022
 30
0.0
  0
SEQEND
  5
880
  8
0
  6
CONTINUOUS
 62
     7
  0
ARC
  5
37D
  8
0
  6
CONTINUOUS
 62
     7
 10
3318.4443164203
 20
2461.0787644294
 30
0.0
 40
3.225090092896151
 50
235.416320024
 51
282.8044345749
  0
LINE
  5
37E
  8
0
  6
CONTINUOUS
 62
     7
 10
3296.8147322963
 20
2469.8532693913
 30
0.0
 11
3316.6137254148
 21
2458.4235539523
 31
0.0
  0
POLYLINE
  5
37F
  8
0
  6
CONTINUOUS
 62
     7
 66
     1
 10
0.0
 20
0.0
 30
0.0
 70
   128
  0
VERTEX
  5
767
  8
0
  6
CONTINUOUS
 62
     7
 10
3293.4208573199
 20
2479.6517282162
 30
0.0
  0
VERTEX
  5
768
  8
0
  6
CONTINUOUS
 62
     7
 10
3293.140501752
 20
2479.3232762379
 30
0.0
  0
VERTEX
  5
769
  8
0
  6
CONTINUOUS
 62
     7
 10
3292.7166572383
 20
2478.3863553109
 30
0.0
  0
VERTEX
  5
76A
  8
0
  6
CONTINUOUS
 62
     7
 10
3292.5720935479
 20
2477.2017717422
 30
0.0
  0
VERTEX
  5
76B
  8
0
  6
CONTINUOUS
 62
     7
 10
3292.7166572383
 20
2475.8502784894
 30
0.0
  0
VERTEX
  5
76C
  8
0
  6
CONTINUOUS
 62
     7
 10
3293.140501752
 20
2474.4239971032
 30
0.0
  0
VERTEX
  5
76D
  8
0
  6
CONTINUOUS
 62
     7
 10
3293.8147354243
 20
2473.0201059463
 30
0.0
  0
VERTEX
  5
76E
  8
0
  6
CONTINUOUS
 62
     7
 10
3294.6934129221
 20
2471.7343369019
 30
0.0
  0
VERTEX
  5
76F
  8
0
  6
CONTINUOUS
 62
     7
 10
3295.7166593786
 20
2470.6542075467
 30
0.0
  0
VERTEX
  5
770
  8
0
  6
CONTINUOUS
 62
     7
 10
3296.8147322963
 20
2469.8532693913
 30
0.0
  0
SEQEND
  5
881
  8
0
  6
CONTINUOUS
 62
     7
  0
ARC
  5
380
  8
0
  6
CONTINUOUS
 62
     7
 10
3191.1650960175
 20
2534.5554943718
 30
0.0
 40
3.225090092895893
 50
235.416320024
 51
282.8044345749
  0
LINE
  5
381
  8
0
  6
CONTINUOUS
 62
     7
 10
3189.334505012
 20
2531.9002838947
 30
0.0
 11
3169.5355118934
 21
2543.3299993336
 31
0.0
  0
POLYLINE
  5
382
  8
0
  6
CONTINUOUS
 62
     7
 66
     1
 10
0.0
 20
0.0
 30
0.0
 70
   128
  0
VERTEX
  5
771
  8
0
  6
CONTINUOUS
 62
     7
 10
3169.5355118934
 20
2543.3299993336
 30
0.0
  0
VERTEX
  5
772
  8
0
  6
CONTINUOUS
 62
     7
 10
3168.4374389758
 20
2544.1309374891
 30
0.0
  0
VERTEX
  5
773
  8
0
  6
CONTINUOUS
 62
     7
 10
3167.4141925193
 20
2545.2110668443
 30
0.0
  0
VERTEX
  5
774
  8
0
  6
CONTINUOUS
 62
     7
 10
3166.5355150215
 20
2546.4968358887
 30
0.0
  0
VERTEX
  5
775
  8
0
  6
CONTINUOUS
 62
     7
 10
3165.8612813492
 20
2547.9007270456
 30
0.0
  0
VERTEX
  5
776
  8
0
  6
CONTINUOUS
 62
     7
 10
3165.4374368355
 20
2549.3270084318
 30
0.0
  0
VERTEX
  5
777
  8
0
  6
CONTINUOUS
 62
     7
 10
3165.2928731451
 20
2550.6785016846
 30
0.0
  0
VERTEX
  5
778
  8
0
  6
CONTINUOUS
 62
     7
 10
3165.4374368355
 20
2551.8630852533
 30
0.0
  0
VERTEX
  5
779
  8
0
  6
CONTINUOUS
 62
     7
 10
3165.8612813492
 20
2552.8000061803
 30
0.0
  0
VERTEX
  5
77A
  8
0
  6
CONTINUOUS
 62
     7
 10
3166.1416369171
 20
2553.1284581586
 30
0.0
  0
SEQEND
  5
882
  8
0
  6
CONTINUOUS
 62
     7
  0
ARC
  5
383
  8
0
  6
CONTINUOUS
 62
     7
 10
3148.738684988
 20
2559.0477290517
 30
0.0
 40
3.225081232762399
 50
235.4161511705
 51
282.8045153943
  0
LINE
  5
384
  8
0
  6
CONTINUOUS
 62
     7
 10
3146.9080911865
 20
2556.3925312639
 30
0.0
 11
3127.1091033364
 21
2567.8222436616
 31
0.0
  0
POLYLINE
  5
385
  8
0
  6
CONTINUOUS
 62
     7
 66
     1
 10
0.0
 20
0.0
 30
0.0
 70
   128
  0
VERTEX
  5
77B
  8
0
  6
CONTINUOUS
 62
     7
 10
3127.1091033364
 20
2567.8222436616
 30
0.0
  0
VERTEX
  5
77C
  8
0
  6
CONTINUOUS
 62
     7
 10
3126.0110304187
 20
2568.623181817
 30
0.0
  0
VERTEX
  5
77D
  8
0
  6
CONTINUOUS
 62
     7
 10
3124.9877892305
 20
2569.7033081308
 30
0.0
  0
VERTEX
  5
77E
  8
0
  6
CONTINUOUS
 62
     7
 10
3124.1091117328
 20
2570.9890771753
 30
0.0
  0
VERTEX
  5
77F
  8
0
  6
CONTINUOUS
 62
     7
 10
3123.4348675237
 20
2572.3929744149
 30
0.0
  0
VERTEX
  5
780
  8
0
  6
CONTINUOUS
 62
     7
 10
3123.0110282784
 20
2573.8192527597
 30
0.0
  0
VERTEX
  5
781
  8
0
  6
CONTINUOUS
 62
     7
 10
3122.866464588
 20
2575.1707460125
 30
0.0
  0
VERTEX
  5
782
  8
0
  6
CONTINUOUS
 62
     7
 10
3123.0110282784
 20
2576.3553295812
 30
0.0
  0
VERTEX
  5
783
  8
0
  6
CONTINUOUS
 62
     7
 10
3123.4348675237
 20
2577.2922535496
 30
0.0
  0
VERTEX
  5
784
  8
0
  6
CONTINUOUS
 62
     7
 10
3123.71522836
 20
2577.6207024865
 30
0.0
  0
SEQEND
  5
883
  8
0
  6
CONTINUOUS
 62
     7
  0
ARC
  5
386
  8
0
  6
CONTINUOUS
 62
     7
 10
3106.312276784
 20
2583.5399688075
 30
0.0
 40
3.225076696142085
 50
235.4163153541
 51
282.8045272792
  0
LINE
  5
387
  8
0
  6
CONTINUOUS
 62
     7
 10
3104.4816931662
 20
2580.8847695091
 30
0.0
 11
3084.6826947793
 21
2592.3144879895
 31
0.0
  0
POLYLINE
  5
388
  8
0
  6
CONTINUOUS
 62
     7
 66
     1
 10
0.0
 20
0.0
 30
0.0
 70
   128
  0
VERTEX
  5
785
  8
0
  6
CONTINUOUS
 62
     7
 10
3084.6826947793
 20
2592.3144879895
 30
0.0
  0
VERTEX
  5
786
  8
0
  6
CONTINUOUS
 62
     7
 10
3083.5846218616
 20
2593.115426145
 30
0.0
  0
VERTEX
  5
787
  8
0
  6
CONTINUOUS
 62
     7
 10
3082.5613806735
 20
2594.1955524587
 30
0.0
  0
VERTEX
  5
788
  8
0
  6
CONTINUOUS
 62
     7
 10
3081.6827031757
 20
2595.4813215032
 30
0.0
  0
VERTEX
  5
789
  8
0
  6
CONTINUOUS
 62
     7
 10
3081.0084695034
 20
2596.8852126601
 30
0.0
  0
VERTEX
  5
78A
  8
0
  6
CONTINUOUS
 62
     7
 10
3080.5846197213
 20
2598.3114970877
 30
0.0
  0
VERTEX
  5
78B
  8
0
  6
CONTINUOUS
 62
     7
 10
3080.4400560309
 20
2599.6629903405
 30
0.0
  0
VERTEX
  5
78C
  8
0
  6
CONTINUOUS
 62
     7
 10
3080.5846197213
 20
2600.8475739091
 30
0.0
  0
VERTEX
  5
78D
  8
0
  6
CONTINUOUS
 62
     7
 10
3081.0084695034
 20
2601.7844917948
 30
0.0
  0
VERTEX
  5
78E
  8
0
  6
CONTINUOUS
 62
     7
 10
3081.288819803
 20
2602.1129468144
 30
0.0
  0
SEQEND
  5
884
  8
0
  6
CONTINUOUS
 62
     7
  0
ARC
  5
389
  8
0
  6
CONTINUOUS
 62
     7
 10
3063.8858502166
 20
2608.0321259258
 30
0.0
 40
3.224995647029875
 50
235.4154838871
 51
282.8051826777
  0
LINE
  5
38A
  8
0
  6
CONTINUOUS
 62
     7
 10
3062.0552740724
 20
2605.3770199198
 30
0.0
 11
3042.2562862222
 21
2616.8067323174
 31
0.0
  0
POLYLINE
  5
38B
  8
0
  6
CONTINUOUS
 62
     7
 66
     1
 10
0.0
 20
0.0
 30
0.0
 70
   128
  0
VERTEX
  5
78F
  8
0
  6
CONTINUOUS
 62
     7
 10
3042.2562862222
 20
2616.8067323174
 30
0.0
  0
VERTEX
  5
790
  8
0
  6
CONTINUOUS
 62
     7
 10
3041.1582133046
 20
2617.6076704729
 30
0.0
  0
VERTEX
  5
791
  8
0
  6
CONTINUOUS
 62
     7
 10
3040.1349721164
 20
2618.6877967867
 30
0.0
  0
VERTEX
  5
792
  8
0
  6
CONTINUOUS
 62
     7
 10
3039.2562946187
 20
2619.9735658311
 30
0.0
  0
VERTEX
  5
793
  8
0
  6
CONTINUOUS
 62
     7
 10
3038.5820504096
 20
2621.3774630707
 30
0.0
  0
VERTEX
  5
794
  8
0
  6
CONTINUOUS
 62
     7
 10
3038.158221701
 20
2622.8037353329
 30
0.0
  0
VERTEX
  5
795
  8
0
  6
CONTINUOUS
 62
     7
 10
3038.0136580106
 20
2624.1552285857
 30
0.0
  0
VERTEX
  5
796
  8
0
  6
CONTINUOUS
 62
     7
 10
3038.158221701
 20
2625.3398121543
 30
0.0
  0
VERTEX
  5
797
  8
0
  6
CONTINUOUS
 62
     7
 10
3038.5820504096
 20
2626.2767422054
 30
0.0
  0
VERTEX
  5
798
  8
0
  6
CONTINUOUS
 62
     7
 10
3038.8624112459
 20
2626.6051911423
 30
0.0
  0
SEQEND
  5
885
  8
0
  6
CONTINUOUS
 62
     7
  0
POLYLINE
  5
38C
  8
0
  6
CONTINUOUS
 62
     7
 66
     1
 10
0.0
 20
0.0
 30
0.0
 70
   128
  0
VERTEX
  5
799
  8
0
  6
CONTINUOUS
 62
     7
 10
2997.5671529801
 20
2730.6254959474
 30
0.0
  0
VERTEX
  5
79A
  8
0
  6
CONTINUOUS
 62
     7
 10
2997.6928138089
 20
2731.5156386782
 30
0.0
  0
VERTEX
  5
79B
  8
0
  6
CONTINUOUS
 62
     7
 10
2998.0169862942
 20
2732.133104127
 30
0.0
  0
SEQEND
  5
886
  8
0
  6
CONTINUOUS
 62
     7
  0
POLYLINE
  5
38D
  8
0
  6
CONTINUOUS
 62
     7
 66
     1
 10
0.0
 20
0.0
 30
0.0
 70
   128
  0
VERTEX
  5
79C
  8
0
  6
CONTINUOUS
 62
     7
 10
3001.9256428783
 20
2725.3623823095
 30
0.0
  0
VERTEX
  5
79D
  8
0
  6
CONTINUOUS
 62
     7
 10
3001.8097811917
 20
2725.3476975459
 30
0.0
  0
VERTEX
  5
79E
  8
0
  6
CONTINUOUS
 62
     7
 10
3001.0249647256
 20
2725.4450848283
 30
0.0
  0
VERTEX
  5
79F
  8
0
  6
CONTINUOUS
 62
     7
 10
3000.1841983181
 20
2725.857639185
 30
0.0
  0
VERTEX
  5
7A0
  8
0
  6
CONTINUOUS
 62
     7
 10
2999.362229405
 20
2726.5488289089
 30
0.0
  0
VERTEX
  5
7A1
  8
0
  6
CONTINUOUS
 62
     7
 10
2998.6320774014
 20
2727.4571302782
 30
0.0
  0
VERTEX
  5
7A2
  8
0
  6
CONTINUOUS
 62
     7
 10
2998.0586063071
 20
2728.5018794757
 30
0.0
  0
VERTEX
  5
7A3
  8
0
  6
CONTINUOUS
 62
     7
 10
2997.6928138089
 20
2729.5901709725
 30
0.0
  0
VERTEX
  5
7A4
  8
0
  6
CONTINUOUS
 62
     7
 10
2997.5671529801
 20
2730.6254959474
 30
0.0
  0
SEQEND
  5
887
  8
0
  6
CONTINUOUS
 62
     7
  0
ARC
  5
38E
  8
0
  6
CONTINUOUS
 62
     7
 10
3021.4594416596
 20
2632.5243702538
 30
0.0
 40
3.224995647031111
 50
235.4154838871
 51
282.8051826777
  0
LINE
  5
38F
  8
0
  6
CONTINUOUS
 62
     7
 10
3019.6288655153
 20
2629.8692642477
 30
0.0
 11
2999.8298776652
 21
2641.2989766453
 31
0.0
  0
POLYLINE
  5
390
  8
0
  6
CONTINUOUS
 62
     7
 66
     1
 10
0.0
 20
0.0
 30
0.0
 70
   128
  0
VERTEX
  5
7A5
  8
0
  6
CONTINUOUS
 62
     7
 10
2999.8298776652
 20
2641.2989766453
 30
0.0
  0
VERTEX
  5
7A6
  8
0
  6
CONTINUOUS
 62
     7
 10
2998.7318047475
 20
2642.0999148008
 30
0.0
  0
VERTEX
  5
7A7
  8
0
  6
CONTINUOUS
 62
     7
 10
2997.7085635593
 20
2643.1800411146
 30
0.0
  0
VERTEX
  5
7A8
  8
0
  6
CONTINUOUS
 62
     7
 10
2996.8298860616
 20
2644.465810159
 30
0.0
  0
VERTEX
  5
7A9
  8
0
  6
CONTINUOUS
 62
     7
 10
2996.1556418525
 20
2645.8697073986
 30
0.0
  0
VERTEX
  5
7AA
  8
0
  6
CONTINUOUS
 62
     7
 10
2995.7318131439
 20
2647.2959796608
 30
0.0
  0
VERTEX
  5
7AB
  8
0
  6
CONTINUOUS
 62
     7
 10
2995.5872494535
 20
2648.6474729136
 30
0.0
  0
VERTEX
  5
7AC
  8
0
  6
CONTINUOUS
 62
     7
 10
2995.7318131439
 20
2649.8320564822
 30
0.0
  0
VERTEX
  5
7AD
  8
0
  6
CONTINUOUS
 62
     7
 10
2996.1556418525
 20
2650.7689865333
 30
0.0
  0
VERTEX
  5
7AE
  8
0
  6
CONTINUOUS
 62
     7
 10
2996.4360026888
 20
2651.0974354702
 30
0.0
  0
SEQEND
  5
888
  8
0
  6
CONTINUOUS
 62
     7
  0
LINE
  5
391
  8
0
  6
CONTINUOUS
 62
     7
 10
3004.7089221369
 20
2736.6684298593
 30
0.0
 11
3003.8603939592
 21
2736.1785849689
 31
0.0
  0
LINE
  5
392
  8
0
  6
CONTINUOUS
 62
     7
 10
3005.557317124
 20
2735.1989423062
 30
0.0
 11
3004.7089221369
 21
2736.6684298593
 31
0.0
  0
LINE
  5
393
  8
0
  6
CONTINUOUS
 62
     7
 10
3010.9314550275
 20
2643.7090050224
 30
0.0
 11
3010.9314550275
 21
2634.8902149746
 31
0.0
  0
LINE
  5
394
  8
0
  6
CONTINUOUS
 62
     7
 10
3010.9314550275
 20
2582.098126688
 30
0.0
 11
3010.9314550275
 21
2364.6531440185
 31
0.0
  0
LINE
  5
395
  8
0
  6
CONTINUOUS
 62
     7
 10
3010.9314550275
 20
2276.2656494078
 30
0.0
 11
3010.9314550275
 21
2267.4468593599
 31
0.0
  0
LINE
  5
396
  8
0
  6
CONTINUOUS
 62
     7
 10
3010.9314550275
 20
2214.6547467386
 30
0.0
 11
3010.9314550275
 21
1833.8199645176
 31
0.0
  0
LINE
  5
397
  8
0
  6
CONTINUOUS
 62
     7
 10
3010.9314550275
 20
1833.8199645176
 30
0.0
 11
2984.6978024481
 21
1848.9643297948
 31
0.0
  0
LINE
  5
398
  8
0
  6
CONTINUOUS
 62
     7
 10
3003.8603939592
 20
2736.1785849689
 30
0.0
 11
2984.6978024481
 21
2747.24091358
 31
0.0
  0
POLYLINE
  5
399
  8
0
  6
CONTINUOUS
 62
     7
 66
     1
 10
0.0
 20
0.0
 30
0.0
 70
   128
  0
VERTEX
  5
7AF
  8
0
  6
CONTINUOUS
 62
     7
 10
2997.5671529801
 20
2730.6254959474
 30
0.0
  0
VERTEX
  5
7B0
  8
0
  6
CONTINUOUS
 62
     7
 10
2997.6928138089
 20
2731.5156386782
 30
0.0
  0
VERTEX
  5
7B1
  8
0
  6
CONTINUOUS
 62
     7
 10
2998.0169862942
 20
2732.133104127
 30
0.0
  0
SEQEND
  5
889
  8
0
  6
CONTINUOUS
 62
     7
  0
POLYLINE
  5
39A
  8
0
  6
CONTINUOUS
 62
     7
 66
     1
 10
0.0
 20
0.0
 30
0.0
 70
   128
  0
VERTEX
  5
7B2
  8
0
  6
CONTINUOUS
 62
     7
 10
3001.9256428783
 20
2725.3623823095
 30
0.0
  0
VERTEX
  5
7B3
  8
0
  6
CONTINUOUS
 62
     7
 10
3001.8097811917
 20
2725.3476975459
 30
0.0
  0
VERTEX
  5
7B4
  8
0
  6
CONTINUOUS
 62
     7
 10
3001.0249647256
 20
2725.4450848283
 30
0.0
  0
VERTEX
  5
7B5
  8
0
  6
CONTINUOUS
 62
     7
 10
3000.1841983181
 20
2725.857639185
 30
0.0
  0
VERTEX
  5
7B6
  8
0
  6
CONTINUOUS
 62
     7
 10
2999.362229405
 20
2726.5488289089
 30
0.0
  0
VERTEX
  5
7B7
  8
0
  6
CONTINUOUS
 62
     7
 10
2998.6320774014
 20
2727.4571302782
 30
0.0
  0
VERTEX
  5
7B8
  8
0
  6
CONTINUOUS
 62
     7
 10
2998.0586063071
 20
2728.5018794757
 30
0.0
  0
VERTEX
  5
7B9
  8
0
  6
CONTINUOUS
 62
     7
 10
2997.6928138089
 20
2729.5901709725
 30
0.0
  0
VERTEX
  5
7BA
  8
0
  6
CONTINUOUS
 62
     7
 10
2997.5671529801
 20
2730.6254959474
 30
0.0
  0
SEQEND
  5
88A
  8
0
  6
CONTINUOUS
 62
     7
  0
POLYLINE
  5
39B
  8
0
  6
CONTINUOUS
 62
     7
 66
     1
 10
0.0
 20
0.0
 30
0.0
 70
   128
  0
VERTEX
  5
7BB
  8
0
  6
CONTINUOUS
 62
     7
 10
2997.5671529801
 20
2363.1820916631
 30
0.0
  0
VERTEX
  5
7BC
  8
0
  6
CONTINUOUS
 62
     7
 10
2997.6928138089
 20
2364.0722830636
 30
0.0
  0
VERTEX
  5
7BD
  8
0
  6
CONTINUOUS
 62
     7
 10
2998.0169862942
 20
2364.6897485123
 30
0.0
  0
SEQEND
  5
88B
  8
0
  6
CONTINUOUS
 62
     7
  0
POLYLINE
  5
39C
  8
0
  6
CONTINUOUS
 62
     7
 66
     1
 10
0.0
 20
0.0
 30
0.0
 70
   128
  0
VERTEX
  5
7BE
  8
0
  6
CONTINUOUS
 62
     7
 10
3001.9256428783
 20
2357.9190266949
 30
0.0
  0
VERTEX
  5
7BF
  8
0
  6
CONTINUOUS
 62
     7
 10
3001.8097811917
 20
2357.9042932616
 30
0.0
  0
VERTEX
  5
7C0
  8
0
  6
CONTINUOUS
 62
     7
 10
3001.0249647256
 20
2358.001680544
 30
0.0
  0
VERTEX
  5
7C1
  8
0
  6
CONTINUOUS
 62
     7
 10
3000.1841983181
 20
2358.4142835704
 30
0.0
  0
VERTEX
  5
7C2
  8
0
  6
CONTINUOUS
 62
     7
 10
2999.362229405
 20
2359.1054246246
 30
0.0
  0
VERTEX
  5
7C3
  8
0
  6
CONTINUOUS
 62
     7
 10
2998.6320774014
 20
2360.0137746635
 30
0.0
  0
VERTEX
  5
7C4
  8
0
  6
CONTINUOUS
 62
     7
 10
2998.0586063071
 20
2361.058523861
 30
0.0
  0
VERTEX
  5
7C5
  8
0
  6
CONTINUOUS
 62
     7
 10
2997.6928138089
 20
2362.1468640275
 30
0.0
  0
VERTEX
  5
7C6
  8
0
  6
CONTINUOUS
 62
     7
 10
2997.5671529801
 20
2363.1820916631
 30
0.0
  0
SEQEND
  5
88C
  8
0
  6
CONTINUOUS
 62
     7
  0
LINE
  5
39D
  8
0
  6
CONTINUOUS
 62
     7
 10
3010.9314550275
 20
1833.8199645176
 30
0.0
 11
3011.7799832053
 21
1834.3098094079
 31
0.0
  0
LINE
  5
39E
  8
0
  6
CONTINUOUS
 62
     7
 10
3011.7799832053
 20
2643.2191790304
 30
0.0
 11
3011.7799832053
 21
2634.4003889826
 31
0.0
  0
LINE
  5
39F
  8
0
  6
CONTINUOUS
 62
     7
 10
3011.7799832053
 20
2581.608300696
 30
0.0
 11
3011.7799832053
 21
2364.1633180265
 31
0.0
  0
LINE
  5
3A0
  8
0
  6
CONTINUOUS
 62
     7
 10
3011.7799832053
 20
2275.7758234158
 30
0.0
 11
3011.7799832053
 21
2266.9570333679
 31
0.0
  0
LINE
  5
3A1
  8
0
  6
CONTINUOUS
 62
     7
 10
3011.7799832053
 20
2214.1649207465
 30
0.0
 11
3011.7799832053
 21
1834.3098094079
 31
0.0
  0
LINE
  5
3A2
  8
0
  6
CONTINUOUS
 62
     7
 10
3004.7089221369
 20
2736.6684298593
 30
0.0
 11
2985.5463306258
 21
2747.7307584704
 31
0.0
  0
POLYLINE
  5
3A3
  8
0
  6
CONTINUOUS
 62
     7
 66
     1
 10
0.0
 20
0.0
 30
0.0
 70
   128
  0
VERTEX
  5
7C7
  8
0
  6
CONTINUOUS
 62
     7
 10
2998.4156811578
 20
2731.1153408377
 30
0.0
  0
VERTEX
  5
7C8
  8
0
  6
CONTINUOUS
 62
     7
 10
2998.5413419866
 20
2732.0054835686
 30
0.0
  0
VERTEX
  5
7C9
  8
0
  6
CONTINUOUS
 62
     7
 10
2998.5846057266
 20
2732.1297290135
 30
0.0
  0
SEQEND
  5
88D
  8
0
  6
CONTINUOUS
 62
     7
  0
ARC
  5
3A4
  8
0
  6
CONTINUOUS
 62
     7
 10
3004.0145326497
 20
2731.1547197182
 30
0.0
 40
5.598989973638182
 50
180.402976656
 51
251.1607233592
  0
ARC
  5
3A5
  8
0
  6
CONTINUOUS
 62
     7
 10
2985.1470902891
 20
2748.4247068236
 30
0.0
 40
1.266185613455389
 50
110.7835257091
 51
249.2166256908
  0
ARC
  5
3A6
  8
0
  6
CONTINUOUS
 62
     7
 10
2985.8097087906
 20
2748.4247100529
 30
0.0
 40
0.7422512086097681
 50
110.7842681555
 51
249.2165474328
  0
ARC
  5
3A7
  8
0
  6
CONTINUOUS
 62
     7
 10
2985.2997484449
 20
1850.2928567896
 30
0.0
 40
1.458534524402389
 50
185.6950440197
 51
245.6250627332
  0
LINE
  5
3A8
  8
0
  6
CONTINUOUS
 62
     7
 10
3010.9314602959
 20
2764.7528690044
 30
0.0
 11
3011.7799817235
 21
2764.2630280108
 31
0.0
  0
LINE
  5
3A9
  8
0
  6
CONTINUOUS
 62
     7
 10
2985.5463207476
 20
2749.1186578864
 30
0.0
 11
3011.7799817235
 21
2764.2630280108
 31
0.0
  0
LINE
  5
3AA
  8
0
  6
CONTINUOUS
 62
     7
 10
2984.69779932
 20
2749.60849888
 30
0.0
 11
3010.9314602959
 21
2764.7528690044
 31
0.0
  0
LINE
  5
3AB
  8
0
  6
CONTINUOUS
 62
     7
 10
3160.2724064049
 20
2033.3633762657
 30
0.0
 11
3160.2724064049
 21
1951.7092963319
 31
0.0
  0
LINE
  5
3AC
  8
0
  6
CONTINUOUS
 62
     7
 10
3034.4156131633
 20
2748.739358186
 30
0.0
 11
3043.5137874969
 21
2734.0239929711
 31
0.0
  0
LINE
  5
3AD
  8
0
  6
CONTINUOUS
 62
     7
 10
3043.5137874969
 20
2734.0239929711
 30
0.0
 11
3048.2865282324
 21
2710.5319034467
 31
0.0
  0
LINE
  5
3AE
  8
0
  6
CONTINUOUS
 62
     7
 10
3082.8098179062
 20
2540.6036112108
 30
0.0
 11
3132.8564609677
 21
2294.2673419783
 31
0.0
  0
LINE
  5
3AF
  8
0
  6
CONTINUOUS
 62
     7
 10
3160.5652427084
 20
2128.2730118537
 30
0.0
 11
3160.1507916735
 21
2045.9398200439
 31
0.0
  0
LINE
  5
3B0
  8
0
  6
CONTINUOUS
 62
     7
 10
3014.2687346888
 20
2763.9908245508
 30
0.0
 11
3034.4156131633
 21
2748.739358186
 31
0.0
  0
LINE
  5
3B1
  8
0
  6
CONTINUOUS
 62
     7
 10
3035.2460325196
 20
2749.4201439846
 30
0.0
 11
3034.4156131633
 21
2748.739358186
 31
0.0
  0
LINE
  5
3B2
  8
0
  6
CONTINUOUS
 62
     7
 10
3043.5137874969
 20
2734.0239929711
 30
0.0
 11
3044.344204219
 21
2734.7046799098
 31
0.0
  0
LINE
  5
3B3
  8
0
  6
CONTINUOUS
 62
     7
 10
3044.344204219
 20
2734.7046799098
 30
0.0
 11
3035.2460325196
 21
2749.4201439846
 31
0.0
  0
LINE
  5
3B4
  8
0
  6
CONTINUOUS
 62
     7
 10
3015.0991514109
 20
2764.6716088287
 30
0.0
 11
3014.2687346888
 21
2763.9908245508
 31
0.0
  0
LINE
  5
3B5
  8
0
  6
CONTINUOUS
 62
     7
 10
3015.0991514109
 20
2764.6716088287
 30
0.0
 11
3035.2460325196
 21
2749.4201439846
 31
0.0
  0
LINE
  5
3B6
  8
0
  6
CONTINUOUS
 62
     7
 10
3044.344204219
 20
2734.7046799098
 30
0.0
 11
3049.3839610449
 21
2709.8983729059
 31
0.0
  0
LINE
  5
3B7
  8
0
  6
CONTINUOUS
 62
     7
 10
3083.9072533528
 20
2539.9700821907
 30
0.0
 11
3133.953891146
 21
2293.6338099169
 31
0.0
  0
ARC
  5
3B8
  8
0
  6
CONTINUOUS
 62
     7
 10
3012.7966968253
 20
2762.04542101
 30
0.0
 40
2.439567668303933
 50
52.8861247452
 51
114.6302238071
  0
ARC
  5
3B9
  8
0
  6
CONTINUOUS
 62
     7
 10
3012.9497722766
 20
2761.3511373279
 30
0.0
 40
3.955421804372451
 50
57.0845566098
 51
120.6814605321
  0
POLYLINE
  5
3BA
  8
0
  6
CONTINUOUS
 62
     7
 66
     1
 10
0.0
 20
0.0
 30
0.0
 70
   128
  0
VERTEX
  5
7CA
  8
0
  6
CONTINUOUS
 62
     7
 10
3160.1507916735
 20
2045.9398200439
 30
0.0
  0
VERTEX
  5
7CB
  8
0
  6
CONTINUOUS
 62
     7
 10
3160.2062885363
 20
2039.9950438959
 30
0.0
  0
VERTEX
  5
7CC
  8
0
  6
CONTINUOUS
 62
     7
 10
3160.2724064049
 20
2033.3633762657
 30
0.0
  0
SEQEND
  5
88E
  8
0
  6
CONTINUOUS
 62
     7
  0
POLYLINE
  5
3BB
  8
0
  6
CONTINUOUS
 62
     7
 66
     1
 10
0.0
 20
0.0
 30
0.0
 70
   128
  0
VERTEX
  5
7CD
  8
0
  6
CONTINUOUS
 62
     7
 10
2998.4156811578
 20
2363.6719365534
 30
0.0
  0
VERTEX
  5
7CE
  8
0
  6
CONTINUOUS
 62
     7
 10
2998.5413419866
 20
2364.5621279539
 30
0.0
  0
VERTEX
  5
7CF
  8
0
  6
CONTINUOUS
 62
     7
 10
2998.5846057266
 20
2364.6863247292
 30
0.0
  0
SEQEND
  5
88F
  8
0
  6
CONTINUOUS
 62
     7
  0
ARC
  5
3BC
  8
0
  6
CONTINUOUS
 62
     7
 10
3004.0147302631
 20
2363.7114578621
 30
0.0
 40
5.599188585641101
 50
180.4044198465
 51
251.1592801687
  0
LINE
  5
3BD
  8
0
  6
CONTINUOUS
 62
     7
 10
3160.9812110297
 20
2046.6205693403
 30
0.0
 11
3160.1507916735
 21
2045.9398200439
 31
0.0
  0
LINE
  5
3BE
  8
0
  6
CONTINUOUS
 62
     7
 10
3161.3898352628
 20
2127.7969855999
 30
0.0
 11
3160.9812110297
 21
2046.6205693403
 31
0.0
  0
LINE
  5
3BF
  8
0
  6
CONTINUOUS
 62
     7
 10
3180.6370892558
 20
1938.564895858
 30
0.0
 11
3180.6370787191
 21
1930.400816443
 31
0.0
  0
LINE
  5
3C0
  8
0
  6
CONTINUOUS
 62
     7
 10
3180.6370787191
 20
1930.400816443
 30
0.0
 11
3012.9820646669
 21
1833.6156369611
 31
0.0
  0
LINE
  5
3C1
  8
0
  6
CONTINUOUS
 62
     7
 10
3012.9820646669
 20
1833.6156369611
 30
0.0
 11
3011.7798047397
 21
1834.3096868438
 31
0.0
  0
LINE
  5
3C2
  8
0
  6
CONTINUOUS
 62
     7
 10
3161.4744977447
 20
1949.6272244691
 30
0.0
 11
3180.6370892558
 21
1938.564895858
 31
0.0
  0
POLYLINE
  5
3C3
  8
0
  6
CONTINUOUS
 62
     7
 66
     1
 10
0.0
 20
0.0
 30
0.0
 70
   128
  0
VERTEX
  5
7D0
  8
0
  6
CONTINUOUS
 62
     7
 10
3154.8276868534
 20
1933.0541390594
 30
0.0
  0
VERTEX
  5
7D1
  8
0
  6
CONTINUOUS
 62
     7
 10
3153.8916264214
 20
1932.3707217616
 30
0.0
  0
VERTEX
  5
7D2
  8
0
  6
CONTINUOUS
 62
     7
 10
3153.2538076262
 20
1931.5811063523
 30
0.0
  0
VERTEX
  5
7D3
  8
0
  6
CONTINUOUS
 62
     7
 10
3152.9486328329
 20
1930.7278535847
 30
0.0
  0
VERTEX
  5
7D4
  8
0
  6
CONTINUOUS
 62
     7
 10
3152.9925077022
 20
1929.8569791933
 30
0.0
  0
VERTEX
  5
7D5
  8
0
  6
CONTINUOUS
 62
     7
 10
3153.3831246942
 20
1929.0154234855
 30
0.0
  0
VERTEX
  5
7D6
  8
0
  6
CONTINUOUS
 62
     7
 10
3154.0994103846
 20
1928.2485391801
 30
0.0
  0
VERTEX
  5
7D7
  8
0
  6
CONTINUOUS
 62
     7
 10
3155.1027055767
 20
1927.5977069835
 30
0.0
  0
VERTEX
  5
7D8
  8
0
  6
CONTINUOUS
 62
     7
 10
3156.3389885474
 20
1927.0979694135
 30
0.0
  0
VERTEX
  5
7D9
  8
0
  6
CONTINUOUS
 62
     7
 10
3157.7415724455
 20
1926.7763033086
 30
0.0
  0
VERTEX
  5
7DA
  8
0
  6
CONTINUOUS
 62
     7
 10
3159.2348352883
 20
1926.6500261569
 30
0.0
  0
VERTEX
  5
7DB
  8
0
  6
CONTINUOUS
 62
     7
 10
3160.7382976683
 20
1926.7259627639
 30
0.0
  0
VERTEX
  5
7DC
  8
0
  6
CONTINUOUS
 62
     7
 10
3162.1709006594
 20
1927.0000194629
 30
0.0
  0
VERTEX
  5
7DD
  8
0
  6
CONTINUOUS
 62
     7
 10
3163.4554206981
 20
1927.4573970096
 30
0.0
  0
VERTEX
  5
7DE
  8
0
  6
CONTINUOUS
 62
     7
 10
3164.5225894392
 20
1928.0734604105
 30
0.0
  0
VERTEX
  5
7DF
  8
0
  6
CONTINUOUS
 62
     7
 10
3165.3148764342
 20
1928.8149980448
 30
0.0
  0
VERTEX
  5
7E0
  8
0
  6
CONTINUOUS
 62
     7
 10
3165.7895974624
 20
1929.6420160651
 30
0.0
  0
VERTEX
  5
7E1
  8
0
  6
CONTINUOUS
 62
     7
 10
3165.9211377766
 20
1930.5099464227
 30
0.0
  0
VERTEX
  5
7E2
  8
0
  6
CONTINUOUS
 62
     7
 10
3165.7024061695
 20
1931.3719947954
 30
0.0
  0
VERTEX
  5
7E3
  8
0
  6
CONTINUOUS
 62
     7
 10
3165.1452037588
 20
1932.181689245
 30
0.0
  0
VERTEX
  5
7E4
  8
0
  6
CONTINUOUS
 62
     7
 10
3164.2795391005
 20
1932.8953802126
 30
0.0
  0
VERTEX
  5
7E5
  8
0
  6
CONTINUOUS
 62
     7
 10
3163.152142513
 20
1933.4745701986
 30
0.0
  0
VERTEX
  5
7E6
  8
0
  6
CONTINUOUS
 62
     7
 10
3161.8237159948
 20
1933.888073126
 30
0.0
  0
VERTEX
  5
7E7
  8
0
  6
CONTINUOUS
 62
     7
 10
3160.3659407985
 20
1934.1135715157
 30
0.0
  0
VERTEX
  5
7E8
  8
0
  6
CONTINUOUS
 62
     7
 10
3158.8573786497
 20
1934.1388999386
 30
0.0
  0
VERTEX
  5
7E9
  8
0
  6
CONTINUOUS
 62
     7
 10
3157.379341356
 20
1933.9627262803
 30
0.0
  0
VERTEX
  5
7EA
  8
0
  6
CONTINUOUS
 62
     7
 10
3156.0115391446
 20
1933.5945213273
 30
0.0
  0
VERTEX
  5
7EB
  8
0
  6
CONTINUOUS
 62
     7
 10
3154.8276868534
 20
1933.0541390594
 30
0.0
  0
SEQEND
  5
890
  8
0
  6
CONTINUOUS
 62
     7
  0
ARC
  5
3C4
  8
0
  6
CONTINUOUS
 62
     7
 10
3015.1638631974
 20
1847.9638068941
 30
0.0
 40
3.871449067361769
 50
116.9987875857
 51
150.9338432288
  0
POLYLINE
  5
3C5
  8
0
  6
CONTINUOUS
 62
     7
 66
     1
 10
0.0
 20
0.0
 30
0.0
 70
   128
  0
VERTEX
  5
7EC
  8
0
  6
CONTINUOUS
 62
     7
 10
3011.7800001628
 20
1847.6753724227
 30
0.0
  0
VERTEX
  5
7ED
  8
0
  6
CONTINUOUS
 62
     7
 10
3011.9617637153
 20
1847.374609566
 30
0.0
  0
VERTEX
  5
7EE
  8
0
  6
CONTINUOUS
 62
     7
 10
3012.67805204
 20
1846.6077267813
 30
0.0
  0
VERTEX
  5
7EF
  8
0
  6
CONTINUOUS
 62
     7
 10
3013.681347232
 20
1845.9568945847
 30
0.0
  0
VERTEX
  5
7F0
  8
0
  6
CONTINUOUS
 62
     7
 10
3014.9176328369
 20
1845.4571585353
 30
0.0
  0
VERTEX
  5
7F1
  8
0
  6
CONTINUOUS
 62
     7
 10
3016.3202114667
 20
1845.1354893891
 30
0.0
  0
VERTEX
  5
7F2
  8
0
  6
CONTINUOUS
 62
     7
 10
3017.8134835291
 20
1845.0092175598
 30
0.0
  0
VERTEX
  5
7F3
  8
0
  6
CONTINUOUS
 62
     7
 10
3019.3169459091
 20
1845.0851541668
 30
0.0
  0
VERTEX
  5
7F4
  8
0
  6
CONTINUOUS
 62
     7
 10
3020.7495396805
 20
1845.3592055434
 30
0.0
  0
VERTEX
  5
7F5
  8
0
  6
CONTINUOUS
 62
     7
 10
3022.0340623535
 20
1845.8165846107
 30
0.0
  0
VERTEX
  5
7F6
  8
0
  6
CONTINUOUS
 62
     7
 10
3023.1012337287
 20
1846.4326495323
 30
0.0
  0
VERTEX
  5
7F7
  8
0
  6
CONTINUOUS
 62
     7
 10
3023.8935220408
 20
1847.174187927
 30
0.0
  0
VERTEX
  5
7F8
  8
0
  6
CONTINUOUS
 62
     7
 10
3024.3682457032
 20
1848.001207468
 30
0.0
  0
VERTEX
  5
7F9
  8
0
  6
CONTINUOUS
 62
     7
 10
3024.4997847003
 20
1848.8691370652
 30
0.0
  0
VERTEX
  5
7FA
  8
0
  6
CONTINUOUS
 62
     7
 10
3024.2810530932
 20
1849.731185438
 30
0.0
  0
VERTEX
  5
7FB
  8
0
  6
CONTINUOUS
 62
     7
 10
3023.723844097
 20
1850.5408760858
 30
0.0
  0
VERTEX
  5
7FC
  8
0
  6
CONTINUOUS
 62
     7
 10
3022.85818339
 20
1851.2545693345
 30
0.0
  0
VERTEX
  5
7FD
  8
0
  6
CONTINUOUS
 62
     7
 10
3021.7307868025
 20
1851.8337593205
 30
0.0
  0
VERTEX
  5
7FE
  8
0
  6
CONTINUOUS
 62
     7
 10
3020.4023629185
 20
1852.2472637686
 30
0.0
  0
VERTEX
  5
7FF
  8
0
  6
CONTINUOUS
 62
     7
 10
3018.9445811367
 20
1852.4727583565
 30
0.0
  0
VERTEX
  5
800
  8
0
  6
CONTINUOUS
 62
     7
 10
3017.4360255734
 20
1852.4980905811
 30
0.0
  0
VERTEX
  5
801
  8
0
  6
CONTINUOUS
 62
     7
 10
3015.9579856455
 20
1852.3219154022
 30
0.0
  0
VERTEX
  5
802
  8
0
  6
CONTINUOUS
 62
     7
 10
3014.5901807999
 20
1851.9537089285
 30
0.0
  0
VERTEX
  5
803
  8
0
  6
CONTINUOUS
 62
     7
 10
3013.4063350942
 20
1851.4133304623
 30
0.0
  0
VERTEX
  5
804
  8
0
  6
CONTINUOUS
 62
     7
 10
3013.4063350942
 20
1851.4133304623
 30
0.0
  0
SEQEND
  5
891
  8
0
  6
CONTINUOUS
 62
     7
  0
LINE
  5
3C6
  8
0
  6
CONTINUOUS
 62
     7
 10
3012.9820646669
 20
1832.6357879403
 30
0.0
 11
3012.9820646669
 21
1833.6156369611
 31
0.0
  0
LINE
  5
3C7
  8
0
  6
CONTINUOUS
 62
     7
 10
3012.9820646669
 20
1832.6357879403
 30
0.0
 11
2986.7484120874
 21
1847.7801532175
 31
0.0
  0
LINE
  5
3C8
  8
0
  6
CONTINUOUS
 62
     7
 10
3180.6370787191
 20
1930.400816443
 30
0.0
 11
3180.6370787191
 21
1929.4209674222
 31
0.0
  0
LINE
  5
3C9
  8
0
  6
CONTINUOUS
 62
     7
 10
3180.6370787191
 20
1929.4209674222
 30
0.0
 11
3012.9820646669
 21
1832.6357879403
 31
0.0
  0
ARC
  5
3CA
  8
0
  6
CONTINUOUS
 62
     7
 10
3015.1638631974
 20
1846.9839578733
 30
0.0
 40
3.871449067368088
 50
116.9987875857
 51
150.9338432288
  0
POLYLINE
  5
3CB
  8
0
  6
CONTINUOUS
 62
     7
 66
     1
 10
0.0
 20
0.0
 30
0.0
 70
   128
  0
VERTEX
  5
805
  8
0
  6
CONTINUOUS
 62
     7
 10
3024.4468798687
 20
1848.2700842163
 30
0.0
  0
VERTEX
  5
806
  8
0
  6
CONTINUOUS
 62
     7
 10
3024.2810530932
 20
1848.7513364172
 30
0.0
  0
VERTEX
  5
807
  8
0
  6
CONTINUOUS
 62
     7
 10
3023.723844097
 20
1849.561027065
 30
0.0
  0
VERTEX
  5
808
  8
0
  6
CONTINUOUS
 62
     7
 10
3022.85818339
 20
1850.2747203137
 30
0.0
  0
VERTEX
  5
809
  8
0
  6
CONTINUOUS
 62
     7
 10
3021.7307868025
 20
1850.8539102997
 30
0.0
  0
VERTEX
  5
80A
  8
0
  6
CONTINUOUS
 62
     7
 10
3020.4023629185
 20
1851.2674147478
 30
0.0
  0
VERTEX
  5
80B
  8
0
  6
CONTINUOUS
 62
     7
 10
3018.9445811367
 20
1851.4929093357
 30
0.0
  0
VERTEX
  5
80C
  8
0
  6
CONTINUOUS
 62
     7
 10
3017.4360255734
 20
1851.5182415603
 30
0.0
  0
VERTEX
  5
80D
  8
0
  6
CONTINUOUS
 62
     7
 10
3015.9579856455
 20
1851.3420663814
 30
0.0
  0
VERTEX
  5
80E
  8
0
  6
CONTINUOUS
 62
     7
 10
3014.5901807999
 20
1850.9738599077
 30
0.0
  0
VERTEX
  5
80F
  8
0
  6
CONTINUOUS
 62
     7
 10
3013.4063350942
 20
1850.4334814415
 30
0.0
  0
SEQEND
  5
892
  8
0
  6
CONTINUOUS
 62
     7
  0
ARC
  5
3CC
  8
0
  6
CONTINUOUS
 62
     7
 10
3162.8823008272
 20
1951.8280761261
 30
0.0
 40
2.612595937964358
 50
182.6058096102
 51
237.3944623835
  0
POLYLINE
  5
3CD
  8
0
  6
CONTINUOUS
 62
     7
 66
     1
 10
0.0
 20
0.0
 30
0.0
 70
   128
  0
VERTEX
  5
810
  8
0
  6
CONTINUOUS
 62
     7
 10
3160.9812110297
 20
2046.6205693403
 30
0.0
  0
VERTEX
  5
811
  8
0
  6
CONTINUOUS
 62
     7
 10
3160.520419535
 20
2042.8900576633
 30
0.0
  0
VERTEX
  5
812
  8
0
  6
CONTINUOUS
 62
     7
 10
3160.3428759356
 20
2041.726673739
 30
0.0
  0
SEQEND
  5
893
  8
0
  6
CONTINUOUS
 62
     7
  0
ARC
  5
3CE
  8
0
  6
CONTINUOUS
 62
     7
 10
3156.3754598993
 20
1928.8809044322
 30
0.0
 40
3.548705825098447
 50
115.8585824767
 51
163.1274596499
  0
POLYLINE
  5
3CF
  8
0
  6
CONTINUOUS
 62
     7
 66
     1
 10
0.0
 20
0.0
 30
0.0
 70
   128
  0
VERTEX
  5
813
  8
0
  6
CONTINUOUS
 62
     7
 10
3165.868232945
 20
1929.9108935738
 30
0.0
  0
VERTEX
  5
814
  8
0
  6
CONTINUOUS
 62
     7
 10
3165.7024061695
 20
1930.3921457746
 30
0.0
  0
VERTEX
  5
815
  8
0
  6
CONTINUOUS
 62
     7
 10
3165.1452037588
 20
1931.2018402242
 30
0.0
  0
VERTEX
  5
816
  8
0
  6
CONTINUOUS
 62
     7
 10
3164.2795391005
 20
1931.9155311918
 30
0.0
  0
VERTEX
  5
817
  8
0
  6
CONTINUOUS
 62
     7
 10
3163.152142513
 20
1932.4947211778
 30
0.0
  0
VERTEX
  5
818
  8
0
  6
CONTINUOUS
 62
     7
 10
3161.8237159948
 20
1932.9082241052
 30
0.0
  0
VERTEX
  5
819
  8
0
  6
CONTINUOUS
 62
     7
 10
3160.3659407985
 20
1933.1337224949
 30
0.0
  0
VERTEX
  5
81A
  8
0
  6
CONTINUOUS
 62
     7
 10
3158.8573786497
 20
1933.1590509178
 30
0.0
  0
VERTEX
  5
81B
  8
0
  6
CONTINUOUS
 62
     7
 10
3157.379341356
 20
1932.9828772595
 30
0.0
  0
VERTEX
  5
81C
  8
0
  6
CONTINUOUS
 62
     7
 10
3156.0115391446
 20
1932.6146723065
 30
0.0
  0
VERTEX
  5
81D
  8
0
  6
CONTINUOUS
 62
     7
 10
3154.8276868534
 20
1932.0742900386
 30
0.0
  0
SEQEND
  5
894
  8
0
  6
CONTINUOUS
 62
     7
  0
ARC
  5
3D0
  8
0
  6
CONTINUOUS
 62
     7
 10
3534.3319109132
 20
2433.9375740318
 30
0.0
 40
2.612965014889951
 50
242.6097315212
 51
297.389996675
  0
ARC
  5
3D1
  8
0
  6
CONTINUOUS
 62
     7
 10
3534.3319037778
 20
2435.0853593168
 30
0.0
 40
4.457367506300612
 50
242.6096512068
 51
297.3902983375
  0
ARC
  5
3D2
  8
0
  6
CONTINUOUS
 62
     7
 10
3534.3319037778
 20
1536.8087755316
 30
0.0
 40
4.457367506301952
 50
242.6096512068
 51
297.3902983375
  0
LINE
  5
3D3
  8
0
  6
CONTINUOUS
 62
     7
 10
3711.1085988959
 20
1715.3724109687
 30
0.0
 11
3711.1085988959
 21
1633.7183310349
 31
0.0
  0
LINE
  5
3D4
  8
0
  6
CONTINUOUS
 62
     7
 10
3536.3825132386
 20
2431.1276925893
 30
0.0
 11
3562.6161742145
 21
2446.2720627137
 31
0.0
  0
LINE
  5
3D5
  8
0
  6
CONTINUOUS
 62
     7
 10
3535.533991811
 20
2431.6175335829
 30
0.0
 11
3561.7676527869
 21
2446.7619037073
 31
0.0
  0
LINE
  5
3D6
  8
0
  6
CONTINUOUS
 62
     7
 10
3562.6161742145
 20
2446.2720627137
 30
0.0
 11
3561.7676527869
 21
2446.7619037073
 31
0.0
  0
LINE
  5
3D7
  8
0
  6
CONTINUOUS
 62
     7
 10
3513.1186993207
 20
2442.1900230062
 30
0.0
 11
3532.2812908318
 21
2431.1276943951
 31
0.0
  0
LINE
  5
3D8
  8
0
  6
CONTINUOUS
 62
     7
 10
3513.9672274984
 20
2442.6798678966
 30
0.0
 11
3513.1186993207
 21
2442.1900230062
 31
0.0
  0
LINE
  5
3D9
  8
0
  6
CONTINUOUS
 62
     7
 10
3513.9672274984
 20
2442.6798678966
 30
0.0
 11
3533.1298190095
 21
2431.6175392855
 31
0.0
  0
LINE
  5
3DA
  8
0
  6
CONTINUOUS
 62
     7
 10
3506.0476382523
 20
1547.9954758872
 30
0.0
 11
3532.2812908318
 21
1532.8511106099
 31
0.0
  0
LINE
  5
3DB
  8
0
  6
CONTINUOUS
 62
     7
 10
3506.0476382523
 20
2296.2736380577
 30
0.0
 11
3506.0476382523
 21
2078.8286553881
 31
0.0
  0
LINE
  5
3DC
  8
0
  6
CONTINUOUS
 62
     7
 10
3506.0476382523
 20
1928.8302581082
 30
0.0
 11
3506.0476382523
 21
1547.9954758872
 31
0.0
  0
POLYLINE
  5
3DD
  8
0
  6
CONTINUOUS
 62
     7
 66
     1
 10
0.0
 20
0.0
 30
0.0
 70
   128
  0
VERTEX
  5
81E
  8
0
  6
CONTINUOUS
 62
     7
 10
3514.204928974
 20
2434.1441476912
 30
0.0
  0
VERTEX
  5
81F
  8
0
  6
CONTINUOUS
 62
     7
 10
3514.035203615
 20
2433.8919987729
 30
0.0
  0
VERTEX
  5
820
  8
0
  6
CONTINUOUS
 62
     7
 10
3513.7866847228
 20
2433.1050971234
 30
0.0
  0
VERTEX
  5
821
  8
0
  6
CONTINUOUS
 62
     7
 10
3513.7866847228
 20
2432.1315099441
 30
0.0
  0
VERTEX
  5
822
  8
0
  6
CONTINUOUS
 62
     7
 10
3514.035203615
 20
2431.0576744892
 30
0.0
  0
VERTEX
  5
823
  8
0
  6
CONTINUOUS
 62
     7
 10
3514.5101353774
 20
2429.979090656
 30
0.0
  0
VERTEX
  5
824
  8
0
  6
CONTINUOUS
 62
     7
 10
3515.1693120882
 20
2428.9915484774
 30
0.0
  0
VERTEX
  5
825
  8
0
  6
CONTINUOUS
 62
     7
 10
3515.9541285543
 20
2428.1828059555
 30
0.0
  0
VERTEX
  5
826
  8
0
  6
CONTINUOUS
 62
     7
 10
3516.7948949618
 20
2427.6246320806
 30
0.0
  0
VERTEX
  5
827
  8
0
  6
CONTINUOUS
 62
     7
 10
3517.6168638749
 20
2427.3667966981
 30
0.0
  0
VERTEX
  5
828
  8
0
  6
CONTINUOUS
 62
     7
 10
3518.113585558
 20
2427.3734258738
 30
0.0
  0
SEQEND
  5
895
  8
0
  6
CONTINUOUS
 62
     7
  0
POLYLINE
  5
3DE
  8
0
  6
CONTINUOUS
 62
     7
 66
     1
 10
0.0
 20
0.0
 30
0.0
 70
   128
  0
VERTEX
  5
829
  8
0
  6
CONTINUOUS
 62
     7
 10
3514.204928974
 20
2066.7007920766
 30
0.0
  0
VERTEX
  5
82A
  8
0
  6
CONTINUOUS
 62
     7
 10
3514.035203615
 20
2066.4485944886
 30
0.0
  0
VERTEX
  5
82B
  8
0
  6
CONTINUOUS
 62
     7
 10
3513.7866847228
 20
2065.6616928391
 30
0.0
  0
VERTEX
  5
82C
  8
0
  6
CONTINUOUS
 62
     7
 10
3513.7866847228
 20
2064.6881056598
 30
0.0
  0
VERTEX
  5
82D
  8
0
  6
CONTINUOUS
 62
     7
 10
3514.035203615
 20
2063.6143188745
 30
0.0
  0
VERTEX
  5
82E
  8
0
  6
CONTINUOUS
 62
     7
 10
3514.5101353774
 20
2062.5357350414
 30
0.0
  0
VERTEX
  5
82F
  8
0
  6
CONTINUOUS
 62
     7
 10
3515.1693120882
 20
2061.5481441931
 30
0.0
  0
VERTEX
  5
830
  8
0
  6
CONTINUOUS
 62
     7
 10
3515.9541285543
 20
2060.7394016712
 30
0.0
  0
VERTEX
  5
831
  8
0
  6
CONTINUOUS
 62
     7
 10
3516.7948949618
 20
2060.181276466
 30
0.0
  0
VERTEX
  5
832
  8
0
  6
CONTINUOUS
 62
     7
 10
3517.6168638749
 20
2059.9233924138
 30
0.0
  0
VERTEX
  5
833
  8
0
  6
CONTINUOUS
 62
     7
 10
3518.113585558
 20
2059.9300702591
 30
0.0
  0
SEQEND
  5
896
  8
0
  6
CONTINUOUS
 62
     7
  0
ARC
  5
3DF
  8
0
  6
CONTINUOUS
 62
     7
 10
3520.0473396819
 20
2433.0033506209
 30
0.0
 40
5.396007942760498
 50
167.831507653
 51
252.162911078
  0
POLYLINE
  5
3E0
  8
0
  6
CONTINUOUS
 62
     7
 66
     1
 10
0.0
 20
0.0
 30
0.0
 70
   128
  0
VERTEX
  5
834
  8
0
  6
CONTINUOUS
 62
     7
 10
3561.7676527869
 20
2446.7619037073
 30
0.0
  0
VERTEX
  5
835
  8
0
  6
CONTINUOUS
 62
     7
 10
3562.1539102142
 20
2447.0480900452
 30
0.0
  0
VERTEX
  5
836
  8
0
  6
CONTINUOUS
 62
     7
 10
3562.3025358071
 20
2447.375777575
 30
0.0
  0
VERTEX
  5
837
  8
0
  6
CONTINUOUS
 62
     7
 10
3562.1951245637
 20
2447.674290449
 30
0.0
  0
VERTEX
  5
838
  8
0
  6
CONTINUOUS
 62
     7
 10
3561.8522230726
 20
2447.8776053659
 30
0.0
  0
SEQEND
  5
897
  8
0
  6
CONTINUOUS
 62
     7
  0
LINE
  5
3E1
  8
0
  6
CONTINUOUS
 62
     7
 10
3562.6826397946
 20
2448.5583896438
 30
0.0
 11
3561.8522230726
 21
2447.8776053659
 31
0.0
  0
POLYLINE
  5
3E2
  8
0
  6
CONTINUOUS
 62
     7
 66
     1
 10
0.0
 20
0.0
 30
0.0
 70
   128
  0
VERTEX
  5
839
  8
0
  6
CONTINUOUS
 62
     7
 10
3562.6161742145
 20
2446.2720627137
 30
0.0
  0
VERTEX
  5
83A
  8
0
  6
CONTINUOUS
 62
     7
 10
3563.2556288343
 20
2446.8560834445
 30
0.0
  0
VERTEX
  5
83B
  8
0
  6
CONTINUOUS
 62
     7
 10
3563.4897308702
 20
2447.5107898378
 30
0.0
  0
VERTEX
  5
83C
  8
0
  6
CONTINUOUS
 62
     7
 10
3563.287051944
 20
2448.115747828
 30
0.0
  0
VERTEX
  5
83D
  8
0
  6
CONTINUOUS
 62
     7
 10
3562.6826397946
 20
2448.5583896438
 30
0.0
  0
SEQEND
  5
898
  8
0
  6
CONTINUOUS
 62
     7
  0
POLYLINE
  5
3E3
  8
0
  6
CONTINUOUS
 62
     7
 66
     1
 10
0.0
 20
0.0
 30
0.0
 70
   128
  0
VERTEX
  5
83E
  8
0
  6
CONTINUOUS
 62
     7
 10
3710.3710290469
 20
1724.2835129981
 30
0.0
  0
VERTEX
  5
83F
  8
0
  6
CONTINUOUS
 62
     7
 10
3711.0039061242
 20
1720.4555830492
 30
0.0
  0
VERTEX
  5
840
  8
0
  6
CONTINUOUS
 62
     7
 10
3711.1085988959
 20
1715.3724109687
 30
0.0
  0
SEQEND
  5
899
  8
0
  6
CONTINUOUS
 62
     7
  0
LINE
  5
3E4
  8
0
  6
CONTINUOUS
 62
     7
 10
3561.8522230726
 20
2447.8776053659
 30
0.0
 11
3543.3721049427
 21
2454.9250294956
 31
0.0
  0
LINE
  5
3E5
  8
0
  6
CONTINUOUS
 62
     7
 10
3544.2025242989
 20
2455.6058152942
 30
0.0
 11
3543.3721049427
 21
2454.9250294956
 31
0.0
  0
LINE
  5
3E6
  8
0
  6
CONTINUOUS
 62
     7
 10
3562.6826397946
 20
2448.5583896438
 30
0.0
 11
3544.2025242989
 21
2455.6058152942
 31
0.0
  0
LINE
  5
3E7
  8
0
  6
CONTINUOUS
 62
     7
 10
3538.6299707218
 20
2448.1995043407
 30
0.0
 11
3541.3201987938
 21
2434.9578499914
 31
0.0
  0
LINE
  5
3E8
  8
0
  6
CONTINUOUS
 62
     7
 10
3543.3721049427
 20
2454.9250294956
 30
0.0
 11
3538.6299707218
 21
2448.1995043407
 31
0.0
  0
ARC
  5
3E9
  8
0
  6
CONTINUOUS
 62
     7
 10
3520.0473679061
 20
2065.5599626301
 30
0.0
 40
5.396032098419135
 50
167.831739942
 51
252.162678789
  0
ARC
  5
3EA
  8
0
  6
CONTINUOUS
 62
     7
 10
3535.1323960226
 20
1532.6483220302
 30
0.0
 40
1.266457867239375
 50
230.7966682694
 51
9.21393211
  0
ARC
  5
3EB
  8
0
  6
CONTINUOUS
 62
     7
 10
3709.6561775571
 20
1633.5756835031
 30
0.0
 40
1.459409491417206
 50
305.703709272
 51
5.609235667
  0
LINE
  5
3EC
  8
0
  6
CONTINUOUS
 62
     7
 10
3508.0982478917
 20
1546.8112993099
 30
0.0
 11
3508.0982478917
 21
1546.8116841401
 31
0.0
  0
LINE
  5
3ED
  8
0
  6
CONTINUOUS
 62
     7
 10
3508.0982478917
 20
1546.8112993099
 30
0.0
 11
3534.3319004712
 21
1531.6669340327
 31
0.0
  0
LINE
  5
3EE
  8
0
  6
CONTINUOUS
 62
     8
 10
3529.8771224755
 20
2048.4557253696
 30
0.0
 11
2985.4049144489
 21
2362.7728406354
 31
0.0
  0
LINE
  5
3EF
  8
0
  6
CONTINUOUS
 62
     8
 10
3529.8771224755
 20
2048.4557253696
 30
0.0
 11
3530.7256506533
 21
2048.9455702599
 31
0.0
  0
LINE
  5
3F0
  8
0
  6
CONTINUOUS
 62
     8
 10
3515.3107226674
 20
2032.3712785346
 30
0.0
 11
3514.4621946544
 21
2031.8814337393
 31
0.0
  0
LINE
  5
3F1
  8
0
  6
CONTINUOUS
 62
     8
 10
3518.2098608138
 20
2038.3725697508
 30
0.0
 11
3518.2098608138
 21
2037.3927041899
 31
0.0
  0
LINE
  5
3F2
  8
0
  6
CONTINUOUS
 62
     8
 10
3514.4621946544
 20
2031.8814337393
 30
0.0
 11
2969.9899866277
 21
2346.1985490051
 31
0.0
  0
LINE
  5
3F3
  8
0
  6
CONTINUOUS
 62
     8
 10
3518.2098608138
 20
2038.3725697508
 30
0.0
 11
2973.7376527872
 21
2352.6896850166
 31
0.0
  0
LINE
  5
3F4
  8
0
  6
CONTINUOUS
 62
     8
 10
3514.4621946544
 20
1929.4871860651
 30
0.0
 11
2969.9899866277
 21
2243.804301331
 31
0.0
  0
LINE
  5
3F5
  8
0
  6
CONTINUOUS
 62
     8
 10
3515.3107226674
 20
1929.9770308604
 30
0.0
 11
3514.4621946544
 21
1929.4871860651
 31
0.0
  0
LINE
  5
3F6
  8
0
  6
CONTINUOUS
 62
     8
 10
3526.9779848231
 20
2043.4342999994
 30
0.0
 11
2982.5057767964
 21
2357.7514152652
 31
0.0
  0
LINE
  5
3F7
  8
0
  6
CONTINUOUS
 62
     8
 10
3526.9779848231
 20
2042.4544344385
 30
0.0
 11
3526.9779848231
 21
2043.4342999994
 31
0.0
  0
LINE
  5
3F8
  8
0
  6
CONTINUOUS
 62
     8
 10
3486.3193596431
 20
1993.0112696956
 30
0.0
 11
3485.47083163
 21
1992.5214249002
 31
0.0
  0
LINE
  5
3F9
  8
0
  6
CONTINUOUS
 62
     8
 10
3466.5203717929
 20
2004.4409820932
 30
0.0
 11
3465.6718437798
 21
2003.9511372979
 31
0.0
  0
LINE
  5
3FA
  8
0
  6
CONTINUOUS
 62
     8
 10
3518.2098608138
 20
1927.3230132993
 30
0.0
 11
3518.2098608138
 21
1928.3028545253
 31
0.0
  0
LINE
  5
3FB
  8
0
  6
CONTINUOUS
 62
     8
 10
3518.2098608138
 20
1928.3028545253
 30
0.0
 11
3515.3107266187
 21
1929.9764890719
 31
0.0
  0
LINE
  5
3FC
  8
0
  6
CONTINUOUS
 62
     8
 10
3526.9779848231
 20
1933.3645847739
 30
0.0
 11
3515.3107256309
 21
1940.0999501393
 31
0.0
  0
LINE
  5
3FD
  8
0
  6
CONTINUOUS
 62
     8
 10
3526.9779848231
 20
1933.3645847739
 30
0.0
 11
3526.9779848231
 21
1932.3847435479
 31
0.0
  0
LINE
  5
3FE
  8
0
  6
CONTINUOUS
 62
     8
 10
3529.8771224755
 20
1930.7105669277
 30
0.0
 11
3530.7256506533
 21
1931.200411818
 31
0.0
  0
LINE
  5
3FF
  8
0
  6
CONTINUOUS
 62
     8
 10
3529.8771224755
 20
1930.7105669277
 30
0.0
 11
3526.9775246651
 21
1932.3844691136
 31
0.0
  0
LINE
  5
400
  8
0
  6
CONTINUOUS
 62
     8
 10
3443.892951086
 20
2017.5035140235
 30
0.0
 11
3443.0444230729
 21
2017.0136692282
 31
0.0
  0
LINE
  5
401
  8
0
  6
CONTINUOUS
 62
     8
 10
3424.0939632358
 20
2028.9332264211
 30
0.0
 11
3423.2454352227
 21
2028.4433816258
 31
0.0
  0
LINE
  5
402
  8
0
  6
CONTINUOUS
 62
     8
 10
3401.4665425289
 20
2041.9957583514
 30
0.0
 11
3400.6180145159
 21
2041.5059135561
 31
0.0
  0
LINE
  5
403
  8
0
  6
CONTINUOUS
 62
     8
 10
3381.6675441421
 20
2053.4254768317
 30
0.0
 11
3380.819016129
 21
2052.9356320364
 31
0.0
  0
LINE
  5
404
  8
0
  6
CONTINUOUS
 62
     8
 10
3359.0401339719
 20
2066.4880026793
 30
0.0
 11
3358.1916059588
 21
2065.998157884
 31
0.0
  0
LINE
  5
405
  8
0
  6
CONTINUOUS
 62
     8
 10
3339.2411461217
 20
2077.9177150769
 30
0.0
 11
3338.3926181086
 21
2077.4278702816
 31
0.0
  0
LINE
  5
406
  8
0
  6
CONTINUOUS
 62
     8
 10
3316.6137254148
 20
2090.9802470072
 30
0.0
 11
3315.7651974017
 21
2090.4904022119
 31
0.0
  0
LINE
  5
407
  8
0
  6
CONTINUOUS
 62
     8
 10
3296.8147322963
 20
2102.4099624462
 30
0.0
 11
3295.9662042832
 21
2101.9201176509
 31
0.0
  0
LINE
  5
408
  8
0
  6
CONTINUOUS
 62
     8
 10
3189.334505012
 20
2164.4569769496
 30
0.0
 11
3188.4859769989
 21
2163.9671321543
 31
0.0
  0
LINE
  5
409
  8
0
  6
CONTINUOUS
 62
     8
 10
3169.5355118934
 20
2175.8866923886
 30
0.0
 11
3168.6869838803
 21
2175.3968475933
 31
0.0
  0
LINE
  5
40A
  8
0
  6
CONTINUOUS
 62
     8
 10
3146.9080911865
 20
2188.9492243189
 30
0.0
 11
3146.0595631735
 21
2188.4593795236
 31
0.0
  0
LINE
  5
40B
  8
0
  6
CONTINUOUS
 62
     8
 10
3127.1091033364
 20
2200.3789367165
 30
0.0
 11
3126.2605753233
 21
2199.8890919212
 31
0.0
  0
LINE
  5
40C
  8
0
  6
CONTINUOUS
 62
     8
 10
3104.4816931662
 20
2213.4414625641
 30
0.0
 11
3103.6331651531
 21
2212.9516177688
 31
0.0
  0
LINE
  5
40D
  8
0
  6
CONTINUOUS
 62
     8
 10
3084.6826947793
 20
2224.8711810444
 30
0.0
 11
3083.8341667662
 21
2224.3813362491
 31
0.0
  0
LINE
  5
40E
  8
0
  6
CONTINUOUS
 62
     8
 10
3062.0552740724
 20
2237.9337129747
 30
0.0
 11
3061.2067460593
 21
2237.4438681794
 31
0.0
  0
LINE
  5
40F
  8
0
  6
CONTINUOUS
 62
     8
 10
3042.2562862222
 20
2249.3634253724
 30
0.0
 11
3041.4077582091
 21
2248.873580577
 31
0.0
  0
LINE
  5
410
  8
0
  6
CONTINUOUS
 62
     8
 10
3019.6288655153
 20
2262.4259573026
 30
0.0
 11
3018.7803375023
 21
2261.9361125073
 31
0.0
  0
LINE
  5
411
  8
0
  6
CONTINUOUS
 62
     8
 10
2999.8298776652
 20
2273.8556697003
 30
0.0
 11
2998.9813496521
 21
2273.365824905
 31
0.0
  0
LINE
  5
412
  8
0
  6
CONTINUOUS
 62
     8
 10
3529.8771224755
 20
2415.8991296539
 30
0.0
 11
3530.7256506533
 21
2416.3889745442
 31
0.0
  0
LINE
  5
413
  8
0
  6
CONTINUOUS
 62
     8
 10
3529.8771224755
 20
2415.8991296539
 30
0.0
 11
2985.4049144489
 21
2730.2162449197
 31
0.0
  0
LINE
  5
414
  8
0
  6
CONTINUOUS
 62
     8
 10
3514.4621946544
 20
2399.3247893539
 30
0.0
 11
2969.9899866277
 21
2713.6419046198
 31
0.0
  0
LINE
  5
415
  8
0
  6
CONTINUOUS
 62
     8
 10
3518.2098608138
 20
2405.8158766958
 30
0.0
 11
2973.7376527872
 21
2720.1329919617
 31
0.0
  0
LINE
  5
416
  8
0
  6
CONTINUOUS
 62
     8
 10
3515.3107226674
 20
2399.8146341492
 30
0.0
 11
3514.4621946544
 21
2399.3247893539
 31
0.0
  0
LINE
  5
417
  8
0
  6
CONTINUOUS
 62
     8
 10
3518.2098608138
 20
2405.8158766958
 30
0.0
 11
3518.2098608138
 21
2404.8360598046
 31
0.0
  0
LINE
  5
418
  8
0
  6
CONTINUOUS
 62
     8
 10
3514.4621946544
 20
2296.9305660146
 30
0.0
 11
2969.9899866277
 21
2611.2476812804
 31
0.0
  0
LINE
  5
419
  8
0
  6
CONTINUOUS
 62
     8
 10
3515.3107226674
 20
2297.4204108099
 30
0.0
 11
3514.4621946544
 21
2296.9305660146
 31
0.0
  0
LINE
  5
41A
  8
0
  6
CONTINUOUS
 62
     8
 10
3526.9779848231
 20
2410.8776069444
 30
0.0
 11
2982.5057767964
 21
2725.1947222103
 31
0.0
  0
LINE
  5
41B
  8
0
  6
CONTINUOUS
 62
     8
 10
3526.9779848231
 20
2409.8977900532
 30
0.0
 11
3526.9779848231
 21
2410.8776069444
 31
0.0
  0
LINE
  5
41C
  8
0
  6
CONTINUOUS
 62
     8
 10
3486.3193596431
 20
2360.4545766406
 30
0.0
 11
3485.47083163
 21
2359.9647318453
 31
0.0
  0
LINE
  5
41D
  8
0
  6
CONTINUOUS
 62
     8
 10
3466.5203717929
 20
2371.8842890382
 30
0.0
 11
3465.6718437798
 21
2371.3944442429
 31
0.0
  0
LINE
  5
41E
  8
0
  6
CONTINUOUS
 62
     8
 10
3518.2098608138
 20
2294.7663932488
 30
0.0
 11
3518.2098608138
 21
2295.74621014
 31
0.0
  0
LINE
  5
41F
  8
0
  6
CONTINUOUS
 62
     8
 10
3518.2098608138
 20
2295.74621014
 30
0.0
 11
3515.3107266187
 21
2297.4198446865
 31
0.0
  0
LINE
  5
420
  8
0
  6
CONTINUOUS
 62
     8
 10
3526.9779848231
 20
2300.8079403886
 30
0.0
 11
3526.9779848231
 21
2299.8281234973
 31
0.0
  0
LINE
  5
421
  8
0
  6
CONTINUOUS
 62
     8
 10
3526.9779848231
 20
2300.8079403886
 30
0.0
 11
3515.3107256309
 21
2307.543305754
 31
0.0
  0
LINE
  5
422
  8
0
  6
CONTINUOUS
 62
     8
 10
3529.8771224755
 20
2298.1539225423
 30
0.0
 11
3530.7256506533
 21
2298.6437674327
 31
0.0
  0
LINE
  5
423
  8
0
  6
CONTINUOUS
 62
     8
 10
3529.8771224755
 20
2298.1539225423
 30
0.0
 11
3526.9775246651
 21
2299.8278247283
 31
0.0
  0
LINE
  5
424
  8
0
  6
CONTINUOUS
 62
     8
 10
3443.892951086
 20
2384.9468209685
 30
0.0
 11
3443.0444230729
 21
2384.4569761732
 31
0.0
  0
LINE
  5
425
  8
0
  6
CONTINUOUS
 62
     8
 10
3424.0939632358
 20
2396.3765333662
 30
0.0
 11
3423.2454352227
 21
2395.8866885708
 31
0.0
  0
LINE
  5
426
  8
0
  6
CONTINUOUS
 62
     8
 10
3401.4665425289
 20
2409.4390652964
 30
0.0
 11
3400.6180145159
 21
2408.9492205011
 31
0.0
  0
LINE
  5
427
  8
0
  6
CONTINUOUS
 62
     8
 10
3381.6675441421
 20
2420.8687837768
 30
0.0
 11
3380.819016129
 21
2420.3789389815
 31
0.0
  0
LINE
  5
428
  8
0
  6
CONTINUOUS
 62
     8
 10
3359.0401339719
 20
2433.9313096243
 30
0.0
 11
3358.1916059588
 21
2433.441464829
 31
0.0
  0
LINE
  5
429
  8
0
  6
CONTINUOUS
 62
     8
 10
3339.2411461217
 20
2445.361022022
 30
0.0
 11
3338.3926181086
 21
2444.8711772267
 31
0.0
  0
LINE
  5
42A
  8
0
  6
CONTINUOUS
 62
     8
 10
3316.6137254148
 20
2458.4235539523
 30
0.0
 11
3315.7651974017
 21
2457.9337091569
 31
0.0
  0
LINE
  5
42B
  8
0
  6
CONTINUOUS
 62
     8
 10
3296.8147322963
 20
2469.8532693913
 30
0.0
 11
3295.9662042832
 21
2469.3634245959
 31
0.0
  0
LINE
  5
42C
  8
0
  6
CONTINUOUS
 62
     8
 10
3189.334505012
 20
2531.9002838947
 30
0.0
 11
3188.4859769989
 21
2531.4104390993
 31
0.0
  0
LINE
  5
42D
  8
0
  6
CONTINUOUS
 62
     8
 10
3169.5355118934
 20
2543.3299993336
 30
0.0
 11
3168.6869838803
 21
2542.8401545383
 31
0.0
  0
LINE
  5
42E
  8
0
  6
CONTINUOUS
 62
     8
 10
3146.9080911865
 20
2556.3925312639
 30
0.0
 11
3146.0595631735
 21
2555.9026864686
 31
0.0
  0
LINE
  5
42F
  8
0
  6
CONTINUOUS
 62
     8
 10
3127.1091033364
 20
2567.8222436616
 30
0.0
 11
3126.2605753233
 21
2567.3323988662
 31
0.0
  0
LINE
  5
430
  8
0
  6
CONTINUOUS
 62
     8
 10
3104.4816931662
 20
2580.8847695091
 30
0.0
 11
3103.6331651531
 21
2580.3949247138
 31
0.0
  0
LINE
  5
431
  8
0
  6
CONTINUOUS
 62
     8
 10
3084.6826947793
 20
2592.3144879895
 30
0.0
 11
3083.8341667662
 21
2591.8246431942
 31
0.0
  0
LINE
  5
432
  8
0
  6
CONTINUOUS
 62
     8
 10
3062.0552740724
 20
2605.3770199198
 30
0.0
 11
3061.2067460593
 21
2604.8871751244
 31
0.0
  0
LINE
  5
433
  8
0
  6
CONTINUOUS
 62
     8
 10
3042.2562862222
 20
2616.8067323174
 30
0.0
 11
3041.4077582091
 21
2616.3168875221
 31
0.0
  0
LINE
  5
434
  8
0
  6
CONTINUOUS
 62
     8
 10
3019.6288655153
 20
2629.8692642477
 30
0.0
 11
3018.7803375023
 21
2629.3794194524
 31
0.0
  0
LINE
  5
435
  8
0
  6
CONTINUOUS
 62
     8
 10
2999.8298776652
 20
2641.2989766453
 30
0.0
 11
2998.9813496521
 21
2640.80913185
 31
0.0
  0
LINE
  5
436
  8
0
  6
CONTINUOUS
 62
     8
 10
2984.6978024481
 20
2747.24091358
 30
0.0
 11
2984.6978024481
 21
2727.6170287473
 31
0.0
  0
LINE
  5
437
  8
0
  6
CONTINUOUS
 62
     8
 10
2984.6978024481
 20
2600.9642581919
 30
0.0
 11
2984.6978024481
 21
2360.173624463
 31
0.0
  0
LINE
  5
438
  8
0
  6
CONTINUOUS
 62
     8
 10
2984.6978024481
 20
2233.5208782424
 30
0.0
 11
2984.6978024481
 21
1848.9643297948
 31
0.0
  0
LINE
  5
439
  8
0
  6
CONTINUOUS
 62
     8
 10
2984.6978024481
 20
2747.24091358
 30
0.0
 11
2985.5463306258
 21
2747.7307584704
 31
0.0
  0
LINE
  5
43A
  8
0
  6
CONTINUOUS
 62
     8
 10
2985.5463207476
 20
2749.1186578864
 30
0.0
 11
2984.69779932
 21
2749.60849888
 31
0.0
  0
LINE
  5
43B
  8
0
  6
CONTINUOUS
 62
     8
 10
2985.5463207476
 20
2749.1186578864
 30
0.0
 11
2985.5463207476
 21
2747.7306975195
 31
0.0
  0
LINE
  5
43C
  8
0
  6
CONTINUOUS
 62
     8
 10
3011.7799817235
 20
2764.2630280108
 30
0.0
 11
3019.2960871704
 21
2727.2677468372
 31
0.0
  0
LINE
  5
43D
  8
0
  6
CONTINUOUS
 62
     8
 10
3039.7309550608
 20
2626.6845313121
 30
0.0
 11
3041.6575823366
 21
2617.2014208633
 31
0.0
  0
LINE
  5
43E
  8
0
  6
CONTINUOUS
 62
     8
 10
3053.8193768441
 20
2557.3394546014
 30
0.0
 11
3103.866025174
 21
2311.0031640754
 31
0.0
  0
LINE
  5
43F
  8
0
  6
CONTINUOUS
 62
     8
 10
3124.3322819298
 20
2210.2654864663
 30
0.0
 11
3126.2133906093
 21
2201.0064552422
 31
0.0
  0
LINE
  5
440
  8
0
  6
CONTINUOUS
 62
     8
 10
3138.3893095794
 20
2141.074893133
 30
0.0
 11
3160.2724064049
 21
2033.3633762657
 31
0.0
  0
LINE
  5
441
  8
0
  6
CONTINUOUS
 62
     8
 10
3011.7799817235
 20
1865.9864442256
 30
0.0
 11
3160.2724064049
 21
1951.7092963319
 31
0.0
  0
LINE
  5
442
  8
0
  6
CONTINUOUS
 62
     8
 10
3014.2687346888
 20
2763.9908245508
 30
0.0
 11
3022.052875653
 21
2725.6762687239
 31
0.0
  0
LINE
  5
443
  8
0
  6
CONTINUOUS
 62
     8
 10
3042.395942439
 20
2625.5449562394
 30
0.0
 11
3044.4256556379
 21
2615.5544522348
 31
0.0
  0
LINE
  5
444
  8
0
  6
CONTINUOUS
 62
     8
 10
3056.5761653267
 20
2555.747976488
 30
0.0
 11
3106.6228083883
 21
2309.4117072556
 31
0.0
  0
LINE
  5
445
  8
0
  6
CONTINUOUS
 62
     8
 10
3126.9658699059
 20
2209.2804160645
 30
0.0
 11
3128.9955883732
 21
2199.2898907665
 31
0.0
  0
LINE
  5
446
  8
0
  6
CONTINUOUS
 62
     8
 10
3141.1461033304
 20
2139.4834423958
 30
0.0
 11
3160.1507916735
 21
2045.9398200439
 31
0.0
  0
LINE
  5
447
  8
0
  6
CONTINUOUS
 62
     8
 10
3161.4744977447
 20
1949.6272244691
 30
0.0
 11
3011.7799922602
 21
1863.2104258862
 31
0.0
  0
LINE
  5
448
  8
0
  6
CONTINUOUS
 62
     8
 10
2986.7484120874
 20
1847.7805380477
 30
0.0
 11
2986.7484120874
 21
1847.7801532175
 31
0.0
  0
LINE
  5
449
  8
0
  6
CONTINUOUS
 62
     8
 10
3535.533991811
 20
2431.6175335829
 30
0.0
 11
3536.3825132386
 21
2431.1276925893
 31
0.0
  0
LINE
  5
44A
  8
0
  6
CONTINUOUS
 62
     8
 10
3532.2812908318
 20
2431.1276943951
 30
0.0
 11
3533.1298190095
 21
2431.6175392855
 31
0.0
  0
LINE
  5
44B
  8
0
  6
CONTINUOUS
 62
     8
 10
3532.2812908318
 20
2431.1276943951
 30
0.0
 11
3532.2812908318
 21
1532.8511106099
 31
0.0
  0
LINE
  5
44C
  8
0
  6
CONTINUOUS
 62
     8
 10
3536.3825132386
 20
2431.1276925893
 30
0.0
 11
3536.3825132386
 21
1532.8511088041
 31
0.0
  0
LINE
  5
44D
  8
0
  6
CONTINUOUS
 62
     8
 10
3536.3825132386
 20
1532.8511088041
 30
0.0
 11
3711.1085988959
 21
1633.7183310349
 31
0.0
  0
LINE
  5
44E
  8
0
  6
CONTINUOUS
 62
     8
 10
3562.6161742145
 20
2446.2720627137
 30
0.0
 11
3711.1085988959
 21
1715.3724109687
 31
0.0
  0
LINE
  5
44F
  8
0
  6
CONTINUOUS
 62
     8
 10
3561.8522230726
 20
2447.8776053659
 30
0.0
 11
3562.038172334
 21
2446.9623054283
 31
0.0
  0
LINE
  5
450
  8
0
  6
CONTINUOUS
 62
     8
 10
3534.3319004712
 20
1532.3607680171
 30
0.0
 11
3534.3319004712
 21
1531.6669340327
 31
0.0
  0
ENDSEC
  0
EOF
