  0
SECTION
  2
HEADER
  9
$ACADVER
  1
AC1009
  9
$DWGCODEPAGE
  3
ansi_932
  9
$INSBASE
 10
0.0
 20
0.0
 30
0.0
  9
$EXTMIN
 10
-4650.414490961257
 20
-3375.333333333352
 30
0.0
  9
$EXTMAX
 10
4764.828981922488
 20
3354.66666666665
 30
0.0
  9
$LIMMIN
 10
-1680.0
 20
-1188.0
  9
$LIMMAX
 10
1680.0
 20
1188.0
  9
$ORTHOMODE
 70
     0
  9
$REGENMODE
 70
     1
  9
$FILLMODE
 70
     1
  9
$QTEXTMODE
 70
     0
  9
$MIRRTEXT
 70
     1
  9
$DRAGMODE
 70
     2
  9
$LTSCALE
 40
2.0
  9
$OSMODE
 70
    37
  9
$ATTMODE
 70
     1
  9
$TEXTSIZE
 40
0.2
  9
$TRACEWID
 40
0.05
  9
$TEXTSTYLE
  7
STANDARD
  9
$CLAYER
  8
0
  9
$CELTYPE
  6
BYLAYER
  9
$CECOLOR
 62
   256
  9
$DIMSCALE
 40
1.0
  9
$DIMASZ
 40
24.00180816650391
  9
$DIMEXO
 40
1.0
  9
$DIMDLI
 40
10.0
  9
$DIMRND
 40
0.0
  9
$DIMDLE
 40
0.0
  9
$DIMEXE
 40
1.0
  9
$DIMTP
 40
0.0
  9
$DIMTM
 40
0.0
  9
$DIMTXT
 40
32.0
  9
$DIMCEN
 40
0.0
  9
$DIMTSZ
 40
0.0
  9
$DIMTOL
 70
     0
  9
$DIMLIM
 70
     0
  9
$DIMTIH
 70
     0
  9
$DIMTOH
 70
     0
  9
$DIMSE1
 70
     0
  9
$DIMSE2
 70
     0
  9
$DIMTAD
 70
     1
  9
$DIMZIN
 70
     8
  9
$DIMBLK
  1

  9
$DIMASO
 70
     1
  9
$DIMSHO
 70
     1
  9
$DIMPOST
  1

  9
$DIMAPOST
  1

  9
$DIMALT
 70
     0
  9
$DIMALTD
 70
     2
  9
$DIMALTF
 40
25.4
  9
$DIMLFAC
 40
1.0
  9
$DIMTOFL
 70
     0
  9
$DIMTVP
 40
0.0
  9
$DIMTIX
 70
     0
  9
$DIMSOXD
 70
     0
  9
$DIMSAH
 70
     0
  9
$DIMBLK1
  1

  9
$DIMBLK2
  1

  9
$DIMSTYLE
  2
STANDARD
  9
$DIMCLRD
 70
     0
  9
$DIMCLRE
 70
     0
  9
$DIMCLRT
 70
     0
  9
$DIMTFAC
 40
0.65
  9
$DIMGAP
 40
0.09
  9
$LUNITS
 70
     2
  9
$LUPREC
 70
     4
  9
$SKETCHINC
 40
0.1
  9
$FILLETRAD
 40
0.5
  9
$AUNITS
 70
     0
  9
$AUPREC
 70
     0
  9
$MENU
  1
.
  9
$ELEVATION
 40
0.0
  9
$PELEVATION
 40
0.0
  9
$THICKNESS
 40
0.0
  9
$LIMCHECK
 70
     0
  9
$CHAMFERA
 40
0.0
  9
$CHAMFERB
 40
0.0
  9
$SKPOLY
 70
     0
  9
$TDCREATE
 40
2459031.556116389
  9
$TDUPDATE
 40
2459031.556116759
  9
$TDINDWG
 40
0.0000000116
  9
$TDUSRTIMER
 40
0.0000000116
  9
$USRTIMER
 70
     1
  9
$ANGBASE
 50
0.0
  9
$ANGDIR
 70
     0
  9
$PDMODE
 70
     0
  9
$PDSIZE
 40
1.0
  9
$PLINEWID
 40
0.0
  9
$COORDS
 70
     1
  9
$SPLFRAME
 70
     0
  9
$SPLINETYPE
 70
     6
  9
$SPLINESEGS
 70
     8
  9
$ATTDIA
 70
     0
  9
$ATTREQ
 70
     1
  9
$HANDLING
 70
     1
  9
$HANDSEED
  5
7AD
  9
$SURFTAB1
 70
     6
  9
$SURFTAB2
 70
     6
  9
$SURFTYPE
 70
     6
  9
$SURFU
 70
     6
  9
$SURFV
 70
     6
  9
$UCSNAME
  2

  9
$UCSORG
 10
0.0
 20
0.0
 30
0.0
  9
$UCSXDIR
 10
1.0
 20
0.0
 30
0.0
  9
$UCSYDIR
 10
0.0
 20
1.0
 30
0.0
  9
$PUCSNAME
  2

  9
$PUCSORG
 10
0.0
 20
0.0
 30
0.0
  9
$PUCSXDIR
 10
1.0
 20
0.0
 30
0.0
  9
$PUCSYDIR
 10
0.0
 20
1.0
 30
0.0
  9
$USERI1
 70
     0
  9
$USERI2
 70
     0
  9
$USERI3
 70
     0
  9
$USERI4
 70
     0
  9
$USERI5
 70
     0
  9
$USERR1
 40
0.0
  9
$USERR2
 40
0.0
  9
$USERR3
 40
0.0
  9
$USERR4
 40
0.0
  9
$USERR5
 40
0.0
  9
$WORLDVIEW
 70
     1
  9
$SHADEDGE
 70
     3
  9
$SHADEDIF
 70
    70
  9
$TILEMODE
 70
     1
  9
$MAXACTVP
 70
    64
  9
$PLIMCHECK
 70
     0
  9
$PEXTMIN
 10
1.000000000000000E+20
 20
1.000000000000000E+20
 30
1.000000000000000E+20
  9
$PEXTMAX
 10
-1.000000000000000E+20
 20
-1.000000000000000E+20
 30
-1.000000000000000E+20
  9
$PLIMMIN
 10
0.0
 20
0.0
  9
$PLIMMAX
 10
12.0
 20
9.0
  9
$UNITMODE
 70
     0
  9
$VISRETAIN
 70
     0
  9
$PLINEGEN
 70
     1
  9
$PSLTSCALE
 70
     0
  0
ENDSEC
  0
SECTION
  2
TABLES
  0
TABLE
  2
VPORT
 70
     1
  0
VPORT
  2
*ACTIVE
 70
     0
 10
0.0
 20
0.0
 11
1.0
 21
1.0
 12
68.007245480616
 22
-10.33333333335122
 13
0.0
 23
0.0
 14
0.5
 24
0.5
 15
0.5
 25
0.5
 16
0.0
 26
0.0
 36
1.0
 17
0.0
 27
0.0
 37
0.0
 40
2288.200000000001
 41
1.408624587352711
 42
50.0
 43
0.0
 44
0.0
 50
0.0
 51
0.0
 71
     0
 72
  1000
 73
     1
 74
     1
 75
     0
 76
     0
 77
     0
 78
     0
  0
ENDTAB
  0
TABLE
  2
LTYPE
 70
    67
  0
LTYPE
  2
CONTINUOUS
 70
     0
  3
Solid line
 72
    65
 73
     0
 40
0.0
  0
LTYPE
  2
HIDDENX2
 70
     0
  3
Hidden (2x) ____ ____ ____ ____ ____ ____ ____ 
 72
    65
 73
     2
 40
19.05
 49
12.7
 49
-6.35
  0
LTYPE
  2
HIDDEN
 70
     0
  3
Hidden __ __ __ __ __ __ __ __ __ __ __ __ __ __
 72
    65
 73
     2
 40
9.524999999999999
 49
6.35
 49
-3.175
  0
LTYPE
  2
HIDDEN2
 70
     0
  3
Hidden (.5x) _ _ _ _ _ _ _ _ _ _ _ _ _ _ _ _ _ 
 72
    65
 73
     2
 40
4.762499999999999
 49
3.175
 49
-1.5875
  0
LTYPE
  2
DASHED
 70
     0
  3
Dashed __ __ __ __ __ __ __ __ __ __ __ __ __ _
 72
    65
 73
     2
 40
19.05
 49
12.7
 49
-6.35
  0
LTYPE
  2
DASHED2
 70
     0
  3
Dashed (.5x) _ _ _ _ _ _ _ _ _ _ _ _ _ _ _ _ _ 
 72
    65
 73
     2
 40
9.524999999999999
 49
6.35
 49
-3.175
  0
LTYPE
  2
DASHEDX2
 70
     0
  3
Dashed (2x) ____  ____  ____  ____  ____  ___
 72
    65
 73
     2
 40
38.09999999999999
 49
25.4
 49
-12.7
  0
LTYPE
  2
DOTX2
 70
     0
  3
Dot (2x) .  .  .  .  .  .  .  .  .  .  .  .  .  .
 72
    65
 73
     2
 40
12.7
 49
0.0
 49
-12.7
  0
LTYPE
  2
DOT
 70
     0
  3
Dot . . . . . . . . . . . . . . . . . . . . . . . .
 72
    65
 73
     2
 40
6.35
 49
0.0
 49
-6.35
  0
LTYPE
  2
DOT2
 70
     0
  3
Dot (.5x) ........................................
 72
    65
 73
     2
 40
3.175
 49
0.0
 49
-3.175
  0
LTYPE
  2
CENTERX2
 70
     0
  3
Center (2x) ________  __  ________  __  _____
 72
    65
 73
     4
 40
101.6
 49
63.5
 49
-12.7
 49
12.7
 49
-12.7
  0
LTYPE
  2
CENTER
 70
     0
  3
Center ____ _ ____ _ ____ _ ____ _ ____ _ ____
 72
    65
 73
     4
 40
50.8
 49
31.75
 49
-6.35
 49
6.35
 49
-6.35
  0
LTYPE
  2
CENTER2
 70
     0
  3
Center (.5x) ___ _ ___ _ ___ _ ___ _ ___ _ ___
 72
    65
 73
     4
 40
28.575
 49
19.05
 49
-3.175
 49
3.175
 49
-3.175
  0
LTYPE
  2
DASHDOTX2
 70
     0
  3
Dash dot (2x) ____  .  ____  .  ____  .  ___
 72
    65
 73
     4
 40
50.8
 49
25.4
 49
-12.7
 49
0.0
 49
-12.7
  0
LTYPE
  2
DASHDOT
 70
     0
  3
Dash dot __ . __ . __ . __ . __ . __ . __ . __
 72
    65
 73
     4
 40
25.4
 49
12.7
 49
-6.35
 49
0.0
 49
-6.35
  0
LTYPE
  2
DASHDOT2
 70
     0
  3
Dash dot (.5x) _._._._._._._._._._._._._._._.
 72
    65
 73
     4
 40
12.7
 49
6.35
 49
-3.175
 49
0.0
 49
-3.175
  0
LTYPE
  2
DIVIDEX2
 70
     0
  3
Divide (2x) ________  .  .  ________  .  .  _
 72
    65
 73
     6
 40
63.5
 49
25.4
 49
-12.7
 49
0.0
 49
-12.7
 49
0.0
 49
-12.7
  0
LTYPE
  2
DIVIDE
 70
     0
  3
Divide ____ . . ____ . . ____ . . ____ . . ____
 72
    65
 73
     6
 40
31.75
 49
12.7
 49
-6.35
 49
0.0
 49
-6.35
 49
0.0
 49
-6.35
  0
LTYPE
  2
DIVIDE2
 70
     0
  3
Divide (.5x) __..__..__..__..__..__..__..__.._
 72
    65
 73
     6
 40
15.875
 49
6.35
 49
-3.175
 49
0.0
 49
-3.175
 49
0.0
 49
-3.175
  0
LTYPE
  2
BORDERX2
 70
     0
  3
Border (2x) ____  ____  .  ____  ____  .  ___
 72
    65
 73
     6
 40
88.89999999999999
 49
25.4
 49
-12.7
 49
25.4
 49
-12.7
 49
0.0
 49
-12.7
  0
LTYPE
  2
BORDER
 70
     0
  3
Border __ __ . __ __ . __ __ . __ __ . __ __ .
 72
    65
 73
     6
 40
44.45
 49
12.7
 49
-6.35
 49
12.7
 49
-6.35
 49
0.0
 49
-6.35
  0
LTYPE
  2
BORDER2
 70
     0
  3
Border (.5x) __.__.__.__.__.__.__.__.__.__.__.
 72
    65
 73
     6
 40
22.225
 49
6.35
 49
-3.175
 49
6.35
 49
-3.175
 49
0.0
 49
-3.175
  0
LTYPE
  2
PHANTOMX2
 70
     0
  3
Phantom (2x) ____________    ____    ____   _
 72
    65
 73
     6
 40
127.0
 49
63.5
 49
-12.7
 49
12.7
 49
-12.7
 49
12.7
 49
-12.7
  0
LTYPE
  2
PHANTOM
 70
     0
  3
Phantom ______  __  __  ______  __  __  ______ 
 72
    65
 73
     6
 40
63.5
 49
31.75
 49
-6.35
 49
6.35
 49
-6.35
 49
6.35
 49
-6.35
  0
LTYPE
  2
PHANTOM2
 70
     0
  3
Phantom (.5x) ___ _ _ ___ _ _ ___ _ _ ___ _ _
 72
    65
 73
     6
 40
31.75
 49
15.875
 49
-3.175
 49
3.175
 49
-3.175
 49
3.175
 49
-3.175
  0
LTYPE
  2
ACAD_ISO06W100
 70
     0
  3
ISO long-dash triple-dot ____ ... ____ ... ____
 72
    65
 73
     8
 40
36.0
 49
24.0
 49
-3.0
 49
0.0
 49
-3.0
 49
0.0
 49
-3.0
 49
0.0
 49
-3.0
  0
LTYPE
  2
ACAD_ISO13W100
 70
     0
  3
ISO double-dash double-dot __ __ . . __ __ . . _
 72
    65
 73
     8
 40
36.0
 49
12.0
 49
-3.0
 49
12.0
 49
-3.0
 49
0.0
 49
-3.0
 49
0.0
 49
-3.0
  0
LTYPE
  2
ACAD_ISO14W100
 70
     0
  3
ISO dash triple-dot __ . . . __ . . . __ . . . _
 72
    65
 73
     8
 40
24.0
 49
12.0
 49
-3.0
 49
0.0
 49
-3.0
 49
0.0
 49
-3.0
 49
0.0
 49
-3.0
  0
LTYPE
  2
ACAD_ISO02W100
 70
     0
  3
ISO dash __ __ __ __ __ __ __ __ __ __ __ __ __
 72
    65
 73
     2
 40
15.0
 49
12.0
 49
-3.0
  0
LTYPE
  2
ACAD_ISO03W100
 70
     0
  3
ISO dash space __    __    __    __    __    __
 72
    65
 73
     2
 40
30.0
 49
12.0
 49
-18.0
  0
LTYPE
  2
ACAD_ISO04W100
 70
     0
  3
ISO long-dash dot ____ . ____ . ____ . ____ . _
 72
    65
 73
     4
 40
30.0
 49
24.0
 49
-3.0
 49
0.0
 49
-3.0
  0
LTYPE
  2
ACAD_ISO05W100
 70
     0
  3
ISO long-dash double-dot ____ .. ____ .. ____ . 
 72
    65
 73
     6
 40
33.0
 49
24.0
 49
-3.0
 49
0.0
 49
-3.0
 49
0.0
 49
-3.0
  0
LTYPE
  2
ACAD_ISO07W100
 70
     0
  3
ISO dot . . . . . . . . . . . . . . . . . . . . 
 72
    65
 73
     2
 40
3.0
 49
0.0
 49
-3.0
  0
LTYPE
  2
ACAD_ISO08W100
 70
     0
  3
ISO long-dash short-dash ____ __ ____ __ ____ _
 72
    65
 73
     4
 40
36.0
 49
24.0
 49
-3.0
 49
6.0
 49
-3.0
  0
LTYPE
  2
ACAD_ISO09W100
 70
     0
  3
ISO long-dash double-short-dash ____ __ __ ____
 72
    65
 73
     6
 40
45.0
 49
24.0
 49
-3.0
 49
6.0
 49
-3.0
 49
6.0
 49
-3.0
  0
LTYPE
  2
ACAD_ISO10W100
 70
     0
  3
ISO dash dot __ . __ . __ . __ . __ . __ . __ . 
 72
    65
 73
     4
 40
18.0
 49
12.0
 49
-3.0
 49
0.0
 49
-3.0
  0
LTYPE
  2
ACAD_ISO11W100
 70
     0
  3
ISO double-dash dot __ __ . __ __ . __ __ . __ _
 72
    65
 73
     6
 40
33.0
 49
12.0
 49
-3.0
 49
12.0
 49
-3.0
 49
0.0
 49
-3.0
  0
LTYPE
  2
ACAD_ISO12W100
 70
     0
  3
ISO dash double-dot __ . . __ . . __ . . __ . . 
 72
    65
 73
     6
 40
21.0
 49
12.0
 49
-3.0
 49
0.0
 49
-3.0
 49
0.0
 49
-3.0
  0
LTYPE
  2
ACAD_ISO15W100
 70
     0
  3
ISO double-dash triple-dot __ __ . . . __ __ . .
 72
    65
 73
    10
 40
39.0
 49
12.0
 49
-3.0
 49
12.0
 49
-3.0
 49
0.0
 49
-3.0
 49
0.0
 49
-3.0
 49
0.0
 49
-3.0
  0
LTYPE
  2
JIS_02_0_7
 70
     0
  3
HIDDEN0.75 _ _ _ _ _ _ _ _ _ _ _ _ _ _ _ _ _ 
 72
    65
 73
     2
 40
1.35
 49
0.75
 49
-0.6
  0
LTYPE
  2
JIS_02_1_0
 70
     0
  3
HIDDEN01 _ _ _ _ _ _ _ _ _ _ _ _ _ _ _ _ _ 
 72
    65
 73
     2
 40
2.0
 49
1.0
 49
-1.0
  0
LTYPE
  2
JIS_02_1_2
 70
     0
  3
HIDDEN01.25  _ _ _ _ _ _ _ _ _ _ _ _ _ _ _ _ _ 
 72
    65
 73
     2
 40
2.5
 49
1.25
 49
-1.25
  0
LTYPE
  2
JIS_02_2_0
 70
     0
  3
HIDDEN02 __ __ __ __ __ __ __ __ __ __ __ 
 72
    65
 73
     2
 40
3.0
 49
2.0
 49
-1.0
  0
LTYPE
  2
JIS_02_4_0
 70
     0
  3
HIDDEN04 ____ ____ ____ ____ ____ ____ ____ 
 72
    65
 73
     2
 40
5.5
 49
4.0
 49
-1.5
  0
LTYPE
  2
JIS_08_11
 70
     0
  3
1SASEN11 ___ _ ___ _ ___ _ ___ _ ___ _ ___
 72
    65
 73
     4
 40
12.8
 49
11.0
 49
-0.6
 49
0.6
 49
-0.6
  0
LTYPE
  2
JIS_08_15
 70
     0
  3
1SASEN15 ____ _ ____ _ ____ _ ____ _ ____ 
 72
    65
 73
     4
 40
17.25
 49
15.0
 49
-0.75
 49
0.75
 49
-0.75
  0
LTYPE
  2
JIS_08_25
 70
     0
  3
1SASEN25 ________  __  ________  __  _____
 72
    65
 73
     4
 40
28.0
 49
25.0
 49
-1.125
 49
0.75
 49
-1.125
  0
LTYPE
  2
JIS_08_37
 70
     0
  3
1SASEN37 ________  __  ________  __  _____
 72
    65
 73
     4
 40
40.5
 49
37.5
 49
-1.125
 49
0.75
 49
-1.125
  0
LTYPE
  2
JIS_08_50
 70
     0
  3
1SASEN50 _______________  __  ____________
 72
    65
 73
     4
 40
53.0
 49
50.0
 49
-1.125
 49
0.75
 49
-1.125
  0
LTYPE
  2
JIS_09_08
 70
     0
  3
2SASEN8 __ _ _ __ _ _ __ _ _ __ _ _ __ _ _ 
 72
    65
 73
     6
 40
10.75
 49
8.0
 49
-0.55
 49
0.55
 49
-0.55
 49
0.55
 49
-0.55
  0
LTYPE
  2
JIS_09_15
 70
     0
  3
2SASEN15 ___ _ _ ___ _ _ ___ _ _ ___ _ _ ___ 
 72
    65
 73
     6
 40
18.9
 49
15.0
 49
-0.9
 49
0.6
 49
-0.9
 49
0.6
 49
-0.9
  0
LTYPE
  2
JIS_09_29
 70
     0
  3
2SASEN29 ______　__  __  ______　__  __  ___
 72
    65
 73
     6
 40
34.0
 49
29.0
 49
-1.2
 49
0.7
 49
-1.2
 49
0.7
 49
-1.2
  0
LTYPE
  2
JIS_09_50
 70
     0
  3
2SASEN50 ____________　__  __  _____________
 72
    65
 73
     6
 40
55.0
 49
50.0
 49
-1.2
 49
0.7
 49
-1.2
 49
0.7
 49
-1.2
  0
LTYPE
  2
SXF_破線
 70
     0
  3
02 dashed -- -- -- -- -- --
 72
    65
 73
     2
 40
7.5
 49
6.0
 49
-1.5
  0
LTYPE
  2
SXF_跳び破線
 70
     0
  3
03 dashed_spaced --  --  --  --
 72
    65
 73
     2
 40
12.0
 49
6.0
 49
-6.0
  0
LTYPE
  2
SXF_一点長鎖線
 70
     0
  3
04 long_dashed_dotted ---- . ---- . ----
 72
    65
 73
     4
 40
15.25
 49
12.0
 49
-1.5
 49
0.25
 49
-1.5
  0
LTYPE
  2
SXF_二点長鎖線
 70
     0
  3
05 long_dashed_double-dotted ---- . . ---- 
 72
    65
 73
     6
 40
17.0
 49
12.0
 49
-1.5
 49
0.25
 49
-1.5
 49
0.25
 49
-1.5
  0
LTYPE
  2
SXF_三点長鎖線
 70
     0
  3
06 long_dashed_triplicate-dotted ---- ... ---- 
 72
    65
 73
     8
 40
18.75
 49
12.0
 49
-1.5
 49
0.25
 49
-1.5
 49
0.25
 49
-1.5
 49
0.25
 49
-1.5
  0
LTYPE
  2
SXF_点線
 70
     0
  3
07 dotted . . . . . . . . . . . . 
 72
    65
 73
     2
 40
1.75
 49
0.25
 49
-1.5
  0
LTYPE
  2
SXF_一点鎖線
 70
     0
  3
08 chain ---- - --- - --- - ---
 72
    65
 73
     4
 40
18.5
 49
12.0
 49
-1.5
 49
3.5
 49
-1.5
  0
LTYPE
  2
SXF_二点鎖線
 70
     0
  3
09 chain_double_dash ---- - - ---- - - ----
 72
    65
 73
     6
 40
23.5
 49
12.0
 49
-1.5
 49
3.5
 49
-1.5
 49
3.5
 49
-1.5
  0
LTYPE
  2
SXF_一点短鎖線
 70
     0
  3
10 dashed_dotted -- . -- . -- . --
 72
    65
 73
     4
 40
9.25
 49
6.0
 49
-1.5
 49
0.25
 49
-1.5
  0
LTYPE
  2
SXF_一点二短鎖線
 70
     0
  3
11 double-dashed_dotted -- -- . -- --
 72
    65
 73
     6
 40
16.75
 49
6.0
 49
-1.5
 49
6.0
 49
-1.5
 49
0.25
 49
-1.5
  0
LTYPE
  2
SXF_二点短鎖線
 70
     0
  3
12 dashed_double_dotted -- . . -- . . --
 72
    65
 73
     6
 40
11.0
 49
6.0
 49
-1.5
 49
0.25
 49
-1.5
 49
0.25
 49
-1.5
  0
LTYPE
  2
SXF_二点二短鎖線
 70
     0
  3
13 double-dashed_double-dotted -- -- . . -- --
 72
    65
 73
     8
 40
18.5
 49
6.0
 49
-1.5
 49
6.0
 49
-1.5
 49
0.25
 49
-1.5
 49
0.25
 49
-1.5
  0
LTYPE
  2
SXF_三点短鎖線
 70
     0
  3
14 dashed triplicate-dotted -- . . . -- . . . --
 72
    65
 73
     8
 40
12.75
 49
6.0
 49
-1.5
 49
0.25
 49
-1.5
 49
0.25
 49
-1.5
 49
0.25
 49
-1.5
  0
LTYPE
  2
SXF_三点二短鎖線
 70
     0
  3
15 double-dashed triplicate-dotted -- -- . . . -- -- 
 72
    65
 73
    10
 40
20.25
 49
6.0
 49
-1.5
 49
6.0
 49
-1.5
 49
0.25
 49
-1.5
 49
0.25
 49
-1.5
 49
0.25
 49
-1.5
  0
ENDTAB
  0
TABLE
  2
LAYER
 70
     5
  0
LAYER
  2
0
 70
     0
 62
     7
  6
CONTINUOUS
  0
LAYER
  2
LAYER0001
 70
     0
 62
     7
  6
CONTINUOUS
  0
LAYER
  2
LAYER0006
 70
     0
 62
     7
  6
CONTINUOUS
  0
LAYER
  2
LAYER0013
 70
     0
 62
     7
  6
CONTINUOUS
  0
LAYER
  2
ZUWAKU
 70
     0
 62
     7
  6
CONTINUOUS
  0
ENDTAB
  0
TABLE
  2
STYLE
 70
     2
  0
STYLE
  2
STANDARD
 70
     0
 40
0.0
 41
1.0
 50
0.0
 71
     0
 42
0.2
  3
txt.shx
  4
bigfont.shx
  0
STYLE
  2
DCSTYLE0
 70
     0
 40
0.0
 41
0.7999999999999987
 50
0.0
 71
     0
 42
0.2
  3
txt.shx
  4
bigfont
  0
ENDTAB
  0
TABLE
  2
VIEW
 70
     0
  0
ENDTAB
  0
TABLE
  2
UCS
 70
     0
  0
ENDTAB
  0
TABLE
  2
APPID
 70
     2
  0
APPID
  2
ACAD
 70
     0
  0
APPID
  2
DAFUSIONOUT
 70
     0
  0
ENDTAB
  0
TABLE
  2
DIMSTYLE
 70
     3
  0
DIMSTYLE
  2
STANDARD
 70
     0
  3

  4

  5

  6

  7

 40
1.0
 41
0.18
 42
0.0625
 43
0.38
 44
0.18
 45
0.0
 46
0.0
 47
0.0
 48
0.0
140
0.18
141
0.09
142
0.0
143
25.4
144
1.0
145
0.0
146
1.0
147
0.09
 71
     0
 72
     0
 73
     1
 74
     1
 75
     0
 76
     0
 77
     0
 78
     0
170
     0
171
     2
172
     0
173
     0
174
     0
175
     0
176
     0
177
     0
178
     0
  0
DIMSTYLE
  2
DC_ROTATED
 70
     0
  3

  4

  5

  6
OPEN30
  7
OPEN30
 40
1.0
 41
24.00180816650391
 42
8.0
 43
0.38
 44
5.0
 45
0.0
 46
0.0
 47
0.0
 48
0.0
140
24.0
141
0.09
142
0.0
143
25.4
144
1.0
145
0.0
146
1.0
147
2.5
 71
     0
 72
     0
 73
     0
 74
     0
 75
     0
 76
     0
 77
     3
 78
     8
170
     0
171
     2
172
     1
173
     1
174
     0
175
     0
176
     4
177
     9
178
     4
  0
DIMSTYLE
  2
DC_RADIAL06
 70
     0
  3

  4

  5

  6
OPEN30
  7
OPEN30
 40
1.0
 41
24.00180816650391
 42
8.0
 43
0.38
 44
5.0
 45
0.0
 46
0.0
 47
0.0
 48
0.0
140
28.0
141
0.09
142
0.0
143
25.4
144
1.0
145
0.0
146
1.0
147
8.0
 71
     0
 72
     0
 73
     1
 74
     1
 75
     0
 76
     0
 77
     2
 78
     8
170
     0
171
     2
172
     0
173
     1
174
     0
175
     0
176
     4
177
     9
178
     4
  0
ENDTAB
  0
ENDSEC
  0
SECTION
  2
BLOCKS
  0
BLOCK
  8
0
  2
$MODEL_SPACE
 70
     0
 10
0.0
 20
0.0
 30
0.0
  3
$MODEL_SPACE
  1

  0
ENDBLK
  5
21
  8
0
  0
BLOCK
 67
     1
  8
0
  2
$PAPER_SPACE
 70
     0
 10
0.0
 20
0.0
 30
0.0
  3
$PAPER_SPACE
  1

  0
ENDBLK
  5
1D
 67
     1
  8
0
  0
BLOCK
  8
0
  2
*D1
 70
     1
 10
0.0
 20
0.0
 30
0.0
  3
*D1
  1

  0
LINE
  5
FA
  8
0
  6
CONTINUOUS
 62
     4
 10
-1093.951881807909
 20
-682.241759919153
 30
0.0
 11
-948.9518818079091
 21
-682.241759919153
 31
0.0
  0
INSERT
  5
101
  8
0
 62
     4
  2
_OPEN30
 10
-1093.951881807909
 20
-682.241759919153
 30
0.0
 41
24.0018442714354
 42
24.00130528403405
 50
180.0
  0
INSERT
  5
102
  8
0
 62
     4
  2
_OPEN30
 10
-948.9518818079091
 20
-682.241759919153
 30
0.0
 41
24.0018442714354
 42
24.00130528403405
 50
360.0
  0
TEXT
  5
104
  8
0
 62
     4
 10
-1050.251881807909
 20
-679.741759919153
 30
0.0
 40
24.0
  1
145
 41
0.8842105263157881
  7
DCSTYLE0
 72
     5
 11
-992.6518818079091
 21
-679.741759919153
 31
0.0
  0
LINE
  5
105
  8
0
  6
CONTINUOUS
 62
     9
 10
-1093.951881807909
 20
-563.2208759414888
 30
0.0
 11
-1093.951881807909
 21
-687.241759919153
 31
0.0
  0
LINE
  5
106
  8
0
  6
CONTINUOUS
 62
     9
 10
-948.9518818079091
 20
-563.2208759414888
 30
0.0
 11
-948.9518818079091
 21
-687.241759919153
 31
0.0
  0
ENDBLK
  5
B4
  8
0
  0
BLOCK
  8
0
  2
*D2
 70
     1
 10
0.0
 20
0.0
 30
0.0
  3
*D2
  1

  0
LINE
  5
107
  8
0
  6
CONTINUOUS
 62
     4
 10
-1045.751881807908
 20
286.317885752452
 30
0.0
 11
142.3481181920938
 21
286.317885752452
 31
0.0
  0
INSERT
  5
108
  8
0
 62
     4
  2
_OPEN30
 10
-1045.751881807908
 20
286.317885752452
 30
0.0
 41
24.0018442714354
 42
24.00130528403405
 50
180.0
  0
INSERT
  5
109
  8
0
 62
     4
  2
_OPEN30
 10
142.3481181920938
 20
286.317885752452
 30
0.0
 41
24.0018442714354
 42
24.00130528403405
 50
360.0
  0
TEXT
  5
10A
  8
0
 62
    30
 10
-599.7018818079073
 20
294.317885752452
 30
0.0
 40
40.0
  1
1188.1
 41
0.998019801980198
  7
DCSTYLE0
 72
     5
 11
-407.7018818079073
 21
294.317885752452
 31
0.0
  0
TEXT
  5
10B
  8
0
 62
    30
 10
-399.7018818079073
 20
294.317885752452
 30
0.0
 40
40.0
  1
　±2
 41
0.8262295081967214
  7
DCSTYLE0
 72
     5
 11
-303.7018818079073
 21
294.317885752452
 31
0.0
  0
LINE
  5
10C
  8
0
  6
CONTINUOUS
 62
     9
 10
-1045.751881807908
 20
-24.52087594148844
 30
0.0
 11
-1045.751881807908
 21
294.317885752452
 31
0.0
  0
LINE
  5
10D
  8
0
  6
CONTINUOUS
 62
     9
 10
142.3481181920938
 20
-24.52087594148844
 30
0.0
 11
142.3481181920938
 21
294.317885752452
 31
0.0
  0
ENDBLK
  5
B7
  8
0
  0
BLOCK
  8
0
  2
*D3
 70
     1
 10
0.0
 20
0.0
 30
0.0
  3
*D3
  1

  0
LINE
  5
10E
  8
0
  6
CONTINUOUS
 62
     9
 10
-26.9518818079091
 20
141.7791240585115
 30
0.0
 11
297.0436467416871
 21
141.7791240585115
 31
0.0
  0
LINE
  5
10F
  8
0
  6
CONTINUOUS
 62
     9
 10
219.9419818318961
 20
-558.2208759414888
 30
0.0
 11
297.0436467416871
 21
-558.2208759414888
 31
0.0
  0
LINE
  5
110
  8
0
  6
CONTINUOUS
 62
     4
 10
292.0436467416871
 20
-558.2208759414888
 30
0.0
 11
292.0436467416871
 21
141.7791240585115
 31
0.0
  0
INSERT
  5
111
  8
0
 62
     4
  2
_OPEN30
 10
292.0436467416871
 20
-558.2208759414888
 30
0.0
 41
24.0018442714354
 42
24.00130528403405
 50
270.0
  0
INSERT
  5
112
  8
0
 62
     4
  2
_OPEN30
 10
292.0436467416871
 20
141.7791240585115
 30
0.0
 41
24.0018442714354
 42
24.00130528403405
 50
90.0
  0
TEXT
  5
113
  8
0
 62
    30
 10
287.0436467416871
 20
-288.7208759414887
 30
0.0
 40
40.0
  1
700
 50
90.0
 41
0.8842105263157894
  7
DCSTYLE0
 72
     5
 11
287.0436467416871
 21
-192.7208759414887
 31
0.0
  0
TEXT
  5
114
  8
0
 62
    30
 10
287.0436467416871
 20
-205.7208759414887
 30
0.0
 40
40.0
  1
　±1
 50
90.0
 41
0.9163636363636365
  7
DCSTYLE0
 72
     5
 11
287.0436467416871
 21
-109.7208759414887
 31
0.0
  0
ENDBLK
  5
BA
  8
0
  0
BLOCK
  8
0
  2
DC_GROUP_1
 70
     0
 10
0.0
 20
0.0
 30
0.0
  3
DC_GROUP_1
  1

  0
LINE
  5
115
  8
0
  6
CENTER
 62
     7
 10
-966.4518818079091
 20
-526.3443457736665
 30
0.0
 11
-966.4518818079091
 21
-639.6788223759767
 31
0.0
  0
LINE
  5
116
  8
0
  6
CONTINUOUS
 62
     3
 10
-975.9518818079091
 20
-536.7208759414888
 30
0.0
 11
-956.9518818079091
 21
-536.7208759414888
 31
0.0
  0
LINE
  5
117
  8
0
  6
CONTINUOUS
 62
     3
 10
-956.9518818079091
 20
-536.7208759414888
 30
0.0
 11
-956.9518818079091
 21
-546.7208759414888
 31
0.0
  0
LINE
  5
118
  8
0
  6
CONTINUOUS
 62
     3
 10
-975.9518818079091
 20
-546.7208759414888
 30
0.0
 11
-975.9518818079091
 21
-536.7208759414888
 31
0.0
  0
LINE
  5
119
  8
0
  6
CONTINUOUS
 62
     3
 10
-966.4518818079091
 20
-546.7208759414888
 30
0.0
 11
-966.4518818079091
 21
-537.8467089664081
 31
0.0
  0
ARC
  5
11A
  8
0
  6
CONTINUOUS
 62
     3
 10
-961.7018818079091
 20
-547.1977785474281
 30
0.0
 40
10.48832695471864
 50
63.07110270695188
 51
116.9288972930481
  0
ARC
  5
11B
  8
0
  6
CONTINUOUS
 62
     3
 10
-971.2018818079091
 20
-547.1977785474281
 30
0.0
 40
10.48832695471864
 50
63.07110270695188
 51
116.9288972930481
  0
LINE
  5
11C
  8
0
  6
CONTINUOUS
 62
     3
 10
-977.2018818079091
 20
-546.7208759414888
 30
0.0
 11
-977.2018818079091
 21
-549.7208759414888
 31
0.0
  0
LINE
  5
11D
  8
0
  6
CONTINUOUS
 62
     3
 10
-955.7018818079091
 20
-549.7208759414888
 30
0.0
 11
-955.7018818079091
 21
-546.7208759414888
 31
0.0
  0
LINE
  5
11E
  8
0
  6
CONTINUOUS
 62
     3
 10
-977.2018818079091
 20
-546.7208759414888
 30
0.0
 11
-955.7018818079091
 21
-546.7208759414888
 31
0.0
  0
LINE
  5
11F
  8
0
  6
CONTINUOUS
 62
     3
 10
-966.4518818079091
 20
-546.7208759414888
 30
0.0
 11
-967.255729385201
 21
-549.7208759414888
 31
0.0
  0
LINE
  5
120
  8
0
  6
CONTINUOUS
 62
     3
 10
-965.6480342306136
 20
-546.7208759414888
 30
0.0
 11
-966.4518818079091
 21
-549.7208759414888
 31
0.0
  0
LINE
  5
121
  8
0
  6
CONTINUOUS
 62
     3
 10
-982.4518818079091
 20
-549.7208759414888
 30
0.0
 11
-982.4518818079091
 21
-552.2208759414888
 31
0.0
  0
LINE
  5
122
  8
0
  6
CONTINUOUS
 62
     3
 10
-982.4518818079091
 20
-552.2208759414888
 30
0.0
 11
-950.4518818079091
 21
-552.2208759414888
 31
0.0
  0
LINE
  5
123
  8
0
  6
CONTINUOUS
 62
     3
 10
-950.4518818079091
 20
-552.2208759414888
 30
0.0
 11
-950.4518818079091
 21
-549.7208759414888
 31
0.0
  0
LINE
  5
124
  8
0
  6
CONTINUOUS
 62
     3
 10
-982.4518818079091
 20
-549.7208759414888
 30
0.0
 11
-950.4518818079091
 21
-549.7208759414888
 31
0.0
  0
LINE
  5
125
  8
0
  6
CONTINUOUS
 62
     3
 10
-958.4518818079091
 20
-628.8835454312883
 30
0.0
 11
-958.4518818079091
 21
-631.8835454312883
 31
0.0
  0
LINE
  5
126
  8
0
  6
CONTINUOUS
 62
     3
 10
-974.4518818079091
 20
-628.8835454312883
 30
0.0
 11
-974.4518818079091
 21
-631.8835454312883
 31
0.0
  0
LINE
  5
127
  8
0
  6
CONTINUOUS
 62
     3
 10
-972.4518818079091
 20
-616.8835454312883
 30
0.0
 11
-974.4518818079091
 21
-628.8835454312883
 31
0.0
  0
LINE
  5
128
  8
0
  6
CONTINUOUS
 62
     3
 10
-972.4518818079091
 20
-616.8835454312883
 30
0.0
 11
-960.4518818079091
 21
-616.8835454312883
 31
0.0
  0
LINE
  5
129
  8
0
  6
CONTINUOUS
 62
     3
 10
-960.4518818079091
 20
-616.8835454312883
 30
0.0
 11
-958.4518818079091
 21
-628.8835454312883
 31
0.0
  0
LINE
  5
12A
  8
0
  6
CONTINUOUS
 62
     3
 10
-974.4518818079091
 20
-631.8835454312883
 30
0.0
 11
-958.4518818079091
 21
-631.8835454312883
 31
0.0
  0
LINE
  5
12B
  8
0
  6
CONTINUOUS
 62
     3
 10
-974.4518818079091
 20
-628.8835454312883
 30
0.0
 11
-958.4518818079091
 21
-628.8835454312883
 31
0.0
  0
LINE
  5
12C
  8
0
  6
CONTINUOUS
 62
     3
 10
-958.4518818079091
 20
-559.8835454312883
 30
0.0
 11
-958.4518818079091
 21
-616.8835454312883
 31
0.0
  0
LINE
  5
12D
  8
0
  6
CONTINUOUS
 62
     3
 10
-974.4518818079091
 20
-559.8835454312883
 30
0.0
 11
-974.4518818079091
 21
-616.8835454312883
 31
0.0
  0
LINE
  5
12E
  8
0
  6
CONTINUOUS
 62
     3
 10
-966.4518818079091
 20
-601.8835454312883
 30
0.0
 11
-963.4518818079091
 21
-596.8835454312883
 31
0.0
  0
LINE
  5
12F
  8
0
  6
CONTINUOUS
 62
     3
 10
-966.4518818079091
 20
-601.8835454312883
 30
0.0
 11
-969.4518818079091
 21
-596.8835454312883
 31
0.0
  0
ARC
  5
130
  8
0
  6
CONTINUOUS
 62
     3
 10
-966.4518818079091
 20
-596.8835454312883
 30
0.0
 40
3.0
 50
0.0000000000001191
 51
179.9999999999998
  0
LINE
  5
131
  8
0
  6
CONTINUOUS
 62
     3
 10
-974.4518818079091
 20
-559.8835454312883
 30
0.0
 11
-958.4518818079091
 21
-559.8835454312883
 31
0.0
  0
LINE
  5
132
  8
0
  6
CONTINUOUS
 62
     3
 10
-974.4518818079091
 20
-616.8835454312883
 30
0.0
 11
-958.4518818079091
 21
-616.8835454312883
 31
0.0
  0
LINE
  5
133
  8
0
  6
CONTINUOUS
 62
     3
 10
-966.4518818079091
 20
-601.8835454312883
 30
0.0
 11
-966.4518818079091
 21
-616.8835454312883
 31
0.0
  0
INSERT
  5
134
  8
0
  6
CONTINUOUS
  2
DC_GROUP_2
 10
0.0
 20
0.0
 30
0.0
  0
ENDBLK
  5
BD
  8
0
  0
BLOCK
  8
0
  2
DC_GROUP_2
 70
     0
 10
0.0
 20
0.0
 30
0.0
  3
DC_GROUP_2
  1

  0
LINE
  5
135
  8
0
  6
CONTINUOUS
 62
     3
 10
-971.504881807909
 20
-531.8835454312883
 30
0.0
 11
-961.3988818079092
 21
-531.8835454312883
 31
0.0
  0
LINE
  5
136
  8
0
  6
CONTINUOUS
 62
     3
 10
-971.504881807909
 20
-531.8835454312883
 30
0.0
 11
-972.4518818079091
 21
-532.8305454312884
 31
0.0
  0
LINE
  5
137
  8
0
  6
CONTINUOUS
 62
     3
 10
-961.3988818079092
 20
-531.8835454312883
 30
0.0
 11
-960.4518818079091
 21
-532.8305454312884
 31
0.0
  0
LINE
  5
138
  8
0
  6
CONTINUOUS
 62
     3
 10
-972.4518818079091
 20
-532.8305454312884
 30
0.0
 11
-960.4518818079091
 21
-532.8305454312884
 31
0.0
  0
LINE
  5
139
  8
0
  6
CONTINUOUS
 62
     3
 10
-960.4518818079091
 20
-559.8835454312883
 30
0.0
 11
-960.4518818079091
 21
-558.2208759414888
 31
0.0
  0
LINE
  5
13A
  8
0
  6
CONTINUOUS
 62
     3
 10
-960.4518818079091
 20
-536.784205562661
 30
0.0
 11
-960.4518818079091
 21
-532.8305454312884
 31
0.0
  0
LINE
  5
13B
  8
0
  6
CONTINUOUS
 62
     3
 10
-972.4518818079091
 20
-559.8835454312883
 30
0.0
 11
-972.4518818079091
 21
-558.2208759414888
 31
0.0
  0
LINE
  5
13C
  8
0
  6
CONTINUOUS
 62
     3
 10
-972.4518818079091
 20
-536.784205562661
 30
0.0
 11
-972.4518818079091
 21
-532.8305454312884
 31
0.0
  0
ENDBLK
  5
C0
  8
0
  0
BLOCK
  8
0
  2
DC_GROUP_3
 70
     0
 10
0.0
 20
0.0
 30
0.0
  3
DC_GROUP_3
  1

  0
LINE
  5
13D
  8
0
  6
CENTER
 62
     7
 10
-1076.451881807909
 20
-526.3443457736665
 30
0.0
 11
-1076.451881807909
 21
-639.6788223759767
 31
0.0
  0
LINE
  5
13E
  8
0
  6
CONTINUOUS
 62
     3
 10
-1085.951881807909
 20
-536.7208759414888
 30
0.0
 11
-1066.951881807909
 21
-536.7208759414888
 31
0.0
  0
LINE
  5
13F
  8
0
  6
CONTINUOUS
 62
     3
 10
-1066.951881807909
 20
-536.7208759414888
 30
0.0
 11
-1066.951881807909
 21
-546.7208759414888
 31
0.0
  0
LINE
  5
140
  8
0
  6
CONTINUOUS
 62
     3
 10
-1085.951881807909
 20
-546.7208759414888
 30
0.0
 11
-1085.951881807909
 21
-536.7208759414888
 31
0.0
  0
LINE
  5
141
  8
0
  6
CONTINUOUS
 62
     3
 10
-1076.451881807909
 20
-546.7208759414888
 30
0.0
 11
-1076.451881807909
 21
-537.8467089664081
 31
0.0
  0
ARC
  5
142
  8
0
  6
CONTINUOUS
 62
     3
 10
-1071.701881807909
 20
-547.1977785474281
 30
0.0
 40
10.48832695471864
 50
63.07110270695188
 51
116.9288972930481
  0
ARC
  5
143
  8
0
  6
CONTINUOUS
 62
     3
 10
-1081.201881807909
 20
-547.1977785474281
 30
0.0
 40
10.48832695471864
 50
63.07110270695188
 51
116.9288972930481
  0
LINE
  5
144
  8
0
  6
CONTINUOUS
 62
     3
 10
-1087.201881807909
 20
-546.7208759414888
 30
0.0
 11
-1087.201881807909
 21
-549.7208759414888
 31
0.0
  0
LINE
  5
145
  8
0
  6
CONTINUOUS
 62
     3
 10
-1065.701881807909
 20
-549.7208759414888
 30
0.0
 11
-1065.701881807909
 21
-546.7208759414888
 31
0.0
  0
LINE
  5
146
  8
0
  6
CONTINUOUS
 62
     3
 10
-1087.201881807909
 20
-546.7208759414888
 30
0.0
 11
-1065.701881807909
 21
-546.7208759414888
 31
0.0
  0
LINE
  5
147
  8
0
  6
CONTINUOUS
 62
     3
 10
-1076.451881807909
 20
-546.7208759414888
 30
0.0
 11
-1077.255729385201
 21
-549.7208759414888
 31
0.0
  0
LINE
  5
148
  8
0
  6
CONTINUOUS
 62
     3
 10
-1075.648034230614
 20
-546.7208759414888
 30
0.0
 11
-1076.451881807909
 21
-549.7208759414888
 31
0.0
  0
LINE
  5
149
  8
0
  6
CONTINUOUS
 62
     3
 10
-1092.451881807909
 20
-549.7208759414888
 30
0.0
 11
-1092.451881807909
 21
-552.2208759414888
 31
0.0
  0
LINE
  5
14A
  8
0
  6
CONTINUOUS
 62
     3
 10
-1092.451881807909
 20
-552.2208759414888
 30
0.0
 11
-1060.451881807909
 21
-552.2208759414888
 31
0.0
  0
LINE
  5
14B
  8
0
  6
CONTINUOUS
 62
     3
 10
-1060.451881807909
 20
-552.2208759414888
 30
0.0
 11
-1060.451881807909
 21
-549.7208759414888
 31
0.0
  0
LINE
  5
14C
  8
0
  6
CONTINUOUS
 62
     3
 10
-1092.451881807909
 20
-549.7208759414888
 30
0.0
 11
-1060.451881807909
 21
-549.7208759414888
 31
0.0
  0
LINE
  5
14D
  8
0
  6
CONTINUOUS
 62
     3
 10
-1068.451881807909
 20
-628.8835454312883
 30
0.0
 11
-1068.451881807909
 21
-631.8835454312883
 31
0.0
  0
LINE
  5
14E
  8
0
  6
CONTINUOUS
 62
     3
 10
-1084.451881807909
 20
-628.8835454312883
 30
0.0
 11
-1084.451881807909
 21
-631.8835454312883
 31
0.0
  0
LINE
  5
14F
  8
0
  6
CONTINUOUS
 62
     3
 10
-1082.451881807909
 20
-616.8835454312883
 30
0.0
 11
-1084.451881807909
 21
-628.8835454312883
 31
0.0
  0
LINE
  5
150
  8
0
  6
CONTINUOUS
 62
     3
 10
-1082.451881807909
 20
-616.8835454312883
 30
0.0
 11
-1070.451881807909
 21
-616.8835454312883
 31
0.0
  0
LINE
  5
151
  8
0
  6
CONTINUOUS
 62
     3
 10
-1070.451881807909
 20
-616.8835454312883
 30
0.0
 11
-1068.451881807909
 21
-628.8835454312883
 31
0.0
  0
LINE
  5
152
  8
0
  6
CONTINUOUS
 62
     3
 10
-1084.451881807909
 20
-631.8835454312883
 30
0.0
 11
-1068.451881807909
 21
-631.8835454312883
 31
0.0
  0
LINE
  5
153
  8
0
  6
CONTINUOUS
 62
     3
 10
-1084.451881807909
 20
-628.8835454312883
 30
0.0
 11
-1068.451881807909
 21
-628.8835454312883
 31
0.0
  0
LINE
  5
154
  8
0
  6
CONTINUOUS
 62
     3
 10
-1068.451881807909
 20
-559.8835454312883
 30
0.0
 11
-1068.451881807909
 21
-616.8835454312883
 31
0.0
  0
LINE
  5
155
  8
0
  6
CONTINUOUS
 62
     3
 10
-1084.451881807909
 20
-559.8835454312883
 30
0.0
 11
-1084.451881807909
 21
-616.8835454312883
 31
0.0
  0
LINE
  5
156
  8
0
  6
CONTINUOUS
 62
     3
 10
-1076.451881807909
 20
-601.8835454312883
 30
0.0
 11
-1073.451881807909
 21
-596.8835454312883
 31
0.0
  0
LINE
  5
157
  8
0
  6
CONTINUOUS
 62
     3
 10
-1076.451881807909
 20
-601.8835454312883
 30
0.0
 11
-1079.451881807909
 21
-596.8835454312883
 31
0.0
  0
ARC
  5
158
  8
0
  6
CONTINUOUS
 62
     3
 10
-1076.451881807909
 20
-596.8835454312883
 30
0.0
 40
3.0
 50
0.0000000000001191
 51
179.9999999999998
  0
LINE
  5
159
  8
0
  6
CONTINUOUS
 62
     3
 10
-1084.451881807909
 20
-559.8835454312883
 30
0.0
 11
-1068.451881807909
 21
-559.8835454312883
 31
0.0
  0
LINE
  5
15A
  8
0
  6
CONTINUOUS
 62
     3
 10
-1084.451881807909
 20
-616.8835454312883
 30
0.0
 11
-1068.451881807909
 21
-616.8835454312883
 31
0.0
  0
LINE
  5
15B
  8
0
  6
CONTINUOUS
 62
     3
 10
-1076.451881807909
 20
-601.8835454312883
 30
0.0
 11
-1076.451881807909
 21
-616.8835454312883
 31
0.0
  0
INSERT
  5
15C
  8
0
  6
CONTINUOUS
  2
DC_GROUP_4
 10
0.0
 20
0.0
 30
0.0
  0
ENDBLK
  5
C3
  8
0
  0
BLOCK
  8
0
  2
DC_GROUP_4
 70
     0
 10
0.0
 20
0.0
 30
0.0
  3
DC_GROUP_4
  1

  0
LINE
  5
15D
  8
0
  6
CONTINUOUS
 62
     3
 10
-1081.504881807909
 20
-531.8835454312883
 30
0.0
 11
-1071.398881807909
 21
-531.8835454312883
 31
0.0
  0
LINE
  5
15E
  8
0
  6
CONTINUOUS
 62
     3
 10
-1081.504881807909
 20
-531.8835454312883
 30
0.0
 11
-1082.451881807909
 21
-532.8305454312884
 31
0.0
  0
LINE
  5
15F
  8
0
  6
CONTINUOUS
 62
     3
 10
-1071.398881807909
 20
-531.8835454312883
 30
0.0
 11
-1070.451881807909
 21
-532.8305454312884
 31
0.0
  0
LINE
  5
160
  8
0
  6
CONTINUOUS
 62
     3
 10
-1082.451881807909
 20
-532.8305454312884
 30
0.0
 11
-1070.451881807909
 21
-532.8305454312884
 31
0.0
  0
LINE
  5
161
  8
0
  6
CONTINUOUS
 62
     3
 10
-1070.451881807909
 20
-559.8835454312883
 30
0.0
 11
-1070.451881807909
 21
-558.2208759414888
 31
0.0
  0
LINE
  5
162
  8
0
  6
CONTINUOUS
 62
     3
 10
-1070.451881807909
 20
-536.784205562661
 30
0.0
 11
-1070.451881807909
 21
-532.8305454312884
 31
0.0
  0
LINE
  5
163
  8
0
  6
CONTINUOUS
 62
     3
 10
-1082.451881807909
 20
-559.8835454312883
 30
0.0
 11
-1082.451881807909
 21
-558.2208759414888
 31
0.0
  0
LINE
  5
164
  8
0
  6
CONTINUOUS
 62
     3
 10
-1082.451881807909
 20
-536.784205562661
 30
0.0
 11
-1082.451881807909
 21
-532.8305454312884
 31
0.0
  0
ENDBLK
  5
C6
  8
0
  0
BLOCK
  8
0
  2
*D8
 70
     1
 10
0.0
 20
0.0
 30
0.0
  3
*D8
  1

  0
LINE
  5
165
  8
0
  6
CONTINUOUS
 62
     4
 10
552.1986647752681
 20
-699.3519898125386
 30
0.0
 11
642.1986647752681
 21
-699.3519898125386
 31
0.0
  0
INSERT
  5
166
  8
0
 62
     4
  2
_OPEN30
 10
552.1986647752681
 20
-699.3519898125386
 30
0.0
 41
24.0018442714354
 42
24.00130528403405
 50
180.0
  0
INSERT
  5
167
  8
0
 62
     4
  2
_OPEN30
 10
642.1986647752681
 20
-699.3519898125386
 30
0.0
 41
24.0018442714354
 42
24.00130528403405
 50
360.0
  0
TEXT
  5
168
  8
0
 62
     4
 10
577.998664775268
 20
-694.3519898125386
 30
0.0
 40
24.0
  1
90
 41
0.9081081081081104
  7
DCSTYLE0
 72
     5
 11
616.3986647752681
 21
-694.3519898125386
 31
0.0
  0
LINE
  5
169
  8
0
  6
CONTINUOUS
 62
     9
 10
552.1986647752681
 20
-563.2208759414888
 30
0.0
 11
552.1986647752681
 21
-704.3519898125386
 31
0.0
  0
LINE
  5
16A
  8
0
  6
CONTINUOUS
 62
     9
 10
642.1986647752681
 20
-563.2208759414888
 30
0.0
 11
642.1986647752681
 21
-704.3519898125386
 31
0.0
  0
ENDBLK
  5
C9
  8
0
  0
BLOCK
  8
0
  2
DC_GROUP_5
 70
     0
 10
0.0
 20
0.0
 30
0.0
  3
DC_GROUP_5
  1

  0
LINE
  5
16B
  8
0
  6
CENTER
 62
     7
 10
597.1986647752681
 20
-526.344345773667
 30
0.0
 11
597.1986647752681
 21
-639.6788223759767
 31
0.0
  0
LINE
  5
16C
  8
0
  6
CONTINUOUS
 62
     3
 10
606.6986647752681
 20
-536.7208759414888
 30
0.0
 11
587.6986647752681
 21
-536.7208759414888
 31
0.0
  0
LINE
  5
16D
  8
0
  6
CONTINUOUS
 62
     3
 10
587.6986647752681
 20
-536.7208759414888
 30
0.0
 11
587.6986647752681
 21
-546.7208759414888
 31
0.0
  0
LINE
  5
16E
  8
0
  6
CONTINUOUS
 62
     3
 10
606.6986647752681
 20
-546.7208759414888
 30
0.0
 11
606.6986647752681
 21
-536.7208759414888
 31
0.0
  0
LINE
  5
16F
  8
0
  6
CONTINUOUS
 62
     3
 10
597.1986647752681
 20
-546.7208759414888
 30
0.0
 11
597.1986647752681
 21
-537.8467089664081
 31
0.0
  0
ARC
  5
170
  8
0
  6
CONTINUOUS
 62
     3
 10
592.4486647752681
 20
-547.1977785474281
 30
0.0
 40
10.48832695471864
 50
63.0711027069519
 51
116.9288972930481
  0
ARC
  5
171
  8
0
  6
CONTINUOUS
 62
     3
 10
601.9486647752681
 20
-547.1977785474281
 30
0.0
 40
10.48832695471864
 50
63.0711027069519
 51
116.9288972930481
  0
LINE
  5
172
  8
0
  6
CONTINUOUS
 62
     3
 10
607.9486647752681
 20
-546.7208759414888
 30
0.0
 11
607.9486647752681
 21
-549.7208759414888
 31
0.0
  0
LINE
  5
173
  8
0
  6
CONTINUOUS
 62
     3
 10
586.4486647752681
 20
-549.7208759414888
 30
0.0
 11
586.4486647752681
 21
-546.7208759414888
 31
0.0
  0
LINE
  5
174
  8
0
  6
CONTINUOUS
 62
     3
 10
607.9486647752681
 20
-546.7208759414888
 30
0.0
 11
586.4486647752681
 21
-546.7208759414888
 31
0.0
  0
LINE
  5
175
  8
0
  6
CONTINUOUS
 62
     3
 10
597.1986647752681
 20
-546.7208759414888
 30
0.0
 11
598.0025123525636
 21
-549.7208759414888
 31
0.0
  0
LINE
  5
176
  8
0
  6
CONTINUOUS
 62
     3
 10
596.3948171979762
 20
-546.7208759414888
 30
0.0
 11
597.1986647752681
 21
-549.7208759414888
 31
0.0
  0
LINE
  5
177
  8
0
  6
CONTINUOUS
 62
     3
 10
613.1986647752681
 20
-549.7208759414888
 30
0.0
 11
613.1986647752681
 21
-552.2208759414888
 31
0.0
  0
LINE
  5
178
  8
0
  6
CONTINUOUS
 62
     3
 10
613.1986647752681
 20
-552.2208759414888
 30
0.0
 11
581.1986647752681
 21
-552.2208759414888
 31
0.0
  0
LINE
  5
179
  8
0
  6
CONTINUOUS
 62
     3
 10
581.1986647752681
 20
-552.2208759414888
 30
0.0
 11
581.1986647752681
 21
-549.7208759414888
 31
0.0
  0
LINE
  5
17A
  8
0
  6
CONTINUOUS
 62
     3
 10
613.1986647752681
 20
-549.7208759414888
 30
0.0
 11
581.1986647752681
 21
-549.7208759414888
 31
0.0
  0
LINE
  5
17B
  8
0
  6
CONTINUOUS
 62
     3
 10
589.1986647752681
 20
-628.8835454312883
 30
0.0
 11
589.1986647752681
 21
-631.8835454312883
 31
0.0
  0
LINE
  5
17C
  8
0
  6
CONTINUOUS
 62
     3
 10
605.1986647752681
 20
-628.8835454312883
 30
0.0
 11
605.1986647752681
 21
-631.8835454312883
 31
0.0
  0
LINE
  5
17D
  8
0
  6
CONTINUOUS
 62
     3
 10
603.1986647752681
 20
-616.8835454312883
 30
0.0
 11
605.1986647752681
 21
-628.8835454312883
 31
0.0
  0
LINE
  5
17E
  8
0
  6
CONTINUOUS
 62
     3
 10
603.1986647752681
 20
-616.8835454312883
 30
0.0
 11
591.1986647752681
 21
-616.8835454312883
 31
0.0
  0
LINE
  5
17F
  8
0
  6
CONTINUOUS
 62
     3
 10
591.1986647752681
 20
-616.8835454312883
 30
0.0
 11
589.1986647752681
 21
-628.8835454312883
 31
0.0
  0
LINE
  5
180
  8
0
  6
CONTINUOUS
 62
     3
 10
605.1986647752681
 20
-631.8835454312883
 30
0.0
 11
589.1986647752681
 21
-631.8835454312883
 31
0.0
  0
LINE
  5
181
  8
0
  6
CONTINUOUS
 62
     3
 10
605.1986647752681
 20
-628.8835454312883
 30
0.0
 11
589.1986647752681
 21
-628.8835454312883
 31
0.0
  0
LINE
  5
182
  8
0
  6
CONTINUOUS
 62
     3
 10
589.1986647752681
 20
-559.8835454312883
 30
0.0
 11
589.1986647752681
 21
-616.8835454312883
 31
0.0
  0
LINE
  5
183
  8
0
  6
CONTINUOUS
 62
     3
 10
605.1986647752681
 20
-559.8835454312883
 30
0.0
 11
605.1986647752681
 21
-616.8835454312883
 31
0.0
  0
LINE
  5
184
  8
0
  6
CONTINUOUS
 62
     3
 10
597.1986647752681
 20
-601.8835454312883
 30
0.0
 11
594.1986647752681
 21
-596.8835454312883
 31
0.0
  0
LINE
  5
185
  8
0
  6
CONTINUOUS
 62
     3
 10
597.1986647752681
 20
-601.8835454312883
 30
0.0
 11
600.1986647752681
 21
-596.8835454312883
 31
0.0
  0
ARC
  5
186
  8
0
  6
CONTINUOUS
 62
     3
 10
597.1986647752681
 20
-596.8835454312883
 30
0.0
 40
3.0
 50
0.0000000000001357
 51
179.9999999999999
  0
LINE
  5
187
  8
0
  6
CONTINUOUS
 62
     3
 10
605.1986647752681
 20
-559.8835454312883
 30
0.0
 11
589.1986647752681
 21
-559.8835454312883
 31
0.0
  0
LINE
  5
188
  8
0
  6
CONTINUOUS
 62
     3
 10
605.1986647752681
 20
-616.8835454312883
 30
0.0
 11
589.1986647752681
 21
-616.8835454312883
 31
0.0
  0
LINE
  5
189
  8
0
  6
CONTINUOUS
 62
     3
 10
597.1986647752681
 20
-601.8835454312883
 30
0.0
 11
597.1986647752681
 21
-616.8835454312883
 31
0.0
  0
INSERT
  5
18A
  8
0
  6
CONTINUOUS
  2
DC_GROUP_6
 10
0.0
 20
0.0
 30
0.0
  0
ENDBLK
  5
CC
  8
0
  0
BLOCK
  8
0
  2
DC_GROUP_6
 70
     0
 10
0.0
 20
0.0
 30
0.0
  3
DC_GROUP_6
  1

  0
LINE
  5
18B
  8
0
  6
CONTINUOUS
 62
     3
 10
602.251664775268
 20
-531.8835454312883
 30
0.0
 11
592.1456647752682
 21
-531.8835454312883
 31
0.0
  0
LINE
  5
18C
  8
0
  6
CONTINUOUS
 62
     3
 10
602.251664775268
 20
-531.8835454312883
 30
0.0
 11
603.1986647752681
 21
-532.8305454312884
 31
0.0
  0
LINE
  5
18D
  8
0
  6
CONTINUOUS
 62
     3
 10
592.1456647752682
 20
-531.8835454312883
 30
0.0
 11
591.1986647752681
 21
-532.8305454312884
 31
0.0
  0
LINE
  5
18E
  8
0
  6
CONTINUOUS
 62
     3
 10
603.1986647752681
 20
-532.8305454312884
 30
0.0
 11
591.1986647752681
 21
-532.8305454312884
 31
0.0
  0
LINE
  5
18F
  8
0
  6
CONTINUOUS
 62
     3
 10
591.1986647752681
 20
-559.8835454312883
 30
0.0
 11
591.1986647752681
 21
-558.2208759414888
 31
0.0
  0
LINE
  5
190
  8
0
  6
CONTINUOUS
 62
     3
 10
591.1986647752681
 20
-536.784205562661
 30
0.0
 11
591.1986647752681
 21
-532.8305454312884
 31
0.0
  0
LINE
  5
191
  8
0
  6
CONTINUOUS
 62
     3
 10
603.1986647752681
 20
-559.8835454312883
 30
0.0
 11
603.1986647752681
 21
-558.2208759414888
 31
0.0
  0
LINE
  5
192
  8
0
  6
CONTINUOUS
 62
     3
 10
603.1986647752681
 20
-536.784205562661
 30
0.0
 11
603.1986647752681
 21
-532.8305454312884
 31
0.0
  0
ENDBLK
  5
CF
  8
0
  0
BLOCK
  8
0
  2
DC_GROUP_7
 70
     0
 10
0.0
 20
0.0
 30
0.0
  3
DC_GROUP_7
  1

  0
LINE
  5
193
  8
0
  6
CENTER
 62
     7
 10
63.0481181920909
 20
-526.3443457736665
 30
0.0
 11
63.0481181920909
 21
-639.6788223759767
 31
0.0
  0
LINE
  5
194
  8
0
  6
CONTINUOUS
 62
     3
 10
72.5481181920909
 20
-536.7208759414888
 30
0.0
 11
53.5481181920909
 21
-536.7208759414888
 31
0.0
  0
LINE
  5
195
  8
0
  6
CONTINUOUS
 62
     3
 10
53.5481181920909
 20
-536.7208759414888
 30
0.0
 11
53.5481181920909
 21
-546.7208759414888
 31
0.0
  0
LINE
  5
196
  8
0
  6
CONTINUOUS
 62
     3
 10
72.5481181920909
 20
-546.7208759414888
 30
0.0
 11
72.5481181920909
 21
-536.7208759414888
 31
0.0
  0
LINE
  5
197
  8
0
  6
CONTINUOUS
 62
     3
 10
63.0481181920909
 20
-546.7208759414888
 30
0.0
 11
63.0481181920909
 21
-537.8467089664081
 31
0.0
  0
ARC
  5
198
  8
0
  6
CONTINUOUS
 62
     3
 10
58.2981181920909
 20
-547.1977785474281
 30
0.0
 40
10.48832695471864
 50
63.0711027069519
 51
116.9288972930481
  0
ARC
  5
199
  8
0
  6
CONTINUOUS
 62
     3
 10
67.7981181920909
 20
-547.1977785474281
 30
0.0
 40
10.48832695471864
 50
63.0711027069519
 51
116.9288972930481
  0
LINE
  5
19A
  8
0
  6
CONTINUOUS
 62
     3
 10
73.7981181920909
 20
-546.7208759414888
 30
0.0
 11
73.7981181920909
 21
-549.7208759414888
 31
0.0
  0
LINE
  5
19B
  8
0
  6
CONTINUOUS
 62
     3
 10
52.2981181920909
 20
-549.7208759414888
 30
0.0
 11
52.2981181920909
 21
-546.7208759414888
 31
0.0
  0
LINE
  5
19C
  8
0
  6
CONTINUOUS
 62
     3
 10
73.7981181920909
 20
-546.7208759414888
 30
0.0
 11
52.2981181920909
 21
-546.7208759414888
 31
0.0
  0
LINE
  5
19D
  8
0
  6
CONTINUOUS
 62
     3
 10
63.0481181920909
 20
-546.7208759414888
 30
0.0
 11
63.85196576938642
 21
-549.7208759414888
 31
0.0
  0
LINE
  5
19E
  8
0
  6
CONTINUOUS
 62
     3
 10
62.24427061479901
 20
-546.7208759414888
 30
0.0
 11
63.0481181920909
 21
-549.7208759414888
 31
0.0
  0
LINE
  5
19F
  8
0
  6
CONTINUOUS
 62
     3
 10
79.0481181920909
 20
-549.7208759414888
 30
0.0
 11
79.0481181920909
 21
-552.2208759414888
 31
0.0
  0
LINE
  5
1A0
  8
0
  6
CONTINUOUS
 62
     3
 10
79.0481181920909
 20
-552.2208759414888
 30
0.0
 11
47.0481181920909
 21
-552.2208759414888
 31
0.0
  0
LINE
  5
1A1
  8
0
  6
CONTINUOUS
 62
     3
 10
47.0481181920909
 20
-552.2208759414888
 30
0.0
 11
47.0481181920909
 21
-549.7208759414888
 31
0.0
  0
LINE
  5
1A2
  8
0
  6
CONTINUOUS
 62
     3
 10
79.0481181920909
 20
-549.7208759414888
 30
0.0
 11
47.0481181920909
 21
-549.7208759414888
 31
0.0
  0
LINE
  5
1A3
  8
0
  6
CONTINUOUS
 62
     3
 10
55.0481181920909
 20
-628.8835454312883
 30
0.0
 11
55.0481181920909
 21
-631.8835454312883
 31
0.0
  0
LINE
  5
1A4
  8
0
  6
CONTINUOUS
 62
     3
 10
71.0481181920909
 20
-628.8835454312883
 30
0.0
 11
71.0481181920909
 21
-631.8835454312883
 31
0.0
  0
LINE
  5
1A5
  8
0
  6
CONTINUOUS
 62
     3
 10
69.0481181920909
 20
-616.8835454312883
 30
0.0
 11
71.0481181920909
 21
-628.8835454312883
 31
0.0
  0
LINE
  5
1A6
  8
0
  6
CONTINUOUS
 62
     3
 10
69.0481181920909
 20
-616.8835454312883
 30
0.0
 11
57.0481181920909
 21
-616.8835454312883
 31
0.0
  0
LINE
  5
1A7
  8
0
  6
CONTINUOUS
 62
     3
 10
57.0481181920909
 20
-616.8835454312883
 30
0.0
 11
55.0481181920909
 21
-628.8835454312883
 31
0.0
  0
LINE
  5
1A8
  8
0
  6
CONTINUOUS
 62
     3
 10
71.0481181920909
 20
-631.8835454312883
 30
0.0
 11
55.0481181920909
 21
-631.8835454312883
 31
0.0
  0
LINE
  5
1A9
  8
0
  6
CONTINUOUS
 62
     3
 10
71.0481181920909
 20
-628.8835454312883
 30
0.0
 11
55.0481181920909
 21
-628.8835454312883
 31
0.0
  0
LINE
  5
1AA
  8
0
  6
CONTINUOUS
 62
     3
 10
55.0481181920909
 20
-559.8835454312883
 30
0.0
 11
55.0481181920909
 21
-616.8835454312883
 31
0.0
  0
LINE
  5
1AB
  8
0
  6
CONTINUOUS
 62
     3
 10
71.0481181920909
 20
-559.8835454312883
 30
0.0
 11
71.0481181920909
 21
-616.8835454312883
 31
0.0
  0
LINE
  5
1AC
  8
0
  6
CONTINUOUS
 62
     3
 10
63.0481181920909
 20
-601.8835454312883
 30
0.0
 11
60.0481181920909
 21
-596.8835454312883
 31
0.0
  0
LINE
  5
1AD
  8
0
  6
CONTINUOUS
 62
     3
 10
63.0481181920909
 20
-601.8835454312883
 30
0.0
 11
66.0481181920909
 21
-596.8835454312883
 31
0.0
  0
ARC
  5
1AE
  8
0
  6
CONTINUOUS
 62
     3
 10
63.0481181920909
 20
-596.8835454312883
 30
0.0
 40
3.0
 50
0.0000000000001523
 51
179.9999999999999
  0
LINE
  5
1AF
  8
0
  6
CONTINUOUS
 62
     3
 10
71.0481181920909
 20
-559.8835454312883
 30
0.0
 11
55.0481181920909
 21
-559.8835454312883
 31
0.0
  0
LINE
  5
1B0
  8
0
  6
CONTINUOUS
 62
     3
 10
71.0481181920909
 20
-616.8835454312883
 30
0.0
 11
55.0481181920909
 21
-616.8835454312883
 31
0.0
  0
LINE
  5
1B1
  8
0
  6
CONTINUOUS
 62
     3
 10
63.0481181920909
 20
-601.8835454312883
 30
0.0
 11
63.0481181920909
 21
-616.8835454312883
 31
0.0
  0
INSERT
  5
1B2
  8
0
  6
CONTINUOUS
  2
DC_GROUP_8
 10
0.0
 20
0.0
 30
0.0
  0
ENDBLK
  5
D2
  8
0
  0
BLOCK
  8
0
  2
DC_GROUP_8
 70
     0
 10
0.0
 20
0.0
 30
0.0
  3
DC_GROUP_8
  1

  0
LINE
  5
1B3
  8
0
  6
CONTINUOUS
 62
     3
 10
68.10111819209078
 20
-531.8835454312883
 30
0.0
 11
57.99511819209101
 21
-531.8835454312883
 31
0.0
  0
LINE
  5
1B4
  8
0
  6
CONTINUOUS
 62
     3
 10
68.10111819209078
 20
-531.8835454312883
 30
0.0
 11
69.0481181920909
 21
-532.8305454312884
 31
0.0
  0
LINE
  5
1B5
  8
0
  6
CONTINUOUS
 62
     3
 10
57.99511819209101
 20
-531.8835454312883
 30
0.0
 11
57.0481181920909
 21
-532.8305454312884
 31
0.0
  0
LINE
  5
1B6
  8
0
  6
CONTINUOUS
 62
     3
 10
69.0481181920909
 20
-532.8305454312884
 30
0.0
 11
57.0481181920909
 21
-532.8305454312884
 31
0.0
  0
LINE
  5
1B7
  8
0
  6
CONTINUOUS
 62
     3
 10
57.0481181920909
 20
-559.8835454312883
 30
0.0
 11
57.0481181920909
 21
-558.2208759414888
 31
0.0
  0
LINE
  5
1B8
  8
0
  6
CONTINUOUS
 62
     3
 10
57.0481181920909
 20
-536.784205562661
 30
0.0
 11
57.0481181920909
 21
-532.8305454312884
 31
0.0
  0
LINE
  5
1B9
  8
0
  6
CONTINUOUS
 62
     3
 10
69.0481181920909
 20
-559.8835454312883
 30
0.0
 11
69.0481181920909
 21
-558.2208759414888
 31
0.0
  0
LINE
  5
1BA
  8
0
  6
CONTINUOUS
 62
     3
 10
69.0481181920909
 20
-536.784205562661
 30
0.0
 11
69.0481181920909
 21
-532.8305454312884
 31
0.0
  0
ENDBLK
  5
D5
  8
0
  0
BLOCK
  8
0
  2
DC_GROUP_9
 70
     0
 10
0.0
 20
0.0
 30
0.0
  3
DC_GROUP_9
  1

  0
LINE
  5
1BB
  8
0
  6
CENTER
 62
     7
 10
173.0481181920909
 20
-526.3443457736665
 30
0.0
 11
173.0481181920909
 21
-639.6788223759767
 31
0.0
  0
LINE
  5
1BC
  8
0
  6
CONTINUOUS
 62
     3
 10
182.5481181920909
 20
-536.7208759414888
 30
0.0
 11
163.5481181920909
 21
-536.7208759414888
 31
0.0
  0
LINE
  5
1BD
  8
0
  6
CONTINUOUS
 62
     3
 10
163.5481181920909
 20
-536.7208759414888
 30
0.0
 11
163.5481181920909
 21
-546.7208759414888
 31
0.0
  0
LINE
  5
1BE
  8
0
  6
CONTINUOUS
 62
     3
 10
182.5481181920909
 20
-546.7208759414888
 30
0.0
 11
182.5481181920909
 21
-536.7208759414888
 31
0.0
  0
LINE
  5
1BF
  8
0
  6
CONTINUOUS
 62
     3
 10
173.0481181920909
 20
-546.7208759414888
 30
0.0
 11
173.0481181920909
 21
-537.8467089664081
 31
0.0
  0
ARC
  5
1C0
  8
0
  6
CONTINUOUS
 62
     3
 10
168.2981181920909
 20
-547.1977785474281
 30
0.0
 40
10.48832695471864
 50
63.0711027069519
 51
116.9288972930481
  0
ARC
  5
1C1
  8
0
  6
CONTINUOUS
 62
     3
 10
177.7981181920909
 20
-547.1977785474281
 30
0.0
 40
10.48832695471864
 50
63.0711027069519
 51
116.9288972930481
  0
LINE
  5
1C2
  8
0
  6
CONTINUOUS
 62
     3
 10
183.7981181920909
 20
-546.7208759414888
 30
0.0
 11
183.7981181920909
 21
-549.7208759414888
 31
0.0
  0
LINE
  5
1C3
  8
0
  6
CONTINUOUS
 62
     3
 10
162.2981181920909
 20
-549.7208759414888
 30
0.0
 11
162.2981181920909
 21
-546.7208759414888
 31
0.0
  0
LINE
  5
1C4
  8
0
  6
CONTINUOUS
 62
     3
 10
183.7981181920909
 20
-546.7208759414888
 30
0.0
 11
162.2981181920909
 21
-546.7208759414888
 31
0.0
  0
LINE
  5
1C5
  8
0
  6
CONTINUOUS
 62
     3
 10
173.0481181920909
 20
-546.7208759414888
 30
0.0
 11
173.8519657693864
 21
-549.7208759414888
 31
0.0
  0
LINE
  5
1C6
  8
0
  6
CONTINUOUS
 62
     3
 10
172.244270614799
 20
-546.7208759414888
 30
0.0
 11
173.0481181920909
 21
-549.7208759414888
 31
0.0
  0
LINE
  5
1C7
  8
0
  6
CONTINUOUS
 62
     3
 10
189.0481181920909
 20
-549.7208759414888
 30
0.0
 11
189.0481181920909
 21
-552.2208759414888
 31
0.0
  0
LINE
  5
1C8
  8
0
  6
CONTINUOUS
 62
     3
 10
189.0481181920909
 20
-552.2208759414888
 30
0.0
 11
157.0481181920909
 21
-552.2208759414888
 31
0.0
  0
LINE
  5
1C9
  8
0
  6
CONTINUOUS
 62
     3
 10
157.0481181920909
 20
-552.2208759414888
 30
0.0
 11
157.0481181920909
 21
-549.7208759414888
 31
0.0
  0
LINE
  5
1CA
  8
0
  6
CONTINUOUS
 62
     3
 10
189.0481181920909
 20
-549.7208759414888
 30
0.0
 11
157.0481181920909
 21
-549.7208759414888
 31
0.0
  0
LINE
  5
1CB
  8
0
  6
CONTINUOUS
 62
     3
 10
165.0481181920909
 20
-628.8835454312883
 30
0.0
 11
165.0481181920909
 21
-631.8835454312883
 31
0.0
  0
LINE
  5
1CC
  8
0
  6
CONTINUOUS
 62
     3
 10
181.0481181920909
 20
-628.8835454312883
 30
0.0
 11
181.0481181920909
 21
-631.8835454312883
 31
0.0
  0
LINE
  5
1CD
  8
0
  6
CONTINUOUS
 62
     3
 10
179.0481181920909
 20
-616.8835454312883
 30
0.0
 11
181.0481181920909
 21
-628.8835454312883
 31
0.0
  0
LINE
  5
1CE
  8
0
  6
CONTINUOUS
 62
     3
 10
179.0481181920909
 20
-616.8835454312883
 30
0.0
 11
167.0481181920909
 21
-616.8835454312883
 31
0.0
  0
LINE
  5
1CF
  8
0
  6
CONTINUOUS
 62
     3
 10
167.0481181920909
 20
-616.8835454312883
 30
0.0
 11
165.0481181920909
 21
-628.8835454312883
 31
0.0
  0
LINE
  5
1D0
  8
0
  6
CONTINUOUS
 62
     3
 10
181.0481181920909
 20
-631.8835454312883
 30
0.0
 11
165.0481181920909
 21
-631.8835454312883
 31
0.0
  0
LINE
  5
1D1
  8
0
  6
CONTINUOUS
 62
     3
 10
181.0481181920909
 20
-628.8835454312883
 30
0.0
 11
165.0481181920909
 21
-628.8835454312883
 31
0.0
  0
LINE
  5
1D2
  8
0
  6
CONTINUOUS
 62
     3
 10
165.0481181920909
 20
-559.8835454312883
 30
0.0
 11
165.0481181920909
 21
-616.8835454312883
 31
0.0
  0
LINE
  5
1D3
  8
0
  6
CONTINUOUS
 62
     3
 10
181.0481181920909
 20
-559.8835454312883
 30
0.0
 11
181.0481181920909
 21
-616.8835454312883
 31
0.0
  0
LINE
  5
1D4
  8
0
  6
CONTINUOUS
 62
     3
 10
173.0481181920909
 20
-601.8835454312883
 30
0.0
 11
170.0481181920909
 21
-596.8835454312883
 31
0.0
  0
LINE
  5
1D5
  8
0
  6
CONTINUOUS
 62
     3
 10
173.0481181920909
 20
-601.8835454312883
 30
0.0
 11
176.0481181920909
 21
-596.8835454312883
 31
0.0
  0
ARC
  5
1D6
  8
0
  6
CONTINUOUS
 62
     3
 10
173.0481181920909
 20
-596.8835454312883
 30
0.0
 40
3.0
 50
0.0000000000001523
 51
179.9999999999999
  0
LINE
  5
1D7
  8
0
  6
CONTINUOUS
 62
     3
 10
181.0481181920909
 20
-559.8835454312883
 30
0.0
 11
165.0481181920909
 21
-559.8835454312883
 31
0.0
  0
LINE
  5
1D8
  8
0
  6
CONTINUOUS
 62
     3
 10
181.0481181920909
 20
-616.8835454312883
 30
0.0
 11
165.0481181920909
 21
-616.8835454312883
 31
0.0
  0
LINE
  5
1D9
  8
0
  6
CONTINUOUS
 62
     3
 10
173.0481181920909
 20
-601.8835454312883
 30
0.0
 11
173.0481181920909
 21
-616.8835454312883
 31
0.0
  0
INSERT
  5
1DA
  8
0
  6
CONTINUOUS
  2
DC_GROUP_10
 10
0.0
 20
0.0
 30
0.0
  0
ENDBLK
  5
D8
  8
0
  0
BLOCK
  8
0
  2
DC_GROUP_10
 70
     0
 10
0.0
 20
0.0
 30
0.0
  3
DC_GROUP_10
  1

  0
LINE
  5
1DB
  8
0
  6
CONTINUOUS
 62
     3
 10
178.1011181920908
 20
-531.8835454312883
 30
0.0
 11
167.995118192091
 21
-531.8835454312883
 31
0.0
  0
LINE
  5
1DC
  8
0
  6
CONTINUOUS
 62
     3
 10
178.1011181920908
 20
-531.8835454312883
 30
0.0
 11
179.0481181920909
 21
-532.8305454312884
 31
0.0
  0
LINE
  5
1DD
  8
0
  6
CONTINUOUS
 62
     3
 10
167.995118192091
 20
-531.8835454312883
 30
0.0
 11
167.0481181920909
 21
-532.8305454312884
 31
0.0
  0
LINE
  5
1DE
  8
0
  6
CONTINUOUS
 62
     3
 10
179.0481181920909
 20
-532.8305454312884
 30
0.0
 11
167.0481181920909
 21
-532.8305454312884
 31
0.0
  0
LINE
  5
1DF
  8
0
  6
CONTINUOUS
 62
     3
 10
167.0481181920909
 20
-559.8835454312883
 30
0.0
 11
167.0481181920909
 21
-558.2208759414888
 31
0.0
  0
LINE
  5
1E0
  8
0
  6
CONTINUOUS
 62
     3
 10
167.0481181920909
 20
-536.784205562661
 30
0.0
 11
167.0481181920909
 21
-532.8305454312884
 31
0.0
  0
LINE
  5
1E1
  8
0
  6
CONTINUOUS
 62
     3
 10
179.0481181920909
 20
-559.8835454312883
 30
0.0
 11
179.0481181920909
 21
-558.2208759414888
 31
0.0
  0
LINE
  5
1E2
  8
0
  6
CONTINUOUS
 62
     3
 10
179.0481181920909
 20
-536.784205562661
 30
0.0
 11
179.0481181920909
 21
-532.8305454312884
 31
0.0
  0
ENDBLK
  5
DB
  8
0
  0
BLOCK
  8
0
  2
*D15
 70
     1
 10
0.0
 20
0.0
 30
0.0
  3
*D15
  1

  0
LINE
  5
1E3
  8
LAYER0001
  6
CONTINUOUS
 62
     4
 10
-8.163360560093068
 20
0.4620770128354024
 30
0.0
 11
41.57824411606548
 21
69.42916369364089
 31
0.0
  0
INSERT
  5
1E4
  8
LAYER0001
 62
     4
  2
_OPEN30
 10
41.57824411606548
 20
69.42916369364089
 30
0.0
 41
24.0018442714354
 42
24.00130528403405
 50
54.19946825102274
  0
LINE
  5
1E5
  8
LAYER0001
  6
CONTINUOUS
 62
     4
 10
-141.7633605600931
 20
0.4620770128354188
 30
0.0
 11
-8.163360560093068
 21
0.4620770128354024
 31
0.0
  0
TEXT
  5
1E6
  8
LAYER0001
 62
     4
 10
-133.7633605600931
 20
8.462077012835403
 30
0.0
 40
28.0
  1
R125.7
 41
0.8166666666666668
  7
DCSTYLE0
 72
     5
 11
-16.16336056009307
 21
8.462077012835403
 31
0.0
  0
ENDBLK
  5
DE
  8
0
  0
BLOCK
  8
0
  2
DA_IMAGEDIMGROUP_1
 70
     0
 10
0.0
 20
0.0
 30
0.0
  3
DA_IMAGEDIMGROUP_1
  1

  0
LINE
  5
1E7
  8
LAYER0001
  6
CONTINUOUS
 62
     4
 10
572.8986647752688
 20
-34.91968780366716
 30
0.0
 11
621.498664775271
 21
-34.91968780366716
 31
0.0
  0
LINE
  5
1E8
  8
LAYER0001
  6
CONTINUOUS
 62
     4
 10
746.988664775269
 20
-34.91968780366716
 30
0.0
 11
621.498664775271
 21
-34.91968780366716
 31
0.0
  0
INSERT
  5
1E9
  8
LAYER0001
 62
     4
  2
_OPEN30
 10
621.498664775271
 20
-34.91968780366716
 30
0.0
 41
24.0018442714354
 42
24.00130528403405
 50
180.0
  0
LINE
  5
1EA
  8
LAYER0001
  6
CONTINUOUS
 62
     4
 10
547.8986647752688
 20
-34.91968780366716
 30
0.0
 11
572.8986647752688
 21
-34.91968780366716
 31
0.0
  0
INSERT
  5
1EB
  8
LAYER0001
 62
     4
  2
_OPEN30
 10
572.8986647752688
 20
-34.91968780366716
 30
0.0
 41
24.0018442714354
 42
24.00130528403405
 50
360.0
  0
TEXT
  5
1EC
  8
LAYER0001
 62
     4
 10
640.988664775269
 20
-29.91968780366716
 30
0.0
 40
28.0
  1
φ48.6
 41
0.8647058823529413
  7
DCSTYLE0
 72
     5
 11
738.988664775269
 21
-29.91968780366716
 31
0.0
  0
ENDBLK
  5
E1
  8
0
  0
BLOCK
  8
0
  2
*D17
 70
     1
 10
0.0
 20
0.0
 30
0.0
  3
*D17
  1

  0
LINE
  5
1ED
  8
0
  6
CONTINUOUS
 62
     9
 10
-1093.951881807909
 20
610.6990932863511
 30
0.0
 11
-1093.951881807909
 21
547.8162469132991
 31
0.0
  0
LINE
  5
1EE
  8
0
  6
CONTINUOUS
 62
     9
 10
190.5481181920909
 20
610.6990932863515
 30
0.0
 11
190.5481181920909
 21
547.8162469132991
 31
0.0
  0
LINE
  5
1EF
  8
0
  6
CONTINUOUS
 62
     4
 10
-1093.951881807909
 20
552.8162469132991
 30
0.0
 11
190.5481181920909
 21
552.8162469132991
 31
0.0
  0
INSERT
  5
1F0
  8
0
 62
     4
  2
_OPEN30
 10
-1093.951881807909
 20
552.8162469132991
 30
0.0
 41
24.0018442714354
 42
24.00130528403405
 50
180.0
  0
INSERT
  5
1F1
  8
0
 62
     4
  2
_OPEN30
 10
190.5481181920909
 20
552.8162469132991
 30
0.0
 41
24.0018442714354
 42
24.00130528403405
 50
360.0
  0
TEXT
  5
1F2
  8
0
 62
     4
 10
-509.3018818079091
 20
560.8162469132991
 30
0.0
 40
24.0
  1
1284.5
 41
0.9420560747663556
  7
DCSTYLE0
 72
     5
 11
-394.1018818079091
 21
560.8162469132991
 31
0.0
  0
ENDBLK
  5
E4
  8
0
  0
BLOCK
  8
0
  2
DC_GROUP_11
 70
     0
 10
0.0
 20
0.0
 30
0.0
  3
DC_GROUP_11
  1

  0
LINE
  5
1F3
  8
0
  6
CONTINUOUS
 62
     3
 10
-1087.421536922513
 20
651.3815516518697
 30
0.0
 11
-1081.936709365211
 21
660.8815516518697
 31
0.0
  0
LINE
  5
1F4
  8
0
  6
CONTINUOUS
 62
     3
 10
-1081.936709365211
 20
660.8815516518697
 30
0.0
 11
-1070.967054250607
 21
660.8815516518697
 31
0.0
  0
LINE
  5
1F5
  8
0
  6
CONTINUOUS
 62
     3
 10
-1070.967054250607
 20
660.8815516518697
 30
0.0
 11
-1065.482226693305
 21
651.3815516518697
 31
0.0
  0
LINE
  5
1F6
  8
0
  6
CONTINUOUS
 62
     3
 10
-1065.482226693305
 20
651.3815516518697
 30
0.0
 11
-1070.967054250607
 21
641.8815516518697
 31
0.0
  0
LINE
  5
1F7
  8
0
  6
CONTINUOUS
 62
     3
 10
-1070.967054250607
 20
641.8815516518697
 30
0.0
 11
-1081.936709365211
 21
641.8815516518697
 31
0.0
  0
LINE
  5
1F8
  8
0
  6
CONTINUOUS
 62
     3
 10
-1081.936709365211
 20
641.8815516518697
 30
0.0
 11
-1087.421536922513
 21
651.3815516518697
 31
0.0
  0
CIRCLE
  5
1F9
  8
0
  6
CONTINUOUS
 62
     3
 10
-1076.451881807909
 20
651.3815516518697
 30
0.0
 40
6.0
  0
CIRCLE
  5
1FA
  8
0
  6
CONTINUOUS
 62
     3
 10
-1076.451881807909
 20
651.3815516518697
 30
0.0
 40
12.0
  0
ENDBLK
  5
E7
  8
0
  0
BLOCK
  8
0
  2
*D19
 70
     1
 10
0.0
 20
0.0
 30
0.0
  3
*D19
  1

  0
LINE
  5
1FB
  8
LAYER0001
  6
CONTINUOUS
 62
     4
 10
-1145.600035445143
 20
606.3815516518697
 30
0.0
 11
-1145.600035445143
 21
696.3815516518695
 31
0.0
  0
INSERT
  5
1FC
  8
LAYER0001
 62
     4
  2
_OPEN30
 10
-1145.600035445143
 20
606.3815516518697
 30
0.0
 41
24.0018442714354
 42
24.00130528403405
 50
270.0
  0
INSERT
  5
1FD
  8
LAYER0001
 62
     4
  2
_OPEN30
 10
-1145.600035445143
 20
696.3815516518695
 30
0.0
 41
24.0018442714354
 42
24.00130528403405
 50
90.0
  0
LINE
  5
1FE
  8
LAYER0001
  6
CONTINUOUS
 62
     4
 10
-1087.696879806307
 20
606.3815516518697
 30
0.0
 11
-1150.600035445143
 21
606.3815516518697
 31
0.0
  0
LINE
  5
1FF
  8
LAYER0001
  6
CONTINUOUS
 62
     4
 10
-1087.696879806307
 20
696.3815516518695
 30
0.0
 11
-1150.600035445143
 21
696.3815516518695
 31
0.0
  0
TEXT
  5
200
  8
LAYER0001
 62
     4
 10
-1150.600035445143
 20
631.7815516518698
 30
0.0
 40
28.0
  1
90
 50
90.0
 41
0.794594594594591
  7
DCSTYLE0
 72
     5
 11
-1150.600035445143
 21
670.9815516518696
 31
0.0
  0
ENDBLK
  5
EA
  8
0
  0
BLOCK
  8
0
  2
*D20
 70
     1
 10
0.0
 20
0.0
 30
0.0
  3
*D20
  1

  0
LINE
  5
201
  8
LAYER0001
  6
CONTINUOUS
 62
     4
 10
-1093.951881807909
 20
738.3533924741313
 30
0.0
 11
-948.9518818079091
 21
738.3533924741313
 31
0.0
  0
INSERT
  5
202
  8
LAYER0001
 62
     4
  2
_OPEN30
 10
-1093.951881807909
 20
738.3533924741313
 30
0.0
 41
24.0018442714354
 42
24.00130528403405
 50
180.0
  0
INSERT
  5
203
  8
LAYER0001
 62
     4
  2
_OPEN30
 10
-948.9518818079091
 20
738.3533924741313
 30
0.0
 41
24.0018442714354
 42
24.00130528403405
 50
360.0
  0
LINE
  5
204
  8
LAYER0001
  6
CONTINUOUS
 62
     4
 10
-1093.951881807909
 20
692.0640100173879
 30
0.0
 11
-1093.951881807909
 21
743.3533924741313
 31
0.0
  0
LINE
  5
205
  8
LAYER0001
  6
CONTINUOUS
 62
     4
 10
-948.9518818079091
 20
692.0640100173879
 30
0.0
 11
-948.9518818079091
 21
743.3533924741313
 31
0.0
  0
TEXT
  5
206
  8
LAYER0001
 62
     4
 10
-1050.851881807909
 20
743.3533924741313
 30
0.0
 40
28.0
  1
145
 41
0.7736842105263166
  7
DCSTYLE0
 72
     5
 11
-992.0518818079091
 21
743.3533924741313
 31
0.0
  0
ENDBLK
  5
ED
  8
0
  0
BLOCK
  8
0
  2
DC_GROUP_12
 70
     0
 10
0.0
 20
0.0
 30
0.0
  3
DC_GROUP_12
  1

  0
LINE
  5
207
  8
0
  6
CONTINUOUS
 62
     3
 10
184.0177733066953
 20
651.3815516518697
 30
0.0
 11
178.5329457493931
 21
660.8815516518697
 31
0.0
  0
LINE
  5
208
  8
0
  6
CONTINUOUS
 62
     3
 10
178.5329457493931
 20
660.8815516518697
 30
0.0
 11
167.5632906347923
 21
660.8815516518697
 31
0.0
  0
LINE
  5
209
  8
0
  6
CONTINUOUS
 62
     3
 10
167.5632906347923
 20
660.8815516518697
 30
0.0
 11
162.0784630774901
 21
651.3815516518697
 31
0.0
  0
LINE
  5
20A
  8
0
  6
CONTINUOUS
 62
     3
 10
162.0784630774901
 20
651.3815516518697
 30
0.0
 11
167.5632906347923
 21
641.8815516518697
 31
0.0
  0
LINE
  5
20B
  8
0
  6
CONTINUOUS
 62
     3
 10
167.5632906347923
 20
641.8815516518697
 30
0.0
 11
178.5329457493931
 21
641.8815516518697
 31
0.0
  0
LINE
  5
20C
  8
0
  6
CONTINUOUS
 62
     3
 10
178.5329457493931
 20
641.8815516518697
 30
0.0
 11
184.0177733066953
 21
651.3815516518697
 31
0.0
  0
CIRCLE
  5
20D
  8
0
  6
CONTINUOUS
 62
     3
 10
173.0481181920909
 20
651.3815516518697
 30
0.0
 40
6.0
  0
CIRCLE
  5
20E
  8
0
  6
CONTINUOUS
 62
     3
 10
173.0481181920909
 20
651.3815516518697
 30
0.0
 40
12.0
  0
ENDBLK
  5
F0
  8
0
  0
BLOCK
  8
0
  2
DC_GROUP_13
 70
     0
 10
0.0
 20
0.0
 30
0.0
  3
DC_GROUP_13
  1

  0
LINE
  5
20F
  8
LAYER0013
  6
CONTINUOUS
 62
     4
 10
-360.4279340508069
 20
675.6815516518692
 30
0.0
 11
-288.2158104044227
 21
779.4326770420427
 31
0.0
  0
INSERT
  5
210
  8
LAYER0013
 62
     4
  2
_OPEN30
 10
-360.4279340508069
 20
675.6815516518692
 30
0.0
 41
24.0018442714354
 42
24.00130528403405
 50
235.1615845417077
  0
CIRCLE
  5
211
  8
LAYER0013
  6
CONTINUOUS
 62
     4
 10
-265.3652503887795
 20
812.2633320305057
 30
0.0
 40
40.0
  0
TEXT
  5
212
  8
LAYER0013
 62
     4
 10
-275.1652503887796
 20
798.2633320305057
 30
0.0
 40
28.0
  1
1
 41
1.336363636363638
  7
DCSTYLE0
 72
     5
 11
-255.5652503887795
 21
798.2633320305057
 31
0.0
  0
ENDBLK
  5
F3
  8
0
  0
BLOCK
  8
0
  2
DC_GROUP_14
 70
     0
 10
0.0
 20
0.0
 30
0.0
  3
DC_GROUP_14
  1

  0
LINE
  5
213
  8
LAYER0013
  6
CONTINUOUS
 62
     4
 10
134.0412416074219
 20
696.3815516518695
 30
0.0
 11
174.8558496479456
 21
791.6101771950009
 31
0.0
  0
INSERT
  5
214
  8
LAYER0013
 62
     4
  2
_OPEN30
 10
134.0412416074219
 20
696.3815516518695
 30
0.0
 41
24.0018442714354
 42
24.00130528403405
 50
246.8002200915676
  0
CIRCLE
  5
215
  8
LAYER0013
  6
CONTINUOUS
 62
     4
 10
190.6133848036566
 20
828.375651295256
 30
0.0
 40
40.0
  0
TEXT
  5
216
  8
LAYER0013
 62
     4
 10
180.8133848036566
 20
814.375651295256
 30
0.0
 40
28.0
  1
2
 41
0.8647058823529423
  7
DCSTYLE0
 72
     5
 11
200.4133848036566
 21
814.375651295256
 31
0.0
  0
ENDBLK
  5
F6
  8
0
  0
BLOCK
  8
0
  2
DC_GROUP_15
 70
     0
 10
0.0
 20
0.0
 30
0.0
  3
DC_GROUP_15
  1

  0
LINE
  5
217
  8
LAYER0013
  6
CONTINUOUS
 62
     4
 10
55.0481181920909
 20
-613.2105718210485
 30
0.0
 11
-21.24828433617372
 21
-676.7914599467147
 31
0.0
  0
INSERT
  5
218
  8
LAYER0013
 62
     4
  2
_OPEN30
 10
55.0481181920909
 20
-613.2105718210485
 30
0.0
 41
24.0018442714354
 42
24.00130528403405
 50
39.80581603677982
  0
CIRCLE
  5
219
  8
LAYER0013
  6
CONTINUOUS
 62
     4
 10
-51.97702604599537
 20
-702.3989673016109
 30
0.0
 40
40.0
  0
TEXT
  5
21A
  8
LAYER0013
 62
     4
 10
-61.77702604599537
 20
-716.3989673016109
 30
0.0
 40
28.0
  1
3
 41
0.864705882352941
  7
DCSTYLE0
 72
     5
 11
-42.17702604599538
 21
-716.3989673016109
 31
0.0
  0
ENDBLK
  5
F9
  8
0
  0
BLOCK
  8
0
  2
_OPEN30
 70
     0
 10
0.0
 20
0.0
 30
0.0
  3
_OPEN30
  1

  0
LINE
  5
FE
  8
0
  6
BYBLOCK
 62
     0
 10
-1.0
 20
0.267949
 30
0.0
 11
0.0
 21
0.0
 31
0.0
  0
LINE
  5
FF
  8
0
  6
BYBLOCK
 62
     0
 10
0.0
 20
0.0
 30
0.0
 11
-1.0
 21
-0.267949
 31
0.0
  0
LINE
  5
100
  8
0
  6
BYBLOCK
 62
     0
 10
0.0
 20
0.0
 30
0.0
 11
-1.0
 21
0.0
 31
0.0
  0
ENDBLK
  5
FD
  8
0
  0
ENDSEC
  0
SECTION
  2
ENTITIES
  0
LINE
  5
21B
  8
ZUWAKU
  6
CONTINUOUS
 62
     3
 10
825.3333333333242
 20
-862.0000000000175
 30
0.0
 11
825.3333333333238
 21
-1132.000000000018
 31
0.0
  0
LINE
  5
21C
  8
ZUWAKU
  6
CONTINUOUS
 62
     3
 10
825.3333333333242
 20
-892.0000000000175
 30
0.0
 11
1617.333333333324
 21
-892.0000000000172
 31
0.0
  0
LINE
  5
21D
  8
ZUWAKU
  6
CONTINUOUS
 62
     3
 10
1617.333333333323
 20
-862.0000000000199
 30
0.0
 11
825.3333333333238
 21
-862.0000000000199
 31
0.0
  0
LINE
  5
21E
  8
ZUWAKU
  6
CONTINUOUS
 62
     4
 10
1265.333333333324
 20
-702.0000000000192
 30
0.0
 11
1265.333333333324
 21
-892.0000000000173
 31
0.0
  0
LINE
  5
21F
  8
ZUWAKU
  6
CONTINUOUS
 62
     4
 10
1293.333333333325
 20
-988.0000000000173
 30
0.0
 11
1293.333333333325
 21
-1048.000000000018
 31
0.0
  0
LINE
  5
220
  8
ZUWAKU
  6
CONTINUOUS
 62
     4
 10
1402.833333333327
 20
-892.0000000000173
 30
0.0
 11
1402.833333333324
 21
-1048.000000000017
 31
0.0
  0
LINE
  5
221
  8
ZUWAKU
  6
CONTINUOUS
 62
     4
 10
825.3333333333242
 20
-988.0000000000177
 30
0.0
 11
1617.333333333324
 21
-988.0000000000173
 31
0.0
  0
LINE
  5
222
  8
ZUWAKU
  6
CONTINUOUS
 62
     4
 10
1617.333333333324
 20
-1048.000000000018
 30
0.0
 11
825.3333333333242
 21
-1048.000000000018
 31
0.0
  0
LINE
  5
223
  8
ZUWAKU
  6
CONTINUOUS
 62
     4
 10
867.3333333333242
 20
-892.0000000000173
 30
0.0
 11
867.3333333333242
 21
-1048.000000000018
 31
0.0
  0
LINE
  5
224
  8
ZUWAKU
  6
CONTINUOUS
 62
     4
 10
1335.333333333324
 20
-988.0000000000173
 30
0.0
 11
1335.333333333325
 21
-1048.000000000018
 31
0.0
  0
LINE
  5
225
  8
ZUWAKU
  6
CONTINUOUS
 62
     4
 10
1444.833333333324
 20
-892.0000000000173
 30
0.0
 11
1444.833333333324
 21
-1048.000000000017
 31
0.0
  0
LINE
  5
226
  8
ZUWAKU
  6
CONTINUOUS
 62
     4
 10
905.3333333333256
 20
-702.0000000000181
 30
0.0
 11
905.3333333333242
 21
-892.0000000000173
 31
0.0
  0
LINE
  5
227
  8
ZUWAKU
  6
CONTINUOUS
 62
     4
 10
1145.333333333321
 20
-702.0000000000189
 30
0.0
 11
1145.333333333325
 21
-892.0000000000173
 31
0.0
  0
LINE
  5
228
  8
ZUWAKU
  6
CONTINUOUS
 62
     4
 10
1345.333333333323
 20
-702.0000000000194
 30
0.0
 11
1345.333333333324
 21
-892.0000000000173
 31
0.0
  0
LINE
  5
229
  8
ZUWAKU
  6
CONTINUOUS
 62
     4
 10
1221.333333333325
 20
-988.0000000000177
 30
0.0
 11
1221.333333333325
 21
-1132.000000000017
 31
0.0
  0
LINE
  5
22A
  8
ZUWAKU
  6
CONTINUOUS
 62
     4
 10
1179.333333333325
 20
-988.0000000000177
 30
0.0
 11
1179.333333333325
 21
-1048.000000000018
 31
0.0
  0
LINE
  5
22B
  8
ZUWAKU
  6
CONTINUOUS
 62
     4
 10
1107.333333333325
 20
-988.0000000000177
 30
0.0
 11
1107.333333333325
 21
-1048.000000000018
 31
0.0
  0
LINE
  5
22C
  8
ZUWAKU
  6
CONTINUOUS
 62
     4
 10
1065.333333333325
 20
-988.0000000000177
 30
0.0
 11
1065.333333333325
 21
-1048.000000000018
 31
0.0
  0
LINE
  5
22D
  8
ZUWAKU
  6
CONTINUOUS
 62
     4
 10
891.3333333333238
 20
-1048.000000000018
 30
0.0
 11
891.3333333333238
 21
-1132.000000000017
 31
0.0
  0
LINE
  5
22E
  8
ZUWAKU
  6
CONTINUOUS
 62
     4
 10
825.3333333333238
 20
-862.0000000000175
 30
0.0
 11
1617.333333333323
 21
-862.00000000002
 31
0.0
  0
ARC
  5
22F
  8
ZUWAKU
  6
CONTINUOUS
 62
     4
 10
1299.302240624304
 20
-1072.371819143606
 30
0.0
 40
0.5206426682936989
 50
89.99999999999883
 51
269.9999999999989
  0
LINE
  5
230
  8
ZUWAKU
  6
CONTINUOUS
 62
     4
 10
1299.302240624304
 20
-1072.892461811895
 30
0.0
 11
1304.248345973093
 21
-1072.892461811895
 31
0.0
  0
ARC
  5
231
  8
ZUWAKU
  6
CONTINUOUS
 62
     4
 10
1304.248345973093
 20
-1080.962423170455
 30
0.0
 40
8.069961358551957
 50
0.0000000000000114
 51
89.99999999999905
  0
LINE
  5
232
  8
ZUWAKU
  6
CONTINUOUS
 62
     4
 10
1312.318307331648
 20
-1080.962423170455
 30
0.0
 11
1312.318307331648
 21
-1114.023232607102
 31
0.0
  0
LINE
  5
233
  8
ZUWAKU
  6
CONTINUOUS
 62
     4
 10
1312.318307331648
 20
-1114.023232607102
 30
0.0
 11
1236.82512042906
 21
-1114.023232607102
 31
0.0
  0
LINE
  5
234
  8
ZUWAKU
  6
CONTINUOUS
 62
     4
 10
1236.82512042906
 20
-1114.023232607102
 30
0.0
 11
1236.82512042906
 21
-1080.962423170455
 31
0.0
  0
ARC
  5
235
  8
ZUWAKU
  6
CONTINUOUS
 62
     4
 10
1244.895081787615
 20
-1080.962423170455
 30
0.0
 40
8.069961358551957
 50
90.0000000000001
 51
179.9999999999999
  0
LINE
  5
236
  8
ZUWAKU
  6
CONTINUOUS
 62
     4
 10
1244.895081787615
 20
-1072.892461811895
 30
0.0
 11
1249.841187136404
 21
-1072.892461811895
 31
0.0
  0
ARC
  5
237
  8
ZUWAKU
  6
CONTINUOUS
 62
     4
 10
1249.841187136404
 20
-1072.371819143606
 30
0.0
 40
0.5206426682936941
 50
270.0000000000001
 51
90.0000000000004
  0
LINE
  5
238
  8
ZUWAKU
  6
CONTINUOUS
 62
     4
 10
1249.841187136404
 20
-1071.851176475317
 30
0.0
 11
1244.895081787615
 21
-1071.851176475317
 31
0.0
  0
ARC
  5
239
  8
ZUWAKU
  6
CONTINUOUS
 62
     4
 10
1244.895081787615
 20
-1080.962423170455
 30
0.0
 40
9.111246695139311
 50
90.00000000000058
 51
179.9999999999999
  0
LINE
  5
23A
  8
ZUWAKU
  6
CONTINUOUS
 62
     4
 10
1235.783835092477
 20
-1080.962423170455
 30
0.0
 11
1235.783835092477
 21
-1115.064517943691
 31
0.0
  0
LINE
  5
23B
  8
ZUWAKU
  6
CONTINUOUS
 62
     4
 10
1235.783835092477
 20
-1115.064517943691
 30
0.0
 11
1313.359592668231
 21
-1115.064517943691
 31
0.0
  0
LINE
  5
23C
  8
ZUWAKU
  6
CONTINUOUS
 62
     4
 10
1313.359592668231
 20
-1115.064517943691
 30
0.0
 11
1313.359592668231
 21
-1080.962423170455
 31
0.0
  0
ARC
  5
23D
  8
ZUWAKU
  6
CONTINUOUS
 62
     4
 10
1304.248345973093
 20
-1080.962423170455
 30
0.0
 40
9.111246695139311
 50
0.0000000000000114
 51
89.99999999999905
  0
LINE
  5
23E
  8
ZUWAKU
  6
CONTINUOUS
 62
     4
 10
1304.248345973093
 20
-1071.851176475317
 30
0.0
 11
1299.302240624304
 21
-1071.851176475317
 31
0.0
  0
LINE
  5
23F
  8
ZUWAKU
  6
CONTINUOUS
 62
     4
 10
1291.456386094794
 20
-1100.181988326659
 30
0.0
 11
1291.585890712048
 21
-1099.193866508712
 31
0.0
  0
LINE
  5
240
  8
ZUWAKU
  6
CONTINUOUS
 62
     4
 10
1291.585890712048
 20
-1099.193866508712
 30
0.0
 11
1291.593831980333
 21
-1098.189826955932
 31
0.0
  0
LINE
  5
241
  8
ZUWAKU
  6
CONTINUOUS
 62
     4
 10
1291.593831980333
 20
-1098.189826955932
 30
0.0
 11
1291.480149461793
 21
-1097.17751101558
 31
0.0
  0
LINE
  5
242
  8
ZUWAKU
  6
CONTINUOUS
 62
     4
 10
1291.480149461793
 20
-1097.17751101558
 30
0.0
 11
1291.245708349046
 21
-1096.164623023226
 31
0.0
  0
LINE
  5
243
  8
ZUWAKU
  6
CONTINUOUS
 62
     4
 10
1291.245708349046
 20
-1096.164623023226
 30
0.0
 11
1290.892292880511
 21
-1095.158871668086
 31
0.0
  0
LINE
  5
244
  8
ZUWAKU
  6
CONTINUOUS
 62
     4
 10
1290.892292880511
 20
-1095.158871668086
 30
0.0
 11
1290.819766618449
 21
-1095.00585776287
 31
0.0
  0
LINE
  5
245
  8
ZUWAKU
  6
CONTINUOUS
 62
     4
 10
1288.499321937124
 20
-1091.521420381869
 30
0.0
 11
1288.355786734787
 21
-1091.35828850095
 31
0.0
  0
LINE
  5
246
  8
ZUWAKU
  6
CONTINUOUS
 62
     4
 10
1288.355786734787
 20
-1091.35828850095
 30
0.0
 11
1287.465097994512
 21
-1090.499931810424
 31
0.0
  0
LINE
  5
247
  8
ZUWAKU
  6
CONTINUOUS
 62
     4
 10
1287.465097994512
 20
-1090.499931810424
 30
0.0
 11
1286.484207626048
 21
-1089.691823477665
 31
0.0
  0
LINE
  5
248
  8
ZUWAKU
  6
CONTINUOUS
 62
     4
 10
1286.484207626048
 20
-1089.691823477665
 30
0.0
 11
1285.420580797377
 21
-1088.940113695048
 31
0.0
  0
LINE
  5
249
  8
ZUWAKU
  6
CONTINUOUS
 62
     4
 10
1285.420580797377
 20
-1088.940113695048
 30
0.0
 11
1284.282312350898
 21
-1088.250523427906
 31
0.0
  0
LINE
  5
24A
  8
ZUWAKU
  6
CONTINUOUS
 62
     4
 10
1284.282312350898
 20
-1088.250523427906
 30
0.0
 11
1283.078065196792
 21
-1087.628300874553
 31
0.0
  0
LINE
  5
24B
  8
ZUWAKU
  6
CONTINUOUS
 62
     4
 10
1283.078065196792
 20
-1087.628300874553
 30
0.0
 11
1281.817004383055
 21
-1087.078181524336
 31
0.0
  0
LINE
  5
24C
  8
ZUWAKU
  6
CONTINUOUS
 62
     4
 10
1281.817004383055
 20
-1087.078181524336
 30
0.0
 11
1280.508727343918
 21
-1086.604352117677
 31
0.0
  0
LINE
  5
24D
  8
ZUWAKU
  6
CONTINUOUS
 62
     4
 10
1280.508727343918
 20
-1086.604352117677
 30
0.0
 11
1279.163190857618
 21
-1086.210418782474
 31
0.0
  0
LINE
  5
24E
  8
ZUWAKU
  6
CONTINUOUS
 62
     4
 10
1279.163190857618
 20
-1086.210418782474
 30
0.0
 11
1277.790635269266
 21
-1085.899379589265
 31
0.0
  0
LINE
  5
24F
  8
ZUWAKU
  6
CONTINUOUS
 62
     4
 10
1277.790635269266
 20
-1085.899379589265
 30
0.0
 11
1276.401506555659
 21
-1085.673601734122
 31
0.0
  0
LINE
  5
250
  8
ZUWAKU
  6
CONTINUOUS
 62
     4
 10
1276.401506555659
 20
-1085.673601734122
 30
0.0
 11
1275.006376825096
 21
-1085.534803522846
 31
0.0
  0
LINE
  5
251
  8
ZUWAKU
  6
CONTINUOUS
 62
     4
 10
1275.006376825096
 20
-1085.534803522846
 30
0.0
 11
1273.615863857223
 21
-1085.484041293647
 31
0.0
  0
LINE
  5
252
  8
ZUWAKU
  6
CONTINUOUS
 62
     4
 10
1273.615863857223
 20
-1085.484041293647
 30
0.0
 11
1272.240550295336
 21
-1085.521701377719
 31
0.0
  0
LINE
  5
253
  8
ZUWAKU
  6
CONTINUOUS
 62
     4
 10
1272.240550295336
 20
-1085.521701377719
 30
0.0
 11
1270.890903106086
 21
-1085.647497159102
 31
0.0
  0
LINE
  5
254
  8
ZUWAKU
  6
CONTINUOUS
 62
     4
 10
1270.890903106086
 20
-1085.647497159102
 30
0.0
 11
1269.577193919523
 21
-1085.860471255943
 31
0.0
  0
LINE
  5
255
  8
ZUWAKU
  6
CONTINUOUS
 62
     4
 10
1269.577193919523
 20
-1085.860471255943
 30
0.0
 11
1268.30942085579
 21
-1086.159002806748
 31
0.0
  0
LINE
  5
256
  8
ZUWAKU
  6
CONTINUOUS
 62
     4
 10
1268.30942085579
 20
-1086.159002806748
 30
0.0
 11
1267.097232433405
 21
-1086.540819806175
 31
0.0
  0
LINE
  5
257
  8
ZUWAKU
  6
CONTINUOUS
 62
     4
 10
1267.097232433405
 20
-1086.540819806175
 30
0.0
 11
1265.949854138203
 21
-1087.00301639631
 31
0.0
  0
LINE
  5
258
  8
ZUWAKU
  6
CONTINUOUS
 62
     4
 10
1265.949854138203
 20
-1087.00301639631
 30
0.0
 11
1264.876018211818
 21
-1087.542074982005
 31
0.0
  0
LINE
  5
259
  8
ZUWAKU
  6
CONTINUOUS
 62
     4
 10
1264.876018211818
 20
-1087.542074982005
 30
0.0
 11
1263.883897194047
 21
-1088.153893001942
 31
0.0
  0
LINE
  5
25A
  8
ZUWAKU
  6
CONTINUOUS
 62
     4
 10
1263.883897194047
 20
-1088.153893001942
 30
0.0
 11
1262.981041724897
 21
-1088.833814151575
 31
0.0
  0
LINE
  5
25B
  8
ZUWAKU
  6
CONTINUOUS
 62
     4
 10
1262.981041724897
 20
-1088.833814151575
 30
0.0
 11
1262.174323079645
 21
-1089.576663820383
 31
0.0
  0
LINE
  5
25C
  8
ZUWAKU
  6
CONTINUOUS
 62
     4
 10
1262.174323079645
 20
-1089.576663820383
 30
0.0
 11
1261.46988087429
 21
-1090.376788473852
 31
0.0
  0
LINE
  5
25D
  8
ZUWAKU
  6
CONTINUOUS
 62
     4
 10
1261.46988087429
 20
-1090.376788473852
 30
0.0
 11
1261.299992218022
 21
-1090.619125685746
 31
0.0
  0
LINE
  5
25E
  8
ZUWAKU
  6
CONTINUOUS
 62
     4
 10
1260.650595293623
 20
-1091.63944110461
 30
0.0
 11
1260.388451517764
 21
-1092.12411545486
 31
0.0
  0
LINE
  5
25F
  8
ZUWAKU
  6
CONTINUOUS
 62
     4
 10
1260.388451517764
 20
-1092.12411545486
 30
0.0
 11
1260.373359254241
 21
-1092.162337736304
 31
0.0
  0
LINE
  5
260
  8
ZUWAKU
  6
CONTINUOUS
 62
     4
 10
1259.9999068798
 20
-1093.134350376183
 30
0.0
 11
1259.769612339086
 21
-1094.022703448449
 31
0.0
  0
LINE
  5
261
  8
ZUWAKU
  6
CONTINUOUS
 62
     4
 10
1259.769612339086
 20
-1094.022703448449
 30
0.0
 11
1259.640107721832
 21
-1095.010825266407
 31
0.0
  0
LINE
  5
262
  8
ZUWAKU
  6
CONTINUOUS
 62
     4
 10
1259.640107721832
 20
-1095.010825266407
 30
0.0
 11
1259.632166453553
 21
-1096.014864819176
 31
0.0
  0
LINE
  5
263
  8
ZUWAKU
  6
CONTINUOUS
 62
     4
 10
1259.632166453553
 20
-1096.014864819176
 30
0.0
 11
1259.745848972093
 21
-1097.027180759528
 31
0.0
  0
LINE
  5
264
  8
ZUWAKU
  6
CONTINUOUS
 62
     4
 10
1259.745848972093
 20
-1097.027180759528
 30
0.0
 11
1259.98029008484
 21
-1098.040068751882
 31
0.0
  0
LINE
  5
265
  8
ZUWAKU
  6
CONTINUOUS
 62
     4
 10
1259.98029008484
 20
-1098.040068751882
 30
0.0
 11
1260.333705553375
 21
-1099.045820107033
 31
0.0
  0
LINE
  5
266
  8
ZUWAKU
  6
CONTINUOUS
 62
     4
 10
1260.333705553375
 20
-1099.045820107033
 30
0.0
 11
1260.803405672577
 21
-1100.036780449864
 31
0.0
  0
LINE
  5
267
  8
ZUWAKU
  6
CONTINUOUS
 62
     4
 10
1260.803405672577
 20
-1100.036780449864
 30
0.0
 11
1261.385815740926
 21
-1101.005407973815
 31
0.0
  0
LINE
  5
268
  8
ZUWAKU
  6
CONTINUOUS
 62
     4
 10
1261.385815740926
 20
-1101.005407973815
 30
0.0
 11
1262.07650326614
 21
-1101.944330838561
 31
0.0
  0
LINE
  5
269
  8
ZUWAKU
  6
CONTINUOUS
 62
     4
 10
1262.07650326614
 20
-1101.944330838561
 30
0.0
 11
1262.870211699098
 21
-1102.846403274158
 31
0.0
  0
LINE
  5
26A
  8
ZUWAKU
  6
CONTINUOUS
 62
     4
 10
1262.870211699098
 20
-1102.846403274158
 30
0.0
 11
1263.760900439368
 21
-1103.704759964695
 31
0.0
  0
LINE
  5
26B
  8
ZUWAKU
  6
CONTINUOUS
 62
     4
 10
1263.760900439368
 20
-1103.704759964695
 30
0.0
 11
1264.741790807833
 21
-1104.512868297443
 31
0.0
  0
LINE
  5
26C
  8
ZUWAKU
  6
CONTINUOUS
 62
     4
 10
1264.741790807833
 20
-1104.512868297443
 30
0.0
 11
1265.805417636509
 21
-1105.26457808006
 31
0.0
  0
LINE
  5
26D
  8
ZUWAKU
  6
CONTINUOUS
 62
     4
 10
1265.805417636509
 20
-1105.26457808006
 30
0.0
 11
1266.943686082988
 21
-1105.954168347213
 31
0.0
  0
LINE
  5
26E
  8
ZUWAKU
  6
CONTINUOUS
 62
     4
 10
1266.943686082988
 20
-1105.954168347213
 30
0.0
 11
1268.147933237088
 21
-1106.576390900555
 31
0.0
  0
LINE
  5
26F
  8
ZUWAKU
  6
CONTINUOUS
 62
     4
 10
1268.147933237088
 20
-1106.576390900555
 30
0.0
 11
1269.40899405083
 21
-1107.126510250772
 31
0.0
  0
LINE
  5
270
  8
ZUWAKU
  6
CONTINUOUS
 62
     4
 10
1269.40899405083
 20
-1107.126510250772
 30
0.0
 11
1270.717271089962
 21
-1107.600339657431
 31
0.0
  0
LINE
  5
271
  8
ZUWAKU
  6
CONTINUOUS
 62
     4
 10
1270.717271089962
 20
-1107.600339657431
 30
0.0
 11
1272.062807576268
 21
-1107.994272992634
 31
0.0
  0
LINE
  5
272
  8
ZUWAKU
  6
CONTINUOUS
 62
     4
 10
1272.062807576268
 20
-1107.994272992634
 30
0.0
 11
1273.43536316462
 21
-1108.305312185844
 31
0.0
  0
LINE
  5
273
  8
ZUWAKU
  6
CONTINUOUS
 62
     4
 10
1273.43536316462
 20
-1108.305312185844
 30
0.0
 11
1274.824491878221
 21
-1108.531090040997
 31
0.0
  0
LINE
  5
274
  8
ZUWAKU
  6
CONTINUOUS
 62
     4
 10
1274.824491878221
 20
-1108.531090040997
 30
0.0
 11
1276.21962160879
 21
-1108.669888252262
 31
0.0
  0
LINE
  5
275
  8
ZUWAKU
  6
CONTINUOUS
 62
     4
 10
1276.21962160879
 20
-1108.669888252262
 30
0.0
 11
1277.610134576663
 21
-1108.720650481472
 31
0.0
  0
LINE
  5
276
  8
ZUWAKU
  6
CONTINUOUS
 62
     4
 10
1277.610134576663
 20
-1108.720650481472
 30
0.0
 11
1278.985448138544
 21
-1108.682990397389
 31
0.0
  0
LINE
  5
277
  8
ZUWAKU
  6
CONTINUOUS
 62
     4
 10
1278.985448138544
 20
-1108.682990397389
 30
0.0
 11
1280.335095327794
 21
-1108.557194616006
 31
0.0
  0
LINE
  5
278
  8
ZUWAKU
  6
CONTINUOUS
 62
     4
 10
1280.335095327794
 20
-1108.557194616006
 30
0.0
 11
1281.648804514363
 21
-1108.344220519176
 31
0.0
  0
LINE
  5
279
  8
ZUWAKU
  6
CONTINUOUS
 62
     4
 10
1281.648804514363
 20
-1108.344220519176
 30
0.0
 11
1282.916577578096
 21
-1108.04568896836
 31
0.0
  0
LINE
  5
27A
  8
ZUWAKU
  6
CONTINUOUS
 62
     4
 10
1282.916577578096
 20
-1108.04568896836
 30
0.0
 11
1284.128766000481
 21
-1107.663871968933
 31
0.0
  0
LINE
  5
27B
  8
ZUWAKU
  6
CONTINUOUS
 62
     4
 10
1284.128766000481
 20
-1107.663871968933
 30
0.0
 11
1285.276144295683
 21
-1107.201675378809
 31
0.0
  0
LINE
  5
27C
  8
ZUWAKU
  6
CONTINUOUS
 62
     4
 10
1285.276144295683
 20
-1107.201675378809
 30
0.0
 11
1286.349980222068
 21
-1106.662616793103
 31
0.0
  0
LINE
  5
27D
  8
ZUWAKU
  6
CONTINUOUS
 62
     4
 10
1286.349980222068
 20
-1106.662616793103
 30
0.0
 11
1287.342101239839
 21
-1106.050798773166
 31
0.0
  0
LINE
  5
27E
  8
ZUWAKU
  6
CONTINUOUS
 62
     4
 10
1287.342101239839
 20
-1106.050798773166
 30
0.0
 11
1288.244956708989
 21
-1105.370877623544
 31
0.0
  0
LINE
  5
27F
  8
ZUWAKU
  6
CONTINUOUS
 62
     4
 10
1288.244956708989
 20
-1105.370877623544
 30
0.0
 11
1289.051675354241
 21
-1104.628027954725
 31
0.0
  0
LINE
  5
280
  8
ZUWAKU
  6
CONTINUOUS
 62
     4
 10
1289.051675354241
 20
-1104.628027954725
 30
0.0
 11
1289.276555571826
 21
-1104.372602875425
 31
0.0
  0
LINE
  5
281
  8
ZUWAKU
  6
CONTINUOUS
 62
     4
 10
1289.969661715156
 20
-1103.52329382108
 30
0.0
 11
1290.352922094505
 21
-1102.976593094868
 31
0.0
  0
LINE
  5
282
  8
ZUWAKU
  6
CONTINUOUS
 62
     4
 10
1290.352922094505
 20
-1102.976593094868
 30
0.0
 11
1290.661791977816
 21
-1102.405527428652
 31
0.0
  0
LINE
  5
283
  8
ZUWAKU
  6
CONTINUOUS
 62
     4
 10
1291.112670286829
 20
-1101.383805892369
 30
0.0
 11
1291.206303736902
 21
-1101.146672206117
 31
0.0
  0
LINE
  5
284
  8
ZUWAKU
  6
CONTINUOUS
 62
     4
 10
1291.206303736902
 20
-1101.146672206117
 30
0.0
 11
1291.456386094794
 21
-1100.181988326659
 31
0.0
  0
LINE
  5
285
  8
ZUWAKU
  6
CONTINUOUS
 62
     4
 10
1290.434232102675
 20
-1099.983301717683
 30
0.0
 11
1290.555381583335
 21
-1099.058929694439
 31
0.0
  0
LINE
  5
286
  8
ZUWAKU
  6
CONTINUOUS
 62
     4
 10
1290.555381583335
 20
-1099.058929694439
 30
0.0
 11
1290.562810511728
 21
-1098.119666887008
 31
0.0
  0
LINE
  5
287
  8
ZUWAKU
  6
CONTINUOUS
 62
     4
 10
1290.562810511728
 20
-1098.119666887008
 30
0.0
 11
1290.456462349222
 21
-1097.17266165248
 31
0.0
  0
LINE
  5
288
  8
ZUWAKU
  6
CONTINUOUS
 62
     4
 10
1290.456462349222
 20
-1097.17266165248
 30
0.0
 11
1290.237146469555
 21
-1096.225121272539
 31
0.0
  0
LINE
  5
289
  8
ZUWAKU
  6
CONTINUOUS
 62
     4
 10
1290.237146469555
 20
-1096.225121272539
 30
0.0
 11
1289.950492886127
 21
-1095.409361195075
 31
0.0
  0
LINE
  5
28A
  8
ZUWAKU
  6
CONTINUOUS
 62
     4
 10
1289.514344732489
 20
-1094.456831235225
 30
0.0
 11
1289.467135113283
 21
-1094.357229684109
 31
0.0
  0
LINE
  5
28B
  8
ZUWAKU
  6
CONTINUOUS
 62
     4
 10
1289.467135113283
 20
-1094.357229684109
 30
0.0
 11
1288.922299888052
 21
-1093.451094258475
 31
0.0
  0
LINE
  5
28C
  8
ZUWAKU
  6
CONTINUOUS
 62
     4
 10
1288.922299888052
 20
-1093.451094258475
 30
0.0
 11
1288.263451701319
 21
-1092.555453893846
 31
0.0
  0
LINE
  5
28D
  8
ZUWAKU
  6
CONTINUOUS
 62
     4
 10
1287.276304870343
 20
-1091.480848727192
 30
0.0
 11
1286.700446460477
 21
-1090.925894008946
 31
0.0
  0
LINE
  5
28E
  8
ZUWAKU
  6
CONTINUOUS
 62
     4
 10
1286.700446460477
 20
-1090.925894008946
 30
0.0
 11
1285.782839341592
 21
-1090.169921697656
 31
0.0
  0
LINE
  5
28F
  8
ZUWAKU
  6
CONTINUOUS
 62
     4
 10
1285.782839341592
 20
-1090.169921697656
 30
0.0
 11
1284.78783359864
 21
-1089.466709320365
 31
0.0
  0
LINE
  5
290
  8
ZUWAKU
  6
CONTINUOUS
 62
     4
 10
1284.78783359864
 20
-1089.466709320365
 30
0.0
 11
1283.723001826123
 21
-1088.821608747884
 31
0.0
  0
LINE
  5
291
  8
ZUWAKU
  6
CONTINUOUS
 62
     4
 10
1283.723001826123
 20
-1088.821608747884
 30
0.0
 11
1282.596448036803
 21
-1088.239529585066
 31
0.0
  0
LINE
  5
292
  8
ZUWAKU
  6
CONTINUOUS
 62
     4
 10
1282.596448036803
 20
-1088.239529585066
 30
0.0
 11
1281.416745985237
 21
-1087.724901805833
 31
0.0
  0
LINE
  5
293
  8
ZUWAKU
  6
CONTINUOUS
 62
     4
 10
1281.416745985237
 20
-1087.724901805833
 30
0.0
 11
1280.192873916372
 21
-1087.281642038318
 31
0.0
  0
LINE
  5
294
  8
ZUWAKU
  6
CONTINUOUS
 62
     4
 10
1280.192873916372
 20
-1087.281642038318
 30
0.0
 11
1278.934146235636
 21
-1086.91312375699
 31
0.0
  0
LINE
  5
295
  8
ZUWAKU
  6
CONTINUOUS
 62
     4
 10
1278.934146235636
 20
-1086.91312375699
 30
0.0
 11
1277.650142620728
 21
-1086.62215160851
 31
0.0
  0
LINE
  5
296
  8
ZUWAKU
  6
CONTINUOUS
 62
     4
 10
1277.650142620728
 20
-1086.62215160851
 30
0.0
 11
1276.350635114453
 21
-1086.410940066595
 31
0.0
  0
LINE
  5
297
  8
ZUWAKU
  6
CONTINUOUS
 62
     4
 10
1276.350635114453
 20
-1086.410940066595
 30
0.0
 11
1275.045513753604
 21
-1086.281096578638
 31
0.0
  0
LINE
  5
298
  8
ZUWAKU
  6
CONTINUOUS
 62
     4
 10
1275.045513753604
 20
-1086.281096578638
 30
0.0
 11
1273.744711299785
 21
-1086.233609331962
 31
0.0
  0
LINE
  5
299
  8
ZUWAKU
  6
CONTINUOUS
 62
     4
 10
1273.744711299785
 20
-1086.233609331962
 30
0.0
 11
1272.458127645117
 21
-1086.268839733199
 31
0.0
  0
LINE
  5
29A
  8
ZUWAKU
  6
CONTINUOUS
 62
     4
 10
1272.458127645117
 20
-1086.268839733199
 30
0.0
 11
1271.195554468078
 21
-1086.386519657721
 31
0.0
  0
LINE
  5
29B
  8
ZUWAKU
  6
CONTINUOUS
 62
     4
 10
1271.195554468078
 20
-1086.386519657721
 30
0.0
 11
1269.966600712905
 21
-1086.585753490236
 31
0.0
  0
LINE
  5
29C
  8
ZUWAKU
  6
CONTINUOUS
 62
     4
 10
1269.966600712905
 20
-1086.585753490236
 30
0.0
 11
1268.780619459734
 21
-1086.865024940999
 31
0.0
  0
LINE
  5
29D
  8
ZUWAKU
  6
CONTINUOUS
 62
     4
 10
1268.780619459734
 20
-1086.865024940999
 30
0.0
 11
1267.646636742021
 21
-1087.222208585624
 31
0.0
  0
LINE
  5
29E
  8
ZUWAKU
  6
CONTINUOUS
 62
     4
 10
1267.646636742021
 20
-1087.222208585624
 30
0.0
 11
1266.573282852961
 21
-1087.654586040907
 31
0.0
  0
LINE
  5
29F
  8
ZUWAKU
  6
CONTINUOUS
 62
     4
 10
1266.573282852961
 20
-1087.654586040907
 30
0.0
 11
1265.568726663763
 21
-1088.158866653332
 31
0.0
  0
LINE
  5
2A0
  8
ZUWAKU
  6
CONTINUOUS
 62
     4
 10
1265.568726663763
 20
-1088.158866653332
 30
0.0
 11
1264.640613453589
 21
-1088.731212542953
 31
0.0
  0
LINE
  5
2A1
  8
ZUWAKU
  6
CONTINUOUS
 62
     4
 10
1264.640613453589
 20
-1088.731212542953
 30
0.0
 11
1263.796006724385
 21
-1089.367267811955
 31
0.0
  0
LINE
  5
2A2
  8
ZUWAKU
  6
CONTINUOUS
 62
     4
 10
1263.796006724385
 20
-1089.367267811955
 30
0.0
 11
1263.041334443341
 21
-1090.062191695685
 31
0.0
  0
LINE
  5
2A3
  8
ZUWAKU
  6
CONTINUOUS
 62
     4
 10
1263.041334443341
 20
-1090.062191695685
 30
0.0
 11
1262.515500473975
 21
-1090.659448247505
 31
0.0
  0
LINE
  5
2A4
  8
ZUWAKU
  6
CONTINUOUS
 62
     4
 10
1261.786162609012
 20
-1091.677111752237
 30
0.0
 11
1261.370680401585
 21
-1092.445291611807
 31
0.0
  0
LINE
  5
2A5
  8
ZUWAKU
  6
CONTINUOUS
 62
     4
 10
1261.370680401585
 20
-1092.445291611807
 30
0.0
 11
1261.336432518841
 21
-1092.532026925685
 31
0.0
  0
LINE
  5
2A6
  8
ZUWAKU
  6
CONTINUOUS
 62
     4
 10
1260.976395572953
 20
-1093.509189266105
 30
0.0
 11
1260.79176633121
 21
-1094.221390057425
 31
0.0
  0
LINE
  5
2A7
  8
ZUWAKU
  6
CONTINUOUS
 62
     4
 10
1260.79176633121
 20
-1094.221390057425
 30
0.0
 11
1260.670616850551
 21
-1095.145762080669
 31
0.0
  0
LINE
  5
2A8
  8
ZUWAKU
  6
CONTINUOUS
 62
     4
 10
1260.670616850551
 20
-1095.145762080669
 30
0.0
 11
1260.663187922158
 21
-1096.085024888111
 31
0.0
  0
LINE
  5
2A9
  8
ZUWAKU
  6
CONTINUOUS
 62
     4
 10
1260.663187922158
 20
-1096.085024888111
 30
0.0
 11
1260.769536084664
 21
-1097.032030122628
 31
0.0
  0
LINE
  5
2AA
  8
ZUWAKU
  6
CONTINUOUS
 62
     4
 10
1260.769536084664
 20
-1097.032030122628
 30
0.0
 11
1260.988851964331
 21
-1097.979570502569
 31
0.0
  0
LINE
  5
2AB
  8
ZUWAKU
  6
CONTINUOUS
 62
     4
 10
1260.988851964331
 20
-1097.979570502569
 30
0.0
 11
1261.319466434893
 21
-1098.920434673518
 31
0.0
  0
LINE
  5
2AC
  8
ZUWAKU
  6
CONTINUOUS
 62
     4
 10
1261.319466434893
 20
-1098.920434673518
 30
0.0
 11
1261.758863320597
 21
-1099.84746209101
 31
0.0
  0
LINE
  5
2AD
  8
ZUWAKU
  6
CONTINUOUS
 62
     4
 10
1261.758863320597
 20
-1099.84746209101
 30
0.0
 11
1262.303698545829
 21
-1100.753597516644
 31
0.0
  0
LINE
  5
2AE
  8
ZUWAKU
  6
CONTINUOUS
 62
     4
 10
1262.303698545829
 20
-1100.753597516644
 30
0.0
 11
1262.949825585544
 21
-1101.631944712692
 31
0.0
  0
LINE
  5
2AF
  8
ZUWAKU
  6
CONTINUOUS
 62
     4
 10
1262.949825585544
 20
-1101.631944712692
 30
0.0
 11
1263.692327022826
 21
-1102.475818926637
 31
0.0
  0
LINE
  5
2B0
  8
ZUWAKU
  6
CONTINUOUS
 62
     4
 10
1263.692327022826
 20
-1102.475818926637
 30
0.0
 11
1264.525551973408
 21
-1103.278797766162
 31
0.0
  0
LINE
  5
2B1
  8
ZUWAKU
  6
CONTINUOUS
 62
     4
 10
1264.525551973408
 20
-1103.278797766162
 30
0.0
 11
1265.443159092293
 21
-1104.034770077452
 31
0.0
  0
LINE
  5
2B2
  8
ZUWAKU
  6
CONTINUOUS
 62
     4
 10
1265.443159092293
 20
-1104.034770077452
 30
0.0
 11
1266.438164835246
 21
-1104.737982454743
 31
0.0
  0
LINE
  5
2B3
  8
ZUWAKU
  6
CONTINUOUS
 62
     4
 10
1266.438164835246
 20
-1104.737982454743
 30
0.0
 11
1267.502996607757
 21
-1105.383083027235
 31
0.0
  0
LINE
  5
2B4
  8
ZUWAKU
  6
CONTINUOUS
 62
     4
 10
1267.502996607757
 20
-1105.383083027235
 30
0.0
 11
1268.629550397083
 21
-1105.965162190042
 31
0.0
  0
LINE
  5
2B5
  8
ZUWAKU
  6
CONTINUOUS
 62
     4
 10
1268.629550397083
 20
-1105.965162190042
 30
0.0
 11
1269.809252448643
 21
-1106.479789969276
 31
0.0
  0
LINE
  5
2B6
  8
ZUWAKU
  6
CONTINUOUS
 62
     4
 10
1269.809252448643
 20
-1106.479789969276
 30
0.0
 11
1271.033124517514
 21
-1106.923049736791
 31
0.0
  0
LINE
  5
2B7
  8
ZUWAKU
  6
CONTINUOUS
 62
     4
 10
1271.033124517514
 20
-1106.923049736791
 30
0.0
 11
1272.291852198244
 21
-1107.291568018118
 31
0.0
  0
LINE
  5
2B8
  8
ZUWAKU
  6
CONTINUOUS
 62
     4
 10
1272.291852198244
 20
-1107.291568018118
 30
0.0
 11
1273.575855813158
 21
-1107.582540166598
 31
0.0
  0
LINE
  5
2B9
  8
ZUWAKU
  6
CONTINUOUS
 62
     4
 10
1273.575855813158
 20
-1107.582540166598
 30
0.0
 11
1274.875363319433
 21
-1107.793751708513
 31
0.0
  0
LINE
  5
2BA
  8
ZUWAKU
  6
CONTINUOUS
 62
     4
 10
1274.875363319433
 20
-1107.793751708513
 30
0.0
 11
1276.180484680282
 21
-1107.923595196481
 31
0.0
  0
LINE
  5
2BB
  8
ZUWAKU
  6
CONTINUOUS
 62
     4
 10
1276.180484680282
 20
-1107.923595196481
 30
0.0
 11
1277.481287134101
 21
-1107.971082443147
 31
0.0
  0
LINE
  5
2BC
  8
ZUWAKU
  6
CONTINUOUS
 62
     4
 10
1277.481287134101
 20
-1107.971082443147
 30
0.0
 11
1278.767870788764
 21
-1107.93585204192
 31
0.0
  0
LINE
  5
2BD
  8
ZUWAKU
  6
CONTINUOUS
 62
     4
 10
1278.767870788764
 20
-1107.93585204192
 30
0.0
 11
1280.030443965802
 21
-1107.818172117398
 31
0.0
  0
LINE
  5
2BE
  8
ZUWAKU
  6
CONTINUOUS
 62
     4
 10
1280.030443965802
 20
-1107.818172117398
 30
0.0
 11
1281.259397720981
 21
-1107.618938284872
 31
0.0
  0
LINE
  5
2BF
  8
ZUWAKU
  6
CONTINUOUS
 62
     4
 10
1281.259397720981
 20
-1107.618938284872
 30
0.0
 11
1282.445378974152
 21
-1107.33966683412
 31
0.0
  0
LINE
  5
2C0
  8
ZUWAKU
  6
CONTINUOUS
 62
     4
 10
1282.445378974152
 20
-1107.33966683412
 30
0.0
 11
1283.579361691865
 21
-1106.982483189485
 31
0.0
  0
LINE
  5
2C1
  8
ZUWAKU
  6
CONTINUOUS
 62
     4
 10
1283.579361691865
 20
-1106.982483189485
 30
0.0
 11
1284.652715580925
 21
-1106.550105734212
 31
0.0
  0
LINE
  5
2C2
  8
ZUWAKU
  6
CONTINUOUS
 62
     4
 10
1284.652715580925
 20
-1106.550105734212
 30
0.0
 11
1285.657271770123
 21
-1106.045825121776
 31
0.0
  0
LINE
  5
2C3
  8
ZUWAKU
  6
CONTINUOUS
 62
     4
 10
1285.657271770123
 20
-1106.045825121776
 30
0.0
 11
1286.585384980296
 21
-1105.473479232155
 31
0.0
  0
LINE
  5
2C4
  8
ZUWAKU
  6
CONTINUOUS
 62
     4
 10
1286.585384980296
 20
-1105.473479232155
 30
0.0
 11
1287.429991709501
 21
-1104.837423963153
 31
0.0
  0
LINE
  5
2C5
  8
ZUWAKU
  6
CONTINUOUS
 62
     4
 10
1287.429991709501
 20
-1104.837423963153
 30
0.0
 11
1288.184663990545
 21
-1104.142500079423
 31
0.0
  0
LINE
  5
2C6
  8
ZUWAKU
  6
CONTINUOUS
 62
     4
 10
1288.184663990545
 20
-1104.142500079423
 30
0.0
 11
1288.309054459826
 21
-1104.001213994671
 31
0.0
  0
LINE
  5
2C7
  8
ZUWAKU
  6
CONTINUOUS
 62
     4
 10
1289.010996800607
 20
-1103.15529683873
 30
0.0
 11
1289.401959328215
 21
-1102.597609404064
 31
0.0
  0
LINE
  5
2C8
  8
ZUWAKU
  6
CONTINUOUS
 62
     4
 10
1289.401959328215
 20
-1102.597609404064
 30
0.0
 11
1289.855318032301
 21
-1101.759400163301
 31
0.0
  0
LINE
  5
2C9
  8
ZUWAKU
  6
CONTINUOUS
 62
     4
 10
1289.855318032301
 20
-1101.759400163301
 30
0.0
 11
1289.900708916771
 21
-1101.644444367602
 31
0.0
  0
LINE
  5
2CA
  8
ZUWAKU
  6
CONTINUOUS
 62
     4
 10
1290.285581308873
 20
-1100.556716914413
 30
0.0
 11
1290.434232102675
 21
-1099.983301717683
 31
0.0
  0
LINE
  5
2CB
  8
ZUWAKU
  6
CONTINUOUS
 62
     4
 10
1259.272895816653
 20
-1096.578088428746
 30
0.0
 11
1259.143391199398
 21
-1097.566210246704
 31
0.0
  0
LINE
  5
2CC
  8
ZUWAKU
  6
CONTINUOUS
 62
     4
 10
1259.143391199398
 20
-1097.566210246704
 30
0.0
 11
1259.135449931114
 21
-1098.570249799483
 31
0.0
  0
LINE
  5
2CD
  8
ZUWAKU
  6
CONTINUOUS
 62
     4
 10
1259.135449931114
 20
-1098.570249799483
 30
0.0
 11
1259.249132449654
 21
-1099.582565739824
 31
0.0
  0
LINE
  5
2CE
  8
ZUWAKU
  6
CONTINUOUS
 62
     4
 10
1259.249132449654
 20
-1099.582565739824
 30
0.0
 11
1259.483573562401
 21
-1100.595453732178
 31
0.0
  0
LINE
  5
2CF
  8
ZUWAKU
  6
CONTINUOUS
 62
     4
 10
1259.483573562401
 20
-1100.595453732178
 30
0.0
 11
1259.836989030936
 21
-1101.601205087329
 31
0.0
  0
LINE
  5
2D0
  8
ZUWAKU
  6
CONTINUOUS
 62
     4
 10
1259.836989030936
 20
-1101.601205087329
 30
0.0
 11
1260.306689150138
 21
-1102.592165430161
 31
0.0
  0
LINE
  5
2D1
  8
ZUWAKU
  6
CONTINUOUS
 62
     4
 10
1260.306689150138
 20
-1102.592165430161
 30
0.0
 11
1260.889099218487
 21
-1103.560792954123
 31
0.0
  0
LINE
  5
2D2
  8
ZUWAKU
  6
CONTINUOUS
 62
     4
 10
1260.889099218487
 20
-1103.560792954123
 30
0.0
 11
1261.579786743701
 21
-1104.499715818868
 31
0.0
  0
LINE
  5
2D3
  8
ZUWAKU
  6
CONTINUOUS
 62
     4
 10
1261.579786743701
 20
-1104.499715818868
 30
0.0
 11
1262.373495176659
 21
-1105.401788254455
 31
0.0
  0
LINE
  5
2D4
  8
ZUWAKU
  6
CONTINUOUS
 62
     4
 10
1262.373495176659
 20
-1105.401788254455
 30
0.0
 11
1263.264183916935
 21
-1106.260144944991
 31
0.0
  0
LINE
  5
2D5
  8
ZUWAKU
  6
CONTINUOUS
 62
     4
 10
1263.264183916935
 20
-1106.260144944991
 30
0.0
 11
1264.245074285399
 21
-1107.06825327774
 31
0.0
  0
LINE
  5
2D6
  8
ZUWAKU
  6
CONTINUOUS
 62
     4
 10
1264.245074285399
 20
-1107.06825327774
 30
0.0
 11
1265.30870111407
 21
-1107.819963060367
 31
0.0
  0
LINE
  5
2D7
  8
ZUWAKU
  6
CONTINUOUS
 62
     4
 10
1265.30870111407
 20
-1107.819963060367
 30
0.0
 11
1266.446969560549
 21
-1108.50955332751
 31
0.0
  0
LINE
  5
2D8
  8
ZUWAKU
  6
CONTINUOUS
 62
     4
 10
1266.446969560549
 20
-1108.50955332751
 30
0.0
 11
1267.651216714655
 21
-1109.131775880863
 31
0.0
  0
LINE
  5
2D9
  8
ZUWAKU
  6
CONTINUOUS
 62
     4
 10
1267.651216714655
 20
-1109.131775880863
 30
0.0
 11
1268.912277528392
 21
-1109.681895231079
 31
0.0
  0
LINE
  5
2DA
  8
ZUWAKU
  6
CONTINUOUS
 62
     4
 10
1268.912277528392
 20
-1109.681895231079
 30
0.0
 11
1270.220554567529
 21
-1110.155724637728
 31
0.0
  0
LINE
  5
2DB
  8
ZUWAKU
  6
CONTINUOUS
 62
     4
 10
1270.220554567529
 20
-1110.155724637728
 30
0.0
 11
1271.566091053829
 21
-1110.549657972941
 31
0.0
  0
LINE
  5
2DC
  8
ZUWAKU
  6
CONTINUOUS
 62
     4
 10
1271.566091053829
 20
-1110.549657972941
 30
0.0
 11
1272.938646642181
 21
-1110.860697166151
 31
0.0
  0
LINE
  5
2DD
  8
ZUWAKU
  6
CONTINUOUS
 62
     4
 10
1272.938646642181
 20
-1110.860697166151
 30
0.0
 11
1274.327775355788
 21
-1111.086475021294
 31
0.0
  0
LINE
  5
2DE
  8
ZUWAKU
  6
CONTINUOUS
 62
     4
 10
1274.327775355788
 20
-1111.086475021294
 30
0.0
 11
1275.722905086351
 21
-1111.225273232558
 31
0.0
  0
LINE
  5
2DF
  8
ZUWAKU
  6
CONTINUOUS
 62
     4
 10
1275.722905086351
 20
-1111.225273232558
 30
0.0
 11
1277.113418054224
 21
-1111.276035461768
 31
0.0
  0
LINE
  5
2E0
  8
ZUWAKU
  6
CONTINUOUS
 62
     4
 10
1277.113418054224
 20
-1111.276035461768
 30
0.0
 11
1278.48873161611
 21
-1111.238375377686
 31
0.0
  0
LINE
  5
2E1
  8
ZUWAKU
  6
CONTINUOUS
 62
     4
 10
1278.48873161611
 20
-1111.238375377686
 30
0.0
 11
1279.838378805361
 21
-1111.112579596302
 31
0.0
  0
LINE
  5
2E2
  8
ZUWAKU
  6
CONTINUOUS
 62
     4
 10
1279.838378805361
 20
-1111.112579596302
 30
0.0
 11
1281.152087991924
 21
-1110.899605499472
 31
0.0
  0
LINE
  5
2E3
  8
ZUWAKU
  6
CONTINUOUS
 62
     4
 10
1281.152087991924
 20
-1110.899605499472
 30
0.0
 11
1282.419861055657
 21
-1110.601073948656
 31
0.0
  0
LINE
  5
2E4
  8
ZUWAKU
  6
CONTINUOUS
 62
     4
 10
1282.419861055657
 20
-1110.601073948656
 30
0.0
 11
1283.632049478042
 21
-1110.21925694923
 31
0.0
  0
LINE
  5
2E5
  8
ZUWAKU
  6
CONTINUOUS
 62
     4
 10
1283.632049478042
 20
-1110.21925694923
 30
0.0
 11
1284.779427773244
 21
-1109.757060359105
 31
0.0
  0
LINE
  5
2E6
  8
ZUWAKU
  6
CONTINUOUS
 62
     4
 10
1284.779427773244
 20
-1109.757060359105
 30
0.0
 11
1285.853263699629
 21
-1109.2180017734
 31
0.0
  0
LINE
  5
2E7
  8
ZUWAKU
  6
CONTINUOUS
 62
     4
 10
1285.853263699629
 20
-1109.2180017734
 30
0.0
 11
1286.8453847174
 21
-1108.606183753462
 31
0.0
  0
LINE
  5
2E8
  8
ZUWAKU
  6
CONTINUOUS
 62
     4
 10
1286.8453847174
 20
-1108.606183753462
 30
0.0
 11
1287.74824018655
 21
-1107.926262603841
 31
0.0
  0
LINE
  5
2E9
  8
ZUWAKU
  6
CONTINUOUS
 62
     4
 10
1287.74824018655
 20
-1107.926262603841
 30
0.0
 11
1288.546774144024
 21
-1107.190949630313
 31
0.0
  0
LINE
  5
2EA
  8
ZUWAKU
  6
CONTINUOUS
 62
     4
 10
1286.663839361521
 20
-1096.934974967055
 30
0.0
 11
1290.285581308873
 21
-1100.556716914413
 31
0.0
  0
LINE
  5
2EB
  8
ZUWAKU
  6
CONTINUOUS
 62
     4
 10
1291.112670286829
 20
-1101.383805892369
 30
0.0
 11
1296.414672216058
 21
-1106.685807821593
 31
0.0
  0
LINE
  5
2EC
  8
ZUWAKU
  6
CONTINUOUS
 62
     4
 10
1285.927539438867
 20
-1097.671274889709
 30
0.0
 11
1289.900708916771
 21
-1101.644444367602
 31
0.0
  0
LINE
  5
2ED
  8
ZUWAKU
  6
CONTINUOUS
 62
     4
 10
1290.661791977816
 20
-1102.405527428652
 30
0.0
 11
1292.214353507697
 21
-1103.958088958527
 31
0.0
  0
LINE
  5
2EE
  8
ZUWAKU
  6
CONTINUOUS
 62
     4
 10
1291.963660588267
 20
-1101.498496271154
 30
0.0
 11
1297.919695025618
 21
-1107.4545307085
 31
0.0
  0
LINE
  5
2EF
  8
ZUWAKU
  6
CONTINUOUS
 62
     4
 10
1251.901791232366
 20
-1090.224966114737
 30
0.0
 11
1251.516801382271
 21
-1092.205567194175
 31
0.0
  0
LINE
  5
2F0
  8
ZUWAKU
  6
CONTINUOUS
 62
     4
 10
1261.191790948936
 20
-1089.904757454308
 30
0.0
 11
1261.801577776592
 21
-1089.21214495826
 31
0.0
  0
LINE
  5
2F1
  8
ZUWAKU
  6
CONTINUOUS
 62
     4
 10
1261.801577776592
 20
-1089.21214495826
 30
0.0
 11
1262.647288554622
 21
-1088.43339021512
 31
0.0
  0
LINE
  5
2F2
  8
ZUWAKU
  6
CONTINUOUS
 62
     4
 10
1262.647288554622
 20
-1088.43339021512
 30
0.0
 11
1263.590020317182
 21
-1087.723439081536
 31
0.0
  0
LINE
  5
2F3
  8
ZUWAKU
  6
CONTINUOUS
 62
     4
 10
1263.590020317182
 20
-1087.723439081536
 30
0.0
 11
1264.622102698152
 21
-1087.086977815791
 31
0.0
  0
LINE
  5
2F4
  8
ZUWAKU
  6
CONTINUOUS
 62
     4
 10
1264.622102698152
 20
-1087.086977815791
 30
0.0
 11
1265.735431757671
 21
-1086.528093936512
 31
0.0
  0
LINE
  5
2F5
  8
ZUWAKU
  6
CONTINUOUS
 62
     4
 10
1265.735431757671
 20
-1086.528093936512
 30
0.0
 11
1266.921488759684
 21
-1086.050316463884
 31
0.0
  0
LINE
  5
2F6
  8
ZUWAKU
  6
CONTINUOUS
 62
     4
 10
1266.921488759684
 20
-1086.050316463884
 30
0.0
 11
1268.171356293525
 21
-1085.656631239181
 31
0.0
  0
LINE
  5
2F7
  8
ZUWAKU
  6
CONTINUOUS
 62
     4
 10
1268.171356293525
 20
-1085.656631239181
 30
0.0
 11
1269.475741449303
 21
-1085.349478378351
 31
0.0
  0
LINE
  5
2F8
  8
ZUWAKU
  6
CONTINUOUS
 62
     4
 10
1269.475741449303
 20
-1085.349478378351
 30
0.0
 11
1270.825010011627
 21
-1085.130739515604
 31
0.0
  0
LINE
  5
2F9
  8
ZUWAKU
  6
CONTINUOUS
 62
     4
 10
1270.825010011627
 20
-1085.130739515604
 30
0.0
 11
1272.209232062368
 21
-1085.001721135199
 31
0.0
  0
LINE
  5
2FA
  8
ZUWAKU
  6
CONTINUOUS
 62
     4
 10
1272.209232062368
 20
-1085.001721135199
 30
0.0
 11
1273.618237587819
 21
-1084.963138467193
 31
0.0
  0
LINE
  5
2FB
  8
ZUWAKU
  6
CONTINUOUS
 62
     4
 10
1273.618237587819
 20
-1084.963138467193
 30
0.0
 11
1275.041680011075
 21
-1085.015102822953
 31
0.0
  0
LINE
  5
2FC
  8
ZUWAKU
  6
CONTINUOUS
 62
     4
 10
1275.041680011075
 20
-1085.015102822953
 30
0.0
 11
1276.469105481742
 21
-1085.157114062273
 31
0.0
  0
LINE
  5
2FD
  8
ZUWAKU
  6
CONTINUOUS
 62
     4
 10
1276.469105481742
 20
-1085.157114062273
 30
0.0
 11
1277.890025906464
 21
-1085.388059087513
 31
0.0
  0
LINE
  5
2FE
  8
ZUWAKU
  6
CONTINUOUS
 62
     4
 10
1277.890025906464
 20
-1085.388059087513
 30
0.0
 11
1279.293993912054
 21
-1085.706216748634
 31
0.0
  0
LINE
  5
2FF
  8
ZUWAKU
  6
CONTINUOUS
 62
     4
 10
1279.293993912054
 20
-1085.706216748634
 30
0.0
 11
1280.670678108641
 21
-1086.109269213296
 31
0.0
  0
LINE
  5
300
  8
ZUWAKU
  6
CONTINUOUS
 62
     4
 10
1280.670678108641
 20
-1086.109269213296
 30
0.0
 11
1282.009937131686
 21
-1086.594319618722
 31
0.0
  0
LINE
  5
301
  8
ZUWAKU
  6
CONTINUOUS
 62
     4
 10
1282.009937131686
 20
-1086.594319618722
 30
0.0
 11
1283.30189098405
 21
-1087.157915605549
 31
0.0
  0
LINE
  5
302
  8
ZUWAKU
  6
CONTINUOUS
 62
     4
 10
1283.30189098405
 20
-1087.157915605549
 30
0.0
 11
1284.536988184665
 21
-1087.79607807177
 31
0.0
  0
LINE
  5
303
  8
ZUWAKU
  6
CONTINUOUS
 62
     4
 10
1284.536988184665
 20
-1087.79607807177
 30
0.0
 11
1285.706067190905
 21
-1088.504334113409
 31
0.0
  0
LINE
  5
304
  8
ZUWAKU
  6
CONTINUOUS
 62
     4
 10
1285.706067190905
 20
-1088.504334113409
 30
0.0
 11
1286.800410560626
 21
-1089.277752566559
 31
0.0
  0
LINE
  5
305
  8
ZUWAKU
  6
CONTINUOUS
 62
     4
 10
1286.800410560626
 20
-1089.277752566559
 30
0.0
 11
1287.811790477442
 21
-1090.110979769762
 31
0.0
  0
LINE
  5
306
  8
ZUWAKU
  6
CONTINUOUS
 62
     4
 10
1287.811790477442
 20
-1090.110979769762
 30
0.0
 11
1288.599141549437
 21
-1090.869749954993
 31
0.0
  0
LINE
  5
307
  8
ZUWAKU
  6
CONTINUOUS
 62
     4
 10
1259.272895816653
 20
-1096.578088428746
 30
0.0
 11
1259.358553141429
 21
-1096.137419694555
 31
0.0
  0
LINE
  5
308
  8
ZUWAKU
  6
CONTINUOUS
 62
     4
 10
1292.003570404607
 20
-1097.173108543547
 30
0.0
 11
1292.114705192165
 21
-1098.162737542106
 31
0.0
  0
LINE
  5
309
  8
ZUWAKU
  6
CONTINUOUS
 62
     4
 10
1292.114705192165
 20
-1098.162737542106
 30
0.0
 11
1292.106264752117
 21
-1099.229888953524
 31
0.0
  0
LINE
  5
30A
  8
ZUWAKU
  6
CONTINUOUS
 62
     4
 10
1292.106264752117
 20
-1099.229888953524
 30
0.0
 11
1291.972613994683
 21
-1100.249645871893
 31
0.0
  0
LINE
  5
30B
  8
ZUWAKU
  6
CONTINUOUS
 62
     4
 10
1291.972613994683
 20
-1100.249645871893
 30
0.0
 11
1291.820733553535
 21
-1101.031003005345
 31
0.0
  0
ARC
  5
30C
  8
ZUWAKU
  6
CONTINUOUS
 62
     4
 10
1292.331810549594
 20
-1101.130346309827
 30
0.0
 40
0.5206426682936749
 50
168.9999999999997
 51
224.9999999999998
  0
LINE
  5
30D
  8
ZUWAKU
  6
CONTINUOUS
 62
     4
 10
1297.708609720027
 20
-1109.743259581421
 30
0.0
 11
1298.062622060351
 21
-1107.922023974309
 31
0.0
  0
ARC
  5
30E
  8
ZUWAKU
  6
CONTINUOUS
 62
     4
 10
1297.551545064292
 20
-1107.822680669826
 30
0.0
 40
0.5206426682936749
 50
349.0000000000001
 51
45.00000000000005
  0
ARC
  5
30F
  8
ZUWAKU
  6
CONTINUOUS
 62
     4
 10
1286.663839361521
 20
-1096.934974967055
 30
0.0
 40
1.04128533658735
 50
114.9999999999996
 51
225.0
  0
ARC
  5
310
  8
ZUWAKU
  6
CONTINUOUS
 62
     4
 10
1286.663839361521
 20
-1096.934974967055
 30
0.0
 40
1.561928004881011
 50
138.0853946908566
 51
168.9999999999998
  0
ARC
  5
311
  8
ZUWAKU
  6
CONTINUOUS
 62
     4
 10
1285.114112546005
 20
-1095.543771385241
 30
0.0
 40
0.5206426682936749
 50
318.0853946908566
 51
88.10000000000012
  0
LINE
  5
312
  8
ZUWAKU
  6
CONTINUOUS
 62
     4
 10
1261.370271525003
 20
-1097.318598468043
 30
0.0
 11
1261.489593930245
 21
-1097.834123369249
 31
0.0
  0
LINE
  5
313
  8
ZUWAKU
  6
CONTINUOUS
 62
     4
 10
1261.489593930245
 20
-1097.834123369249
 30
0.0
 11
1261.801621030928
 21
-1098.722091518056
 31
0.0
  0
LINE
  5
314
  8
ZUWAKU
  6
CONTINUOUS
 62
     4
 10
1261.801621030928
 20
-1098.722091518056
 30
0.0
 11
1262.218315318246
 21
-1099.601221620302
 31
0.0
  0
LINE
  5
315
  8
ZUWAKU
  6
CONTINUOUS
 62
     4
 10
1262.218315318246
 20
-1099.601221620302
 30
0.0
 11
1262.737427318035
 21
-1100.464575807215
 31
0.0
  0
LINE
  5
316
  8
ZUWAKU
  6
CONTINUOUS
 62
     4
 10
1262.737427318035
 20
-1100.464575807215
 30
0.0
 11
1263.355734349348
 21
-1101.305104393502
 31
0.0
  0
LINE
  5
317
  8
ZUWAKU
  6
CONTINUOUS
 62
     4
 10
1263.355734349348
 20
-1101.305104393502
 30
0.0
 11
1264.069045076919
 21
-1102.115802527271
 31
0.0
  0
LINE
  5
318
  8
ZUWAKU
  6
CONTINUOUS
 62
     4
 10
1264.069045076919
 20
-1102.115802527271
 30
0.0
 11
1264.872244456338
 21
-1102.88984572551
 31
0.0
  0
LINE
  5
319
  8
ZUWAKU
  6
CONTINUOUS
 62
     4
 10
1264.872244456338
 20
-1102.88984572551
 30
0.0
 11
1265.759362026872
 21
-1103.620699166346
 31
0.0
  0
LINE
  5
31A
  8
ZUWAKU
  6
CONTINUOUS
 62
     4
 10
1265.759362026872
 20
-1103.620699166346
 30
0.0
 11
1266.723651228774
 21
-1104.302202873104
 31
0.0
  0
LINE
  5
31B
  8
ZUWAKU
  6
CONTINUOUS
 62
     4
 10
1266.723651228774
 20
-1104.302202873104
 30
0.0
 11
1267.757672441524
 21
-1104.9286376711
 31
0.0
  0
LINE
  5
31C
  8
ZUWAKU
  6
CONTINUOUS
 62
     4
 10
1267.757672441524
 20
-1104.9286376711
 30
0.0
 11
1268.853376184346
 21
-1105.494776921049
 31
0.0
  0
LINE
  5
31D
  8
ZUWAKU
  6
CONTINUOUS
 62
     4
 10
1268.853376184346
 20
-1105.494776921049
 30
0.0
 11
1270.002185197279
 21
-1105.995928063662
 31
0.0
  0
LINE
  5
31E
  8
ZUWAKU
  6
CONTINUOUS
 62
     4
 10
1270.002185197279
 20
-1105.995928063662
 30
0.0
 11
1271.195075282237
 21
-1106.42796683241
 31
0.0
  0
LINE
  5
31F
  8
ZUWAKU
  6
CONTINUOUS
 62
     4
 10
1271.195075282237
 20
-1106.42796683241
 30
0.0
 11
1272.422655252686
 21
-1106.787365984278
 31
0.0
  0
LINE
  5
320
  8
ZUWAKU
  6
CONTINUOUS
 62
     4
 10
1272.422655252686
 20
-1106.787365984278
 30
0.0
 11
1273.675246450356
 21
-1107.071219664857
 31
0.0
  0
LINE
  5
321
  8
ZUWAKU
  6
CONTINUOUS
 62
     4
 10
1273.675246450356
 20
-1107.071219664857
 30
0.0
 11
1274.942962245517
 21
-1107.277264036665
 31
0.0
  0
LINE
  5
322
  8
ZUWAKU
  6
CONTINUOUS
 62
     4
 10
1274.942962245517
 20
-1107.277264036665
 30
0.0
 11
1276.215787866267
 21
-1107.403894496588
 31
0.0
  0
LINE
  5
323
  8
ZUWAKU
  6
CONTINUOUS
 62
     4
 10
1276.215787866267
 20
-1107.403894496588
 30
0.0
 11
1277.483660864698
 21
-1107.450179616703
 31
0.0
  0
LINE
  5
324
  8
ZUWAKU
  6
CONTINUOUS
 62
     4
 10
1277.483660864698
 20
-1107.450179616703
 30
0.0
 11
1278.736552555801
 21
-1107.415871799389
 31
0.0
  0
LINE
  5
325
  8
ZUWAKU
  6
CONTINUOUS
 62
     4
 10
1278.736552555801
 20
-1107.415871799389
 30
0.0
 11
1279.964550871338
 21
-1107.3014144739
 31
0.0
  0
LINE
  5
326
  8
ZUWAKU
  6
CONTINUOUS
 62
     4
 10
1279.964550871338
 20
-1107.3014144739
 30
0.0
 11
1281.157945250761
 21
-1107.107945407279
 31
0.0
  0
LINE
  5
327
  8
ZUWAKU
  6
CONTINUOUS
 62
     4
 10
1281.157945250761
 20
-1107.107945407279
 30
0.0
 11
1282.307314411882
 21
-1106.837295266542
 31
0.0
  0
LINE
  5
328
  8
ZUWAKU
  6
CONTINUOUS
 62
     4
 10
1282.307314411882
 20
-1106.837295266542
 30
0.0
 11
1283.403618018144
 21
-1106.491979847194
 31
0.0
  0
LINE
  5
329
  8
ZUWAKU
  6
CONTINUOUS
 62
     4
 10
1284.191000757411
 20
-1106.174799699435
 30
0.0
 11
1283.403618018144
 21
-1106.491979847194
 31
0.0
  0
LINE
  5
32A
  8
ZUWAKU
  6
CONTINUOUS
 62
     4
 10
1285.182502632043
 20
-1099.978339585615
 30
0.0
 11
1286.355605608503
 21
-1101.151442562074
 31
0.0
  0
LINE
  5
32B
  8
ZUWAKU
  6
CONTINUOUS
 62
     4
 10
1285.130608373337
 20
-1096.636945053586
 30
0.0
 11
1284.75372152784
 21
-1098.575859788177
 31
0.0
  0
ARC
  5
32C
  8
ZUWAKU
  6
CONTINUOUS
 62
     4
 10
1286.286952516018
 20
-1098.873889701634
 30
0.0
 40
1.561928004881024
 50
168.9999999999998
 51
224.9999999999996
  0
LINE
  5
32D
  8
ZUWAKU
  6
CONTINUOUS
 62
     4
 10
1253.941899448429
 20
-1090.375032608885
 30
0.0
 11
1261.299992218022
 21
-1090.619125685746
 31
0.0
  0
LINE
  5
32E
  8
ZUWAKU
  6
CONTINUOUS
 62
     4
 10
1262.515500473975
 20
-1090.659448247505
 30
0.0
 11
1287.276304870343
 21
-1091.480848727192
 31
0.0
  0
LINE
  5
32F
  8
ZUWAKU
  6
CONTINUOUS
 62
     4
 10
1288.499321937124
 20
-1091.521420381869
 30
0.0
 11
1296.797198013674
 21
-1091.796689281881
 31
0.0
  0
LINE
  5
330
  8
ZUWAKU
  6
CONTINUOUS
 62
     4
 10
1296.877976897186
 20
-1092.193730179134
 30
0.0
 11
1290.819766618449
 21
-1095.00585776287
 31
0.0
  0
LINE
  5
331
  8
ZUWAKU
  6
CONTINUOUS
 62
     4
 10
1289.950492886127
 20
-1095.409361195075
 30
0.0
 11
1286.663839361521
 21
-1096.934974967055
 31
0.0
  0
ARC
  5
332
  8
ZUWAKU
  6
CONTINUOUS
 62
     4
 10
1296.790293213458
 20
-1092.004831852781
 30
0.0
 40
0.2082570673174699
 50
294.9000000000007
 51
88.09999999999967
  0
LINE
  5
333
  8
ZUWAKU
  6
CONTINUOUS
 62
     4
 10
1296.192779573333
 20
-1107.027492527851
 30
0.0
 11
1289.276555571826
 21
-1104.372602875425
 31
0.0
  0
LINE
  5
334
  8
ZUWAKU
  6
CONTINUOUS
 62
     4
 10
1288.309054459832
 20
-1104.001213994671
 30
0.0
 11
1260.976395572953
 21
-1093.509189266105
 31
0.0
  0
LINE
  5
335
  8
ZUWAKU
  6
CONTINUOUS
 62
     4
 10
1259.9999068798
 20
-1093.134350376183
 30
0.0
 11
1253.86036199002
 21
-1090.777599901511
 31
0.0
  0
ARC
  5
336
  8
ZUWAKU
  6
CONTINUOUS
 62
     4
 10
1253.934994648212
 20
-1090.583175179786
 30
0.0
 40
0.2082570673174699
 50
90.00000000000001
 51
249.0000000000023
  0
ARC
  5
337
  8
ZUWAKU
  6
CONTINUOUS
 62
     4
 10
1296.267412231525
 20
-1106.833067806125
 30
0.0
 40
0.2082570673174699
 50
249.0000000000006
 51
45.0
  0
LINE
  5
338
  8
ZUWAKU
  6
CONTINUOUS
 62
     4
 10
1288.943162336643
 20
-1091.015215017553
 30
0.0
 11
1298.215140292795
 21
-1091.322798205042
 31
0.0
  0
ARC
  5
339
  8
ZUWAKU
  6
CONTINUOUS
 62
     4
 10
1288.960424337188
 20
-1090.494858590297
 30
0.0
 40
0.5206426682936749
 50
226.0590228224399
 51
268.1000000000001
  0
LINE
  5
33A
  8
ZUWAKU
  6
CONTINUOUS
 62
     4
 10
1252.430130228971
 20
-1089.803952991963
 30
0.0
 11
1260.783756008944
 21
-1090.081071300116
 31
0.0
  0
ARC
  5
33B
  8
ZUWAKU
  6
CONTINUOUS
 62
     4
 10
1252.412868228426
 20
-1090.324309419219
 30
0.0
 40
0.5206426682936749
 50
88.10000000000028
 51
168.9999999999999
  0
ARC
  5
33C
  8
ZUWAKU
  6
CONTINUOUS
 62
     4
 10
1260.801018009489
 20
-1089.560714872871
 30
0.0
 40
0.5206426682936749
 50
268.1000000000004
 51
318.638806595188
  0
LINE
  5
33D
  8
ZUWAKU
  6
CONTINUOUS
 62
     4
 10
1298.708955288314
 20
-1091.94249793678
 30
0.0
 11
1298.390878856228
 21
-1093.578859322825
 31
0.0
  0
ARC
  5
33E
  8
ZUWAKU
  6
CONTINUOUS
 62
     4
 10
1298.19787829225
 20
-1091.843154632298
 30
0.0
 40
0.5206426682936749
 50
349.0000000000001
 51
88.10000000000001
  0
LINE
  5
33F
  8
ZUWAKU
  6
CONTINUOUS
 62
     4
 10
1298.099011069488
 20
-1093.951761834197
 30
0.0
 11
1292.301751636825
 21
-1096.642760068106
 31
0.0
  0
ARC
  5
340
  8
ZUWAKU
  6
CONTINUOUS
 62
     4
 10
1297.879801860169
 20
-1093.479516018343
 30
0.0
 40
0.5206426682936749
 50
294.9000000000004
 51
349.0000000000001
  0
ARC
  5
341
  8
ZUWAKU
  6
CONTINUOUS
 62
     4
 10
1292.520960846144
 20
-1097.115005883971
 30
0.0
 40
0.5206426682936749
 50
114.9
 51
186.40743915255
  0
LINE
  5
342
  8
ZUWAKU
  6
CONTINUOUS
 62
     4
 10
1291.992460864972
 20
-1104.299773664786
 30
0.0
 11
1289.969661715156
 21
-1103.52329382108
 31
0.0
  0
ARC
  5
343
  8
ZUWAKU
  6
CONTINUOUS
 62
     4
 10
1292.067093523164
 20
-1104.10534894306
 30
0.0
 40
0.2082570673174699
 50
248.999999999998
 51
45.00000000000102
  0
LINE
  5
344
  8
ZUWAKU
  6
CONTINUOUS
 62
     4
 10
1289.010996800607
 20
-1103.15529683873
 30
0.0
 11
1261.336432518841
 21
-1092.532026925685
 31
0.0
  0
LINE
  5
345
  8
ZUWAKU
  6
CONTINUOUS
 62
     4
 10
1260.373359254241
 20
-1092.162337736304
 30
0.0
 11
1258.856085992969
 21
-1091.579911099977
 31
0.0
  0
LINE
  5
346
  8
ZUWAKU
  6
CONTINUOUS
 62
     4
 10
1286.133712965783
 20
-1101.493127268332
 30
0.0
 11
1270.669139311434
 21
-1095.556833625273
 31
0.0
  0
ARC
  5
347
  8
ZUWAKU
  6
CONTINUOUS
 62
     4
 10
1286.208345623975
 20
-1101.298702546607
 30
0.0
 40
0.2082570673174699
 50
249.0000000000001
 51
44.99999999999837
  0
LINE
  5
348
  8
ZUWAKU
  6
CONTINUOUS
 62
     4
 10
1251.841296732847
 20
-1092.790972302981
 30
0.0
 11
1259.034057790853
 21
-1095.552014585749
 31
0.0
  0
ARC
  5
349
  8
ZUWAKU
  6
CONTINUOUS
 62
     4
 10
1258.84747614537
 20
-1096.038076390073
 30
0.0
 40
0.5206426682936749
 50
349.0000000000001
 51
69.00000000000003
  0
LINE
  5
34A
  8
ZUWAKU
  6
CONTINUOUS
 62
     4
 10
1262.064086138325
 20
-1096.715133493487
 30
0.0
 11
1284.183043612181
 21
-1105.205805760172
 31
0.0
  0
ARC
  5
34B
  8
ZUWAKU
  6
CONTINUOUS
 62
     4
 10
1283.996461966698
 20
-1105.691867564496
 30
0.0
 40
0.5206426682936749
 50
291.9409771775847
 51
69.00000000000003
  0
LINE
  5
34C
  8
ZUWAKU
  6
CONTINUOUS
 62
     4
 10
1289.086032166905
 20
-1107.087886730526
 30
0.0
 11
1297.010951078485
 21
-1110.129978081252
 31
0.0
  0
ARC
  5
34D
  8
ZUWAKU
  6
CONTINUOUS
 62
     4
 10
1297.197532723968
 20
-1109.643916276928
 30
0.0
 40
0.5206426682936749
 50
249.0000000000001
 51
349.0000000000001
  0
ARC
  5
34E
  8
ZUWAKU
  6
CONTINUOUS
 62
     4
 10
1288.899450521423
 20
-1107.573948534839
 30
0.0
 40
0.5206426682936749
 50
69.00000000000004
 51
132.6397603242119
  0
ARC
  5
34F
  8
ZUWAKU
  6
CONTINUOUS
 62
     4
 10
1261.877504492842
 20
-1097.2011952978
 30
0.0
 40
0.5206426682936749
 50
69.00000000000004
 51
193.0320838540856
  0
ARC
  5
350
  8
ZUWAKU
  6
CONTINUOUS
 62
     4
 10
1252.02787837833
 20
-1092.304910498657
 30
0.0
 40
0.5206426682936749
 50
168.9999999999999
 51
249.0000000000001
  0
LINE
  5
351
  8
ZUWAKU
  6
CONTINUOUS
 62
     4
 10
1261.786162609012
 20
-1091.677111752237
 30
0.0
 11
1288.263451701319
 21
-1092.555453893846
 31
0.0
  0
LINE
  5
352
  8
ZUWAKU
  6
CONTINUOUS
 62
     4
 10
1258.856085992969
 20
-1091.579911099977
 30
0.0
 11
1260.650595293623
 21
-1091.63944110461
 31
0.0
  0
LINE
  5
353
  8
ZUWAKU
  6
CONTINUOUS
 62
     4
 10
1289.512074467489
 20
-1094.464869563356
 30
0.0
 11
1286.225420942882
 21
-1095.990483335336
 31
0.0
  0
LINE
  5
354
  8
ZUWAKU
  6
CONTINUOUS
 62
     4
 10
1270.872982957456
 20
-1094.550415393704
 30
0.0
 11
1285.13137454655
 21
-1095.023414957985
 31
0.0
  0
ARC
  5
355
  8
ZUWAKU
  6
CONTINUOUS
 62
     4
 10
1270.855720956916
 20
-1095.070771820949
 30
0.0
 40
0.5206426682936749
 50
88.10000000000008
 51
249.0000000000001
  0
LINE
  5
356
  8
ZUWAKU
  6
CONTINUOUS
 62
     4
 10
1279.102864252399
 20
-1089.663328313018
 30
0.0
 11
1278.437429713203
 21
-1089.468508737297
 31
0.0
  0
LINE
  5
357
  8
ZUWAKU
  6
CONTINUOUS
 62
     4
 10
1278.437429713203
 20
-1089.468508737297
 30
0.0
 11
1277.153426098289
 21
-1089.177536588807
 31
0.0
  0
LINE
  5
358
  8
ZUWAKU
  6
CONTINUOUS
 62
     4
 10
1277.153426098289
 20
-1089.177536588807
 30
0.0
 11
1275.853918592014
 21
-1088.966325046903
 31
0.0
  0
LINE
  5
359
  8
ZUWAKU
  6
CONTINUOUS
 62
     4
 10
1275.853918592014
 20
-1088.966325046903
 30
0.0
 11
1274.548797231165
 21
-1088.836481558935
 31
0.0
  0
LINE
  5
35A
  8
ZUWAKU
  6
CONTINUOUS
 62
     4
 10
1274.548797231165
 20
-1088.836481558935
 30
0.0
 11
1273.247994777346
 21
-1088.788994312258
 31
0.0
  0
LINE
  5
35B
  8
ZUWAKU
  6
CONTINUOUS
 62
     4
 10
1273.247994777346
 20
-1088.788994312258
 30
0.0
 11
1271.961411122683
 21
-1088.824224713496
 31
0.0
  0
LINE
  5
35C
  8
ZUWAKU
  6
CONTINUOUS
 62
     4
 10
1271.961411122683
 20
-1088.824224713496
 30
0.0
 11
1270.698837945645
 21
-1088.941904638018
 31
0.0
  0
LINE
  5
35D
  8
ZUWAKU
  6
CONTINUOUS
 62
     4
 10
1270.698837945645
 20
-1088.941904638018
 30
0.0
 11
1269.469884190466
 21
-1089.141138470532
 31
0.0
  0
LINE
  5
35E
  8
ZUWAKU
  6
CONTINUOUS
 62
     4
 10
1269.469884190466
 20
-1089.141138470532
 30
0.0
 11
1268.709307816647
 21
-1089.320236805158
 31
0.0
  0
LINE
  5
35F
  8
ZUWAKU
  6
CONTINUOUS
 62
     4
 10
1268.811381341625
 20
-1090.347375059621
 30
0.0
 11
1278.939314089704
 21
-1090.683353192014
 31
0.0
  0
ARC
  5
360
  8
ZUWAKU
  6
CONTINUOUS
 62
     4
 10
1268.82864334217
 20
-1089.827018632365
 30
0.0
 40
0.5206426682936749
 50
103.2504547662732
 51
268.1000000000001
  0
ARC
  5
361
  8
ZUWAKU
  6
CONTINUOUS
 62
     4
 10
1278.956576090249
 20
-1090.162996764758
 30
0.0
 40
0.5206426682936749
 50
268.1000000000001
 51
73.68152816059933
  0
LINE
  5
362
  8
ZUWAKU
  6
CONTINUOUS
 62
     4
 10
825.3333333333238
 20
-862.0000000000175
 30
0.0
 11
825.3333333333238
 21
-702.0000000000178
 31
0.0
  0
LINE
  5
363
  8
ZUWAKU
  6
CONTINUOUS
 62
     4
 10
825.3333333333239
 20
-822.0000000000176
 30
0.0
 11
1617.333333333323
 21
-822.0000000000201
 31
0.0
  0
LINE
  5
364
  8
ZUWAKU
  6
CONTINUOUS
 62
     4
 10
825.3333333333239
 20
-782.0000000000176
 30
0.0
 11
1617.333333333323
 21
-782.0000000000201
 31
0.0
  0
LINE
  5
365
  8
ZUWAKU
  6
CONTINUOUS
 62
     4
 10
825.3333333333239
 20
-742.0000000000177
 30
0.0
 11
1617.333333333323
 21
-742.0000000000202
 31
0.0
  0
LINE
  5
366
  8
ZUWAKU
  6
CONTINUOUS
 62
     4
 10
825.333333333324
 20
-702.0000000000178
 30
0.0
 11
1617.333333333323
 21
-702.0000000000203
 31
0.0
  0
TEXT
  5
367
  8
ZUWAKU
 62
     4
 10
836.7333333333238
 20
-934.0000000000173
 30
0.0
 40
24.0
  1
図
 41
1.120000000000003
  7
DCSTYLE0
 72
     5
 11
855.9333333333238
 21
-934.0000000000173
 31
0.0
  0
TEXT
  5
368
  8
ZUWAKU
 62
     4
 10
836.7333333333245
 20
-970.0000000000175
 30
0.0
 40
24.0
  1
名
 41
1.120000000000003
  7
DCSTYLE0
 72
     5
 11
855.9333333333245
 21
-970.0000000000175
 31
0.0
  0
TEXT
  5
369
  8
ZUWAKU
 62
     4
 10
836.7333333333241
 20
-1018.000000000018
 30
0.0
 40
24.0
  1
尺
 41
1.120000000000003
  7
DCSTYLE0
 72
     5
 11
855.9333333333242
 21
-1018.000000000018
 31
0.0
  0
TEXT
  5
36A
  8
ZUWAKU
 62
     4
 10
836.7333333333241
 20
-1042.000000000018
 30
0.0
 40
24.0
  1
度
 41
1.120000000000003
  7
DCSTYLE0
 72
     5
 11
855.9333333333242
 21
-1042.000000000018
 31
0.0
  0
TEXT
  5
36B
  8
ZUWAKU
 62
     4
 10
1414.233333333324
 20
-934.0000000000175
 30
0.0
 40
24.0
  1
図
 41
1.120000000000003
  7
DCSTYLE0
 72
     5
 11
1433.433333333324
 21
-934.0000000000175
 31
0.0
  0
TEXT
  5
36C
  8
ZUWAKU
 62
     4
 10
1414.233333333324
 20
-970.0000000000177
 30
0.0
 40
24.0
  1
番
 41
1.120000000000003
  7
DCSTYLE0
 72
     5
 11
1433.433333333324
 21
-970.0000000000177
 31
0.0
  0
TEXT
  5
36D
  8
ZUWAKU
 62
     4
 10
1414.233333333324
 20
-1018.000000000017
 30
0.0
 40
24.0
  1
日
 41
1.120000000000003
  7
DCSTYLE0
 72
     5
 11
1433.433333333325
 21
-1018.000000000017
 31
0.0
  0
TEXT
  5
36E
  8
ZUWAKU
 62
     4
 10
1414.233333333324
 20
-1042.000000000017
 30
0.0
 40
24.0
  1
付
 41
1.120000000000003
  7
DCSTYLE0
 72
     5
 11
1433.433333333325
 21
-1042.000000000017
 31
0.0
  0
TEXT
  5
36F
  8
ZUWAKU
 62
     4
 10
1458.079235984579
 20
-1030.000000000017
 30
0.0
 40
24.0
  1
2020.4.24
 41
0.7775316455696208
  7
DCSTYLE0
 72
     5
 11
1598.479235984579
 21
-1030.000000000017
 31
0.0
  0
TEXT
  5
370
  8
ZUWAKU
 62
     4
 10
887.7333333333241
 20
-1030.000000000017
 30
0.0
 40
24.0
  1
 
 41
0.8000000000000019
  7
DCSTYLE0
 72
     5
 11
906.9333333333242
 21
-1030.000000000017
 31
0.0
  0
TEXT
  5
371
  8
ZUWAKU
 62
     4
 10
836.7333333333238
 20
-889.0000000000199
 30
0.0
 40
24.0
  1
番
 41
1.120000000000003
  7
DCSTYLE0
 72
     5
 11
855.9333333333238
 21
-889.0000000000199
 31
0.0
  0
TEXT
  5
372
  8
ZUWAKU
 62
     4
 10
874.7333333333238
 20
-889.0000000000199
 30
0.0
 40
24.0
  1
号
 41
1.120000000000003
  7
DCSTYLE0
 72
     5
 11
893.9333333333238
 21
-889.0000000000199
 31
0.0
  0
TEXT
  5
373
  8
ZUWAKU
 62
     4
 10
937.7333333333239
 20
-889.0000000000199
 30
0.0
 40
24.0
  1
品
 41
1.120000000000003
  7
DCSTYLE0
 72
     5
 11
956.933333333324
 21
-889.0000000000199
 31
0.0
  0
TEXT
  5
374
  8
ZUWAKU
 62
     4
 10
1093.733333333324
 20
-889.0000000000199
 30
0.0
 40
24.0
  1
名
 41
1.120000000000003
  7
DCSTYLE0
 72
     5
 11
1112.933333333324
 21
-889.0000000000199
 31
0.0
  0
TEXT
  5
375
  8
ZUWAKU
 62
     4
 10
1165.733333333324
 20
-889.0000000000199
 30
0.0
 40
24.0
  1
材
 41
1.120000000000003
  7
DCSTYLE0
 72
     5
 11
1184.933333333324
 21
-889.0000000000199
 31
0.0
  0
TEXT
  5
376
  8
ZUWAKU
 62
     4
 10
1225.733333333322
 20
-889.0000000000199
 30
0.0
 40
24.0
  1
質
 41
1.120000000000003
  7
DCSTYLE0
 72
     5
 11
1244.933333333322
 21
-889.0000000000199
 31
0.0
  0
TEXT
  5
377
  8
ZUWAKU
 62
     4
 10
1276.733333333322
 20
-889.0000000000199
 30
0.0
 40
24.0
  1
個
 41
1.120000000000003
  7
DCSTYLE0
 72
     5
 11
1295.933333333322
 21
-889.0000000000199
 31
0.0
  0
TEXT
  5
378
  8
ZUWAKU
 62
     4
 10
1314.733333333324
 20
-889.0000000000199
 30
0.0
 40
24.0
  1
数
 41
1.120000000000003
  7
DCSTYLE0
 72
     5
 11
1333.933333333324
 21
-889.0000000000199
 31
0.0
  0
TEXT
  5
379
  8
ZUWAKU
 62
     4
 10
1377.733333333324
 20
-889.0000000000197
 30
0.0
 40
24.0
  1
記
 41
1.120000000000003
  7
DCSTYLE0
 72
     5
 11
1396.933333333324
 21
-889.0000000000197
 31
0.0
  0
TEXT
  5
37A
  8
ZUWAKU
 62
     4
 10
1565.733333333324
 20
-889.0000000000199
 30
0.0
 40
24.0
  1
事
 41
1.120000000000003
  7
DCSTYLE0
 72
     5
 11
1584.933333333324
 21
-889.0000000000199
 31
0.0
  0
TEXT
  5
37B
  8
ZUWAKU
 62
     4
 10
1076.733333333325
 20
-1018.000000000018
 30
0.0
 40
24.0
  1
製
 41
1.120000000000003
  7
DCSTYLE0
 72
     5
 11
1095.933333333325
 21
-1018.000000000018
 31
0.0
  0
TEXT
  5
37C
  8
ZUWAKU
 62
     4
 10
1076.733333333325
 20
-1042.000000000018
 30
0.0
 40
24.0
  1
図
 41
1.120000000000003
  7
DCSTYLE0
 72
     5
 11
1095.933333333325
 21
-1042.000000000018
 31
0.0
  0
TEXT
  5
37D
  8
ZUWAKU
 62
     4
 10
1190.733333333325
 20
-1018.000000000017
 30
0.0
 40
24.0
  1
検
 41
1.120000000000003
  7
DCSTYLE0
 72
     5
 11
1209.933333333325
 21
-1018.000000000017
 31
0.0
  0
TEXT
  5
37E
  8
ZUWAKU
 62
     4
 10
1190.733333333325
 20
-1042.000000000018
 30
0.0
 40
24.0
  1
図
 41
1.120000000000003
  7
DCSTYLE0
 72
     5
 11
1209.933333333325
 21
-1042.000000000018
 31
0.0
  0
TEXT
  5
37F
  8
ZUWAKU
 62
     4
 10
836.7333333333241
 20
-1081.000000000018
 30
0.0
 40
24.0
  1
表
 41
1.120000000000003
  7
DCSTYLE0
 72
     5
 11
855.9333333333242
 21
-1081.000000000018
 31
0.0
  0
TEXT
  5
380
  8
ZUWAKU
 62
     4
 10
860.7333333333241
 20
-1081.000000000018
 30
0.0
 40
24.0
  1
面
 41
1.120000000000003
  7
DCSTYLE0
 72
     5
 11
879.9333333333242
 21
-1081.000000000018
 31
0.0
  0
TEXT
  5
381
  8
ZUWAKU
 62
     4
 10
836.7333333333241
 20
-1123.000000000017
 30
0.0
 40
24.0
  1
処
 41
1.120000000000003
  7
DCSTYLE0
 72
     5
 11
855.9333333333242
 21
-1123.000000000017
 31
0.0
  0
TEXT
  5
382
  8
ZUWAKU
 62
     4
 10
860.7333333333241
 20
-1123.000000000018
 30
0.0
 40
24.0
  1
理
 41
1.120000000000003
  7
DCSTYLE0
 72
     5
 11
879.9333333333242
 21
-1123.000000000018
 31
0.0
  0
TEXT
  5
383
  8
ZUWAKU
 62
     4
 10
1349.733333333324
 20
-1030.000000000017
 30
0.0
 40
24.0
  1
ｍｍ
 41
1.018181818181821
  7
DCSTYLE0
 72
     5
 11
1388.133333333324
 21
-1030.000000000017
 31
0.0
  0
TEXT
  5
384
  8
ZUWAKU
 62
     4
 10
1304.733333333324
 20
-1018.000000000018
 30
0.0
 40
24.0
  1
単
 41
1.120000000000003
  7
DCSTYLE0
 72
     5
 11
1323.933333333324
 21
-1018.000000000018
 31
0.0
  0
TEXT
  5
385
  8
ZUWAKU
 62
     4
 10
1304.733333333324
 20
-1042.000000000018
 30
0.0
 40
24.0
  1
位
 41
1.120000000000003
  7
DCSTYLE0
 72
     5
 11
1323.933333333324
 21
-1042.000000000018
 31
0.0
  0
TEXT
  5
386
  8
ZUWAKU
 62
     4
 10
1625.61449096124
 20
-1112.151988000947
 30
0.0
 40
28.0
  1
E
 41
0.9882352941176512
  7
DCSTYLE0
 72
     5
 11
1648.01449096124
 21
-1112.151988000947
 31
0.0
  0
TEXT
  5
387
  8
ZUWAKU
 62
     4
 10
909.9200776445423
 20
-1103.163772776006
 30
0.0
 40
28.0
  1
粉体塗装　塗装色：イエロー
 41
0.9454545454545455
  7
DCSTYLE0
 72
     5
 11
1201.120077644542
 21
-1103.163772776006
 31
0.0
  0
TEXT
  5
388
  8
ZUWAKU
 62
     4
 10
1149.720815925284
 20
-816.6932556261646
 30
0.0
 40
28.0
  1
SS400
 41
0.8659793814432991
  7
DCSTYLE0
 72
     5
 11
1261.720815925284
 21
-816.6932556261646
 31
0.0
  0
TEXT
  5
389
  8
ZUWAKU
 62
     4
 10
855.0192746550575
 20
-816.6932556261635
 30
0.0
 40
28.0
  1
2
 41
0.9882352941176462
  7
DCSTYLE0
 72
     5
 11
877.4192746550575
 21
-816.6932556261635
 31
0.0
  0
TEXT
  5
38A
  8
ZUWAKU
 62
     4
 10
935.0192746550601
 20
-816.6932556261637
 30
0.0
 40
28.0
  1
フランジ
 41
0.9739130434782599
  7
DCSTYLE0
 72
     5
 11
1024.61927465506
 21
-816.6932556261637
 31
0.0
  0
TEXT
  5
38B
  8
ZUWAKU
 62
     4
 10
1295.019274655058
 20
-816.6932556261647
 30
0.0
 40
28.0
  1
2
 41
0.9882352941176512
  7
DCSTYLE0
 72
     5
 11
1317.419274655058
 21
-816.6932556261647
 31
0.0
  0
TEXT
  5
38C
  8
ZUWAKU
 62
     4
 10
1356.509511565504
 20
-815.9673825638296
 30
0.0
 40
28.0
  1
ｔ6　クロメートメッキ
 41
0.9380710659898482
  7
DCSTYLE0
 72
     5
 11
1602.909511565505
 21
-815.9673825638296
 31
0.0
  0
TEXT
  5
38D
  8
ZUWAKU
 62
     4
 10
855.0192746550575
 20
-776.6932556261636
 30
0.0
 40
28.0
  1
3
 41
0.9882352941176462
  7
DCSTYLE0
 72
     5
 11
877.4192746550575
 21
-776.6932556261636
 31
0.0
  0
TEXT
  5
38E
  8
ZUWAKU
 62
     4
 10
935.0192746550596
 20
-776.6932556261636
 30
0.0
 40
28.0
  1
アンカーボルト
 41
0.9560975609756102
  7
DCSTYLE0
 72
     5
 11
1091.81927465506
 21
-776.6932556261636
 31
0.0
  0
TEXT
  5
38F
  8
ZUWAKU
 62
     4
 10
1295.019274655058
 20
-776.6932556261648
 30
0.0
 40
28.0
  1
4
 41
0.9333333333333371
  7
DCSTYLE0
 72
     5
 11
1317.419274655058
 21
-776.6932556261648
 31
0.0
  0
TEXT
  5
390
  8
ZUWAKU
 62
     4
 10
1351.930642544136
 20
-770.6932556261653
 30
0.0
 40
22.0
  1
M12-φ16-100溶融亜鉛メッキ
 41
0.6882352941176474
  7
DCSTYLE0
 72
     5
 11
1609.330642544136
 21
-770.6932556261653
 31
0.0
  0
TEXT
  5
391
  8
ZUWAKU
 62
     4
 10
1149.720815925284
 20
-776.6932556261642
 30
0.0
 40
28.0
  1
SWCH
 41
0.8096385542168667
  7
DCSTYLE0
 72
     5
 11
1239.320815925284
 21
-776.6932556261642
 31
0.0
  0
TEXT
  5
392
  8
ZUWAKU
 62
     4
 10
855.0192746550575
 20
-856.6932556261634
 30
0.0
 40
28.0
  1
1
 41
1.527272727272726
  7
DCSTYLE0
 72
     5
 11
877.4192746550575
 21
-856.6932556261634
 31
0.0
  0
TEXT
  5
393
  8
ZUWAKU
 62
     4
 10
935.0192746550601
 20
-856.6932556261636
 30
0.0
 40
28.0
  1
ガードパイプ
 41
0.9600000000000006
  7
DCSTYLE0
 72
     5
 11
1069.41927465506
 21
-856.6932556261636
 31
0.0
  0
TEXT
  5
394
  8
ZUWAKU
 62
     4
 10
1149.720815925284
 20
-856.6932556261643
 30
0.0
 40
28.0
  1
STK-PZ
 41
0.6247933884297519
  7
DCSTYLE0
 72
     5
 11
1250.520815925284
 21
-856.6932556261643
 31
0.0
  0
TEXT
  5
395
  8
ZUWAKU
 62
     4
 10
1295.019274655058
 20
-856.6932556261646
 30
0.0
 40
28.0
  1
1
 41
1.527272727272734
  7
DCSTYLE0
 72
     5
 11
1317.419274655058
 21
-856.6932556261646
 31
0.0
  0
TEXT
  5
396
  8
ZUWAKU
 62
     4
 10
1375.019274655057
 20
-856.6932556261652
 30
0.0
 40
28.0
  1
φ48.6ｘｔ1.9
 41
0.9882352941176471
  7
DCSTYLE0
 72
     5
 11
1599.019274655057
 21
-856.6932556261652
 31
0.0
  0
LINE
  5
397
  8
ZUWAKU
  6
CONTINUOUS
 62
     6
 10
1259.480519675647
 20
-1096.997157214505
 30
0.0
 11
1259.403578219427
 21
-1097.584221469115
 31
0.0
  0
LINE
  5
398
  8
ZUWAKU
  6
CONTINUOUS
 62
     6
 10
1259.403578219427
 20
-1097.584221469115
 30
0.0
 11
1259.395886537033
 21
-1098.556705092564
 31
0.0
  0
LINE
  5
399
  8
ZUWAKU
  6
CONTINUOUS
 62
     6
 10
1259.395886537033
 20
-1098.556705092564
 30
0.0
 11
1259.506146312496
 21
-1099.538542315354
 31
0.0
  0
LINE
  5
39A
  8
ZUWAKU
  6
CONTINUOUS
 62
     6
 10
1259.506146312496
 20
-1099.538542315354
 30
0.0
 11
1259.733944545361
 21
-1100.522730165518
 31
0.0
  0
LINE
  5
39B
  8
ZUWAKU
  6
CONTINUOUS
 62
     6
 10
1259.733944545361
 20
-1100.522730165518
 30
0.0
 11
1260.078066328951
 21
-1101.502033509599
 31
0.0
  0
LINE
  5
39C
  8
ZUWAKU
  6
CONTINUOUS
 62
     6
 10
1260.078066328951
 20
-1101.502033509599
 30
0.0
 11
1260.536415148962
 21
-1102.469045194812
 31
0.0
  0
LINE
  5
39D
  8
ZUWAKU
  6
CONTINUOUS
 62
     6
 10
1260.536415148962
 20
-1102.469045194812
 30
0.0
 11
1261.105963604593
 21
-1103.416282099403
 31
0.0
  0
LINE
  5
39E
  8
ZUWAKU
  6
CONTINUOUS
 62
     6
 10
1261.105963604593
 20
-1103.416282099403
 30
0.0
 11
1261.782741125605
 21
-1104.336295659273
 31
0.0
  0
LINE
  5
39F
  8
ZUWAKU
  6
CONTINUOUS
 62
     6
 10
1261.782741125605
 20
-1104.336295659273
 30
0.0
 11
1262.561854203706
 21
-1105.221780054778
 31
0.0
  0
LINE
  5
3A0
  8
ZUWAKU
  6
CONTINUOUS
 62
     6
 10
1262.561854203706
 20
-1105.221780054778
 30
0.0
 11
1263.4375301584
 21
-1106.065668924665
 31
0.0
  0
LINE
  5
3A1
  8
ZUWAKU
  6
CONTINUOUS
 62
     6
 10
1263.4375301584
 20
-1106.065668924665
 30
0.0
 11
1264.403175752686
 21
-1106.861217822193
 31
0.0
  0
LINE
  5
3A2
  8
ZUWAKU
  6
CONTINUOUS
 62
     6
 10
1264.403175752686
 20
-1106.861217822193
 30
0.0
 11
1265.451444310834
 21
-1107.602073269548
 31
0.0
  0
LINE
  5
3A3
  8
ZUWAKU
  6
CONTINUOUS
 62
     6
 10
1265.451444310834
 20
-1107.602073269548
 30
0.0
 11
1266.574307477438
 21
-1108.282330649447
 31
0.0
  0
LINE
  5
3A4
  8
ZUWAKU
  6
CONTINUOUS
 62
     6
 10
1266.574307477438
 20
-1108.282330649447
 30
0.0
 11
1267.763129608281
 21
-1108.896583246355
 31
0.0
  0
LINE
  5
3A5
  8
ZUWAKU
  6
CONTINUOUS
 62
     6
 10
1267.763129608281
 20
-1108.896583246355
 30
0.0
 11
1269.00874390271
 21
-1109.439964278267
 31
0.0
  0
LINE
  5
3A6
  8
ZUWAKU
  6
CONTINUOUS
 62
     6
 10
1269.00874390271
 20
-1109.439964278267
 30
0.0
 11
1270.30152994989
 21
-1109.908183185537
 31
0.0
  0
LINE
  5
3A7
  8
ZUWAKU
  6
CONTINUOUS
 62
     6
 10
1270.30152994989
 20
-1109.908183185537
 30
0.0
 11
1271.63149258105
 21
-1110.297556956016
 31
0.0
  0
LINE
  5
3A8
  8
ZUWAKU
  6
CONTINUOUS
 62
     6
 10
1271.63149258105
 20
-1110.297556956016
 30
0.0
 11
1272.988341960781
 21
-1110.60503691527
 31
0.0
  0
LINE
  5
3A9
  8
ZUWAKU
  6
CONTINUOUS
 62
     6
 10
1272.988341960781
 20
-1110.60503691527
 30
0.0
 11
1274.361574818832
 21
-1110.82823118537
 31
0.0
  0
LINE
  5
3AA
  8
ZUWAKU
  6
CONTINUOUS
 62
     6
 10
1274.361574818832
 20
-1110.82823118537
 30
0.0
 11
1275.740556679343
 21
-1110.965422882612
 31
0.0
  0
LINE
  5
3AB
  8
ZUWAKU
  6
CONTINUOUS
 62
     6
 10
1275.740556679343
 20
-1110.965422882612
 30
0.0
 11
1277.114604919522
 21
-1111.015584048547
 31
0.0
  0
LINE
  5
3AC
  8
ZUWAKU
  6
CONTINUOUS
 62
     6
 10
1277.114604919522
 20
-1111.015584048547
 30
0.0
 11
1278.473072499624
 21
-1110.978385256426
 31
0.0
  0
LINE
  5
3AD
  8
ZUWAKU
  6
CONTINUOUS
 62
     6
 10
1278.473072499624
 20
-1110.978385256426
 30
0.0
 11
1279.805432258126
 21
-1110.854200774553
 31
0.0
  0
LINE
  5
3AE
  8
ZUWAKU
  6
CONTINUOUS
 62
     6
 10
1279.805432258126
 20
-1110.854200774553
 30
0.0
 11
1281.101361756816
 21
-1110.644109060676
 31
0.0
  0
LINE
  5
3AF
  8
ZUWAKU
  6
CONTINUOUS
 62
     6
 10
1281.101361756816
 20
-1110.644109060676
 30
0.0
 11
1282.350828774527
 21
-1110.349888164878
 31
0.0
  0
LINE
  5
3B0
  8
ZUWAKU
  6
CONTINUOUS
 62
     6
 10
1282.350828774527
 20
-1110.349888164878
 30
0.0
 11
1283.544177641182
 21
-1109.974005278084
 31
0.0
  0
LINE
  5
3B1
  8
ZUWAKU
  6
CONTINUOUS
 62
     6
 10
1283.544177641182
 20
-1109.974005278084
 30
0.0
 11
1284.672216582975
 21
-1109.519599129206
 31
0.0
  0
LINE
  5
3B2
  8
ZUWAKU
  6
CONTINUOUS
 62
     6
 10
1284.672216582975
 20
-1109.519599129206
 30
0.0
 11
1285.726305942802
 21
-1108.990453190298
 31
0.0
  0
LINE
  5
3B3
  8
ZUWAKU
  6
CONTINUOUS
 62
     6
 10
1285.726305942802
 20
-1108.990453190298
 30
0.0
 11
1286.698446278967
 21
-1108.390956793254
 31
0.0
  0
LINE
  5
3B4
  8
ZUWAKU
  6
CONTINUOUS
 62
     6
 10
1286.698446278967
 20
-1108.390956793254
 30
0.0
 11
1287.581363601413
 21
-1107.726050635608
 31
0.0
  0
LINE
  5
3B5
  8
ZUWAKU
  6
CONTINUOUS
 62
     6
 10
1287.581363601413
 20
-1107.726050635608
 30
0.0
 11
1288.370435955324
 21
-1106.999450178039
 31
0.0
  0
ARC
  5
3B6
  8
ZUWAKU
  6
CONTINUOUS
 62
     6
 10
1297.551545064292
 20
-1107.822680669826
 30
0.0
 40
0.2603213341468374
 50
348.9999999999993
 51
45.00000000000031
  0
LINE
  5
3B7
  8
ZUWAKU
  6
CONTINUOUS
 62
     6
 10
1297.735620044955
 20
-1107.638605689158
 30
0.0
 11
1291.417537723818
 21
-1101.320523368021
 31
0.0
  0
ARC
  5
3B8
  8
ZUWAKU
  6
CONTINUOUS
 62
     6
 10
1292.331810549594
 20
-1101.130346309827
 30
0.0
 40
0.7809640024405122
 50
168.9999999999942
 51
225.0
  0
LINE
  5
3B9
  8
ZUWAKU
  6
CONTINUOUS
 62
     6
 10
1291.565195055505
 20
-1100.981331353098
 30
0.0
 11
1291.715543445144
 21
-1100.20785594139
 31
0.0
  0
LINE
  5
3BA
  8
ZUWAKU
  6
CONTINUOUS
 62
     6
 10
1291.846077732083
 20
-1099.211877731112
 30
0.0
 11
1291.854268586251
 21
-1098.176282249013
 31
0.0
  0
LINE
  5
3BB
  8
ZUWAKU
  6
CONTINUOUS
 62
     6
 10
1288.634591873784
 20
-1091.265443214438
 30
0.0
 11
1287.638444235977
 21
-1090.305455790088
 31
0.0
  0
LINE
  5
3BC
  8
ZUWAKU
  6
CONTINUOUS
 62
     6
 10
1287.638444235977
 20
-1090.305455790088
 30
0.0
 11
1286.642309093334
 21
-1089.484788022118
 31
0.0
  0
LINE
  5
3BD
  8
ZUWAKU
  6
CONTINUOUS
 62
     6
 10
1286.642309093334
 20
-1089.484788022118
 30
0.0
 11
1285.563323994141
 21
-1088.722223904228
 31
0.0
  0
LINE
  5
3BE
  8
ZUWAKU
  6
CONTINUOUS
 62
     6
 10
1285.563323994141
 20
-1088.722223904228
 30
0.0
 11
1284.409650267781
 21
-1088.023300749833
 31
0.0
  0
LINE
  5
3BF
  8
ZUWAKU
  6
CONTINUOUS
 62
     6
 10
1284.409650267781
 20
-1088.023300749833
 30
0.0
 11
1283.189978090423
 21
-1087.393108240057
 31
0.0
  0
LINE
  5
3C0
  8
ZUWAKU
  6
CONTINUOUS
 62
     6
 10
1283.189978090423
 20
-1087.393108240057
 30
0.0
 11
1281.913470757368
 21
-1086.836250571524
 31
0.0
  0
LINE
  5
3C1
  8
ZUWAKU
  6
CONTINUOUS
 62
     6
 10
1281.913470757368
 20
-1086.836250571524
 30
0.0
 11
1280.589702726279
 21
-1086.356810665486
 31
0.0
  0
LINE
  5
3C2
  8
ZUWAKU
  6
CONTINUOUS
 62
     6
 10
1280.589702726279
 20
-1086.356810665486
 30
0.0
 11
1279.228592384833
 21
-1085.958317765559
 31
0.0
  0
LINE
  5
3C3
  8
ZUWAKU
  6
CONTINUOUS
 62
     6
 10
1279.228592384833
 20
-1085.958317765559
 30
0.0
 11
1277.840330587865
 21
-1085.643719338383
 31
0.0
  0
LINE
  5
3C4
  8
ZUWAKU
  6
CONTINUOUS
 62
     6
 10
1277.840330587865
 20
-1085.643719338383
 30
0.0
 11
1276.435306018698
 21
-1085.415357898197
 31
0.0
  0
LINE
  5
3C5
  8
ZUWAKU
  6
CONTINUOUS
 62
     6
 10
1276.435306018698
 20
-1085.415357898197
 30
0.0
 11
1275.024028418083
 21
-1085.274953172899
 31
0.0
  0
LINE
  5
3C6
  8
ZUWAKU
  6
CONTINUOUS
 62
     6
 10
1275.024028418083
 20
-1085.274953172899
 30
0.0
 11
1273.617050722521
 21
-1085.223589880414
 31
0.0
  0
LINE
  5
3C7
  8
ZUWAKU
  6
CONTINUOUS
 62
     6
 10
1273.617050722521
 20
-1085.223589880414
 30
0.0
 11
1272.224891178849
 21
-1085.261711256459
 31
0.0
  0
LINE
  5
3C8
  8
ZUWAKU
  6
CONTINUOUS
 62
     6
 10
1272.224891178849
 20
-1085.261711256459
 30
0.0
 11
1270.857956558862
 21
-1085.389118337353
 31
0.0
  0
LINE
  5
3C9
  8
ZUWAKU
  6
CONTINUOUS
 62
     6
 10
1270.857956558862
 20
-1085.389118337353
 30
0.0
 11
1269.52646768441
 21
-1085.604974817147
 31
0.0
  0
LINE
  5
3CA
  8
ZUWAKU
  6
CONTINUOUS
 62
     6
 10
1269.52646768441
 20
-1085.604974817147
 30
0.0
 11
1268.24038857466
 21
-1085.90781702297
 31
0.0
  0
LINE
  5
3CB
  8
ZUWAKU
  6
CONTINUOUS
 62
     6
 10
1268.24038857466
 20
-1085.90781702297
 30
0.0
 11
1267.009360596544
 21
-1086.295568135029
 31
0.0
  0
LINE
  5
3CC
  8
ZUWAKU
  6
CONTINUOUS
 62
     6
 10
1267.009360596544
 20
-1086.295568135029
 30
0.0
 11
1265.84264294794
 21
-1086.765555166411
 31
0.0
  0
LINE
  5
3CD
  8
ZUWAKU
  6
CONTINUOUS
 62
     6
 10
1265.84264294794
 20
-1086.765555166411
 30
0.0
 11
1264.749060454985
 21
-1087.314526398892
 31
0.0
  0
LINE
  5
3CE
  8
ZUWAKU
  6
CONTINUOUS
 62
     6
 10
1264.749060454985
 20
-1087.314526398892
 30
0.0
 11
1263.736958755614
 21
-1087.938666041745
 31
0.0
  0
LINE
  5
3CF
  8
ZUWAKU
  6
CONTINUOUS
 62
     6
 10
1263.736958755614
 20
-1087.938666041745
 30
0.0
 11
1262.814165139759
 21
-1088.633602183342
 31
0.0
  0
LINE
  5
3D0
  8
ZUWAKU
  6
CONTINUOUS
 62
     6
 10
1262.814165139759
 20
-1088.633602183342
 30
0.0
 11
1261.987950428115
 21
-1089.394404389321
 31
0.0
  0
LINE
  5
3D1
  8
ZUWAKU
  6
CONTINUOUS
 62
     6
 10
1261.987950428115
 20
-1089.394404389321
 30
0.0
 11
1261.143572221302
 21
-1090.353472166634
 31
0.0
  0
LINE
  5
3D2
  8
ZUWAKU
  6
CONTINUOUS
 62
     6
 10
1259.689575790562
 20
-1093.294067325882
 30
0.0
 11
1259.513587177074
 21
-1093.972937198306
 31
0.0
  0
LINE
  5
3D3
  8
ZUWAKU
  6
CONTINUOUS
 62
     6
 10
1259.513587177074
 20
-1093.972937198306
 30
0.0
 11
1259.379920701803
 21
-1094.992814043996
 31
0.0
  0
LINE
  5
3D4
  8
ZUWAKU
  6
CONTINUOUS
 62
     6
 10
1259.379920701803
 20
-1094.992814043996
 30
0.0
 11
1259.371729847634
 21
-1096.028409526095
 31
0.0
  0
LINE
  5
3D5
  8
ZUWAKU
  6
CONTINUOUS
 62
     6
 10
1259.371729847634
 20
-1096.028409526095
 30
0.0
 11
1259.488835109246
 21
-1097.071204183999
 31
0.0
  0
LINE
  5
3D6
  8
ZUWAKU
  6
CONTINUOUS
 62
     6
 10
1259.488835109246
 20
-1097.071204183999
 30
0.0
 11
1259.72991910188
 21
-1098.112792318542
 31
0.0
  0
LINE
  5
3D7
  8
ZUWAKU
  6
CONTINUOUS
 62
     6
 10
1259.72991910188
 20
-1098.112792318542
 30
0.0
 11
1260.092628255355
 21
-1099.144991684753
 31
0.0
  0
LINE
  5
3D8
  8
ZUWAKU
  6
CONTINUOUS
 62
     6
 10
1260.092628255355
 20
-1099.144991684753
 30
0.0
 11
1260.573679673752
 21
-1100.159900685213
 31
0.0
  0
LINE
  5
3D9
  8
ZUWAKU
  6
CONTINUOUS
 62
     6
 10
1260.573679673752
 20
-1100.159900685213
 30
0.0
 11
1261.16895135482
 21
-1101.149918828524
 31
0.0
  0
LINE
  5
3DA
  8
ZUWAKU
  6
CONTINUOUS
 62
     6
 10
1261.16895135482
 20
-1101.149918828524
 30
0.0
 11
1261.873548884241
 21
-1102.107750998156
 31
0.0
  0
LINE
  5
3DB
  8
ZUWAKU
  6
CONTINUOUS
 62
     6
 10
1261.873548884241
 20
-1102.107750998156
 30
0.0
 11
1262.681852672052
 21
-1103.026411473846
 31
0.0
  0
LINE
  5
3DC
  8
ZUWAKU
  6
CONTINUOUS
 62
     6
 10
1262.681852672052
 20
-1103.026411473846
 30
0.0
 11
1263.587554197903
 21
-1103.899235985021
 31
0.0
  0
LINE
  5
3DD
  8
ZUWAKU
  6
CONTINUOUS
 62
     6
 10
1263.587554197903
 20
-1103.899235985021
 30
0.0
 11
1264.583689340546
 21
-1104.719903752991
 31
0.0
  0
LINE
  5
3DE
  8
ZUWAKU
  6
CONTINUOUS
 62
     6
 10
1264.583689340546
 20
-1104.719903752991
 30
0.0
 11
1265.662674439745
 21
-1105.48246787088
 31
0.0
  0
LINE
  5
3DF
  8
ZUWAKU
  6
CONTINUOUS
 62
     6
 10
1265.662674439745
 20
-1105.48246787088
 30
0.0
 11
1266.816348166104
 21
-1106.181391025276
 31
0.0
  0
LINE
  5
3E0
  8
ZUWAKU
  6
CONTINUOUS
 62
     6
 10
1266.816348166104
 20
-1106.181391025276
 30
0.0
 11
1268.036020343462
 21
-1106.811583535062
 31
0.0
  0
LINE
  5
3E1
  8
ZUWAKU
  6
CONTINUOUS
 62
     6
 10
1268.036020343462
 20
-1106.811583535062
 30
0.0
 11
1269.312527676512
 21
-1107.368441203584
 31
0.0
  0
LINE
  5
3E2
  8
ZUWAKU
  6
CONTINUOUS
 62
     6
 10
1269.312527676512
 20
-1107.368441203584
 30
0.0
 11
1270.636295707601
 21
-1107.847881109622
 31
0.0
  0
LINE
  5
3E3
  8
ZUWAKU
  6
CONTINUOUS
 62
     6
 10
1270.636295707601
 20
-1107.847881109622
 30
0.0
 11
1271.997406049047
 21
-1108.24637400956
 31
0.0
  0
LINE
  5
3E4
  8
ZUWAKU
  6
CONTINUOUS
 62
     6
 10
1271.997406049047
 20
-1108.24637400956
 30
0.0
 11
1273.385667846021
 21
-1108.560972436725
 31
0.0
  0
LINE
  5
3E5
  8
ZUWAKU
  6
CONTINUOUS
 62
     6
 10
1273.385667846021
 20
-1108.560972436725
 30
0.0
 11
1274.790692415182
 21
-1108.789333876911
 31
0.0
  0
LINE
  5
3E6
  8
ZUWAKU
  6
CONTINUOUS
 62
     6
 10
1274.790692415182
 20
-1108.789333876911
 30
0.0
 11
1276.201970015797
 21
-1108.929738602209
 31
0.0
  0
LINE
  5
3E7
  8
ZUWAKU
  6
CONTINUOUS
 62
     6
 10
1276.201970015797
 20
-1108.929738602209
 30
0.0
 11
1277.608947711365
 21
-1108.981101894694
 31
0.0
  0
LINE
  5
3E8
  8
ZUWAKU
  6
CONTINUOUS
 62
     6
 10
1277.608947711365
 20
-1108.981101894694
 30
0.0
 11
1279.001107255031
 21
-1108.942980518649
 31
0.0
  0
LINE
  5
3E9
  8
ZUWAKU
  6
CONTINUOUS
 62
     6
 10
1279.001107255031
 20
-1108.942980518649
 30
0.0
 11
1280.368041875029
 21
-1108.815573437755
 31
0.0
  0
LINE
  5
3EA
  8
ZUWAKU
  6
CONTINUOUS
 62
     6
 10
1280.368041875029
 20
-1108.815573437755
 30
0.0
 11
1281.69953074947
 21
-1108.599716957961
 31
0.0
  0
LINE
  5
3EB
  8
ZUWAKU
  6
CONTINUOUS
 62
     6
 10
1281.69953074947
 20
-1108.599716957961
 30
0.0
 11
1282.985609859231
 21
-1108.296874752149
 31
0.0
  0
LINE
  5
3EC
  8
ZUWAKU
  6
CONTINUOUS
 62
     6
 10
1282.985609859231
 20
-1108.296874752149
 30
0.0
 11
1284.216637837342
 21
-1107.909123640079
 31
0.0
  0
LINE
  5
3ED
  8
ZUWAKU
  6
CONTINUOUS
 62
     6
 10
1284.216637837342
 20
-1107.909123640079
 30
0.0
 11
1285.383355485951
 21
-1107.439136608697
 31
0.0
  0
LINE
  5
3EE
  8
ZUWAKU
  6
CONTINUOUS
 62
     6
 10
1285.383355485951
 20
-1107.439136608697
 30
0.0
 11
1286.476937978895
 21
-1106.890165376216
 31
0.0
  0
LINE
  5
3EF
  8
ZUWAKU
  6
CONTINUOUS
 62
     6
 10
1286.476937978895
 20
-1106.890165376216
 30
0.0
 11
1287.489039678266
 21
-1106.266025733374
 31
0.0
  0
LINE
  5
3F0
  8
ZUWAKU
  6
CONTINUOUS
 62
     6
 10
1287.489039678266
 20
-1106.266025733374
 30
0.0
 11
1288.411833294126
 21
-1105.571089591766
 31
0.0
  0
LINE
  5
3F1
  8
ZUWAKU
  6
CONTINUOUS
 62
     6
 10
1288.411833294126
 20
-1105.571089591766
 30
0.0
 11
1289.238048005765
 21
-1104.810287385787
 31
0.0
  0
LINE
  5
3F2
  8
ZUWAKU
  6
CONTINUOUS
 62
     6
 10
1289.238048005765
 20
-1104.810287385787
 30
0.0
 11
1289.352297714154
 21
-1104.680519453603
 31
0.0
  0
ARC
  5
3F3
  8
ZUWAKU
  6
CONTINUOUS
 62
     6
 10
1296.265957673909
 20
-1106.831613248499
 30
0.0
 40
0.4685784014643071
 50
248.9511701848124
 51
45.0000000000002
  0
LINE
  5
3F4
  8
ZUWAKU
  6
CONTINUOUS
 62
     6
 10
1291.417537723818
 20
-1101.320523368021
 30
0.0
 11
1291.454292063712
 21
-1101.227440264717
 31
0.0
  0
LINE
  5
3F5
  8
ZUWAKU
  6
CONTINUOUS
 62
     6
 10
1291.454292063712
 20
-1101.227440264717
 30
0.0
 11
1291.712411256806
 21
-1100.231754576803
 31
0.0
  0
LINE
  5
3F6
  8
ZUWAKU
  6
CONTINUOUS
 62
     6
 10
1291.712411256806
 20
-1100.231754576803
 30
0.0
 11
1291.846077732083
 21
-1099.211877731112
 31
0.0
  0
LINE
  5
3F7
  8
ZUWAKU
  6
CONTINUOUS
 62
     6
 10
1291.854268586251
 20
-1098.176282249024
 30
0.0
 11
1291.737163324634
 21
-1097.13348759111
 31
0.0
  0
LINE
  5
3F8
  8
ZUWAKU
  6
CONTINUOUS
 62
     6
 10
1291.737163324634
 20
-1097.13348759111
 30
0.0
 11
1291.496079332
 21
-1096.091899456566
 31
0.0
  0
LINE
  5
3F9
  8
ZUWAKU
  6
CONTINUOUS
 62
     6
 10
1291.496079332
 20
-1096.091899456566
 30
0.0
 11
1291.159831721164
 21
-1095.135004469296
 31
0.0
  0
LINE
  5
3FA
  8
ZUWAKU
  6
CONTINUOUS
 62
     6
 10
1260.007176716402
 20
-1091.817758770526
 30
0.0
 11
1260.312931860342
 21
-1091.935426245259
 31
0.0
  0
LINE
  5
3FB
  8
ZUWAKU
  6
CONTINUOUS
 62
     6
 10
1260.312931860342
 20
-1091.935426245259
 30
0.0
 11
1260.369883738488
 21
-1091.830128629667
 31
0.0
  0
LINE
  5
3FC
  8
ZUWAKU
  6
CONTINUOUS
 62
     6
 10
1260.369883738488
 20
-1091.830128629667
 30
0.0
 11
1260.007176716402
 21
-1091.817758770526
 31
0.0
  0
LINE
  5
3FD
  8
ZUWAKU
  6
CONTINUOUS
 62
     6
 10
1261.155238674284
 20
-1093.856682594426
 30
0.0
 11
1261.047791493223
 21
-1094.271156307569
 31
0.0
  0
LINE
  5
3FE
  8
ZUWAKU
  6
CONTINUOUS
 62
     6
 10
1261.047791493223
 20
-1094.271156307569
 30
0.0
 11
1260.930803870585
 21
-1095.163773303081
 31
0.0
  0
LINE
  5
3FF
  8
ZUWAKU
  6
CONTINUOUS
 62
     6
 10
1260.930803870585
 20
-1095.163773303081
 30
0.0
 11
1260.923624528077
 21
-1096.071480181203
 31
0.0
  0
LINE
  5
400
  8
ZUWAKU
  6
CONTINUOUS
 62
     6
 10
1260.923624528077
 20
-1096.071480181203
 30
0.0
 11
1261.026549947506
 21
-1096.988006698158
 31
0.0
  0
LINE
  5
401
  8
ZUWAKU
  6
CONTINUOUS
 62
     6
 10
1261.026549947506
 20
-1096.988006698158
 30
0.0
 11
1261.239222947285
 21
-1097.906846935909
 31
0.0
  0
LINE
  5
402
  8
ZUWAKU
  6
CONTINUOUS
 62
     6
 10
1261.239222947285
 20
-1097.906846935909
 30
0.0
 11
1261.560543732908
 21
-1098.821263095787
 31
0.0
  0
LINE
  5
403
  8
ZUWAKU
  6
CONTINUOUS
 62
     6
 10
1261.560543732908
 20
-1098.821263095787
 30
0.0
 11
1261.988589319422
 21
-1099.724341855651
 31
0.0
  0
LINE
  5
404
  8
ZUWAKU
  6
CONTINUOUS
 62
     6
 10
1261.988589319422
 20
-1099.724341855651
 30
0.0
 11
1262.520562931935
 21
-1100.609086661935
 31
0.0
  0
LINE
  5
405
  8
ZUWAKU
  6
CONTINUOUS
 62
     6
 10
1262.520562931935
 20
-1100.609086661935
 30
0.0
 11
1263.152779967443
 21
-1101.468524553097
 31
0.0
  0
LINE
  5
406
  8
ZUWAKU
  6
CONTINUOUS
 62
     6
 10
1263.152779967443
 20
-1101.468524553097
 30
0.0
 11
1263.880686049873
 21
-1102.295810726959
 31
0.0
  0
LINE
  5
407
  8
ZUWAKU
  6
CONTINUOUS
 62
     6
 10
1263.880686049873
 20
-1102.295810726959
 30
0.0
 11
1264.698898214873
 21
-1103.084321745836
 31
0.0
  0
LINE
  5
408
  8
ZUWAKU
  6
CONTINUOUS
 62
     6
 10
1264.698898214873
 20
-1103.084321745836
 30
0.0
 11
1265.60126055958
 21
-1103.827734621904
 31
0.0
  0
LINE
  5
409
  8
ZUWAKU
  6
CONTINUOUS
 62
     6
 10
1265.60126055958
 20
-1103.827734621904
 30
0.0
 11
1266.58090803201
 21
-1104.520092663923
 31
0.0
  0
LINE
  5
40A
  8
ZUWAKU
  6
CONTINUOUS
 62
     6
 10
1266.58090803201
 20
-1104.520092663923
 30
0.0
 11
1267.630334524641
 21
-1105.155860349162
 31
0.0
  0
LINE
  5
40B
  8
ZUWAKU
  6
CONTINUOUS
 62
     6
 10
1267.630334524641
 20
-1105.155860349162
 30
0.0
 11
1268.741463290709
 21
-1105.729969555545
 31
0.0
  0
LINE
  5
40C
  8
ZUWAKU
  6
CONTINUOUS
 62
     6
 10
1268.741463290709
 20
-1105.729969555545
 30
0.0
 11
1269.905718822961
 21
-1106.237859016474
 31
0.0
  0
LINE
  5
40D
  8
ZUWAKU
  6
CONTINUOUS
 62
     6
 10
1269.905718822961
 20
-1106.237859016474
 30
0.0
 11
1271.114099899876
 21
-1106.6755082846
 31
0.0
  0
LINE
  5
40E
  8
ZUWAKU
  6
CONTINUOUS
 62
     6
 10
1271.114099899876
 20
-1106.6755082846
 30
0.0
 11
1272.357253725465
 21
-1107.039467001193
 31
0.0
  0
LINE
  5
40F
  8
ZUWAKU
  6
CONTINUOUS
 62
     6
 10
1272.357253725465
 20
-1107.039467001193
 30
0.0
 11
1273.625551131757
 21
-1107.326879915727
 31
0.0
  0
LINE
  5
410
  8
ZUWAKU
  6
CONTINUOUS
 62
     6
 10
1273.625551131757
 20
-1107.326879915727
 30
0.0
 11
1274.909162782472
 21
-1107.535507872589
 31
0.0
  0
LINE
  5
411
  8
ZUWAKU
  6
CONTINUOUS
 62
     6
 10
1274.909162782472
 20
-1107.535507872589
 30
0.0
 11
1276.198136273274
 21
-1107.663744846534
 31
0.0
  0
LINE
  5
412
  8
ZUWAKU
  6
CONTINUOUS
 62
     6
 10
1276.198136273274
 20
-1107.663744846534
 30
0.0
 11
1277.482473999394
 21
-1107.710631029925
 31
0.0
  0
LINE
  5
413
  8
ZUWAKU
  6
CONTINUOUS
 62
     6
 10
1277.482473999394
 20
-1107.710631029925
 30
0.0
 11
1278.752211672282
 21
-1107.675861920649
 31
0.0
  0
LINE
  5
414
  8
ZUWAKU
  6
CONTINUOUS
 62
     6
 10
1278.752211672282
 20
-1107.675861920649
 30
0.0
 11
1279.997497418573
 21
-1107.559793295649
 31
0.0
  0
LINE
  5
415
  8
ZUWAKU
  6
CONTINUOUS
 62
     6
 10
1279.997497418573
 20
-1107.559793295649
 30
0.0
 11
1281.208671485868
 21
-1107.363441846076
 31
0.0
  0
LINE
  5
416
  8
ZUWAKU
  6
CONTINUOUS
 62
     6
 10
1281.208671485868
 20
-1107.363441846076
 30
0.0
 11
1282.376346693017
 21
-1107.088481050331
 31
0.0
  0
LINE
  5
417
  8
ZUWAKU
  6
CONTINUOUS
 62
     6
 10
1282.376346693017
 20
-1107.088481050331
 30
0.0
 11
1283.491489855004
 21
-1106.737231518339
 31
0.0
  0
LINE
  5
418
  8
ZUWAKU
  6
CONTINUOUS
 62
     6
 10
1283.491489855004
 20
-1106.737231518339
 30
0.0
 11
1284.545504390656
 21
-1106.312644504313
 31
0.0
  0
LINE
  5
419
  8
ZUWAKU
  6
CONTINUOUS
 62
     6
 10
1284.545504390656
 20
-1106.312644504313
 30
0.0
 11
1285.53031401329
 21
-1105.818276538663
 31
0.0
  0
LINE
  5
41A
  8
ZUWAKU
  6
CONTINUOUS
 62
     6
 10
1285.53031401329
 20
-1105.818276538663
 30
0.0
 11
1286.438446541864
 21
-1105.258252271947
 31
0.0
  0
LINE
  5
41B
  8
ZUWAKU
  6
CONTINUOUS
 62
     6
 10
1286.438446541864
 20
-1105.258252271947
 30
0.0
 11
1287.263115124363
 21
-1104.637211994931
 31
0.0
  0
LINE
  5
41C
  8
ZUWAKU
  6
CONTINUOUS
 62
     6
 10
1287.263115124363
 20
-1104.637211994931
 30
0.0
 11
1287.844596563516
 21
-1104.101767206292
 31
0.0
  0
LINE
  5
41D
  8
ZUWAKU
  6
CONTINUOUS
 62
     6
 10
1290.374197491269
 20
-1103.399738662604
 30
0.0
 11
1290.574729733463
 21
-1103.113689990875
 31
0.0
  0
LINE
  5
41E
  8
ZUWAKU
  6
CONTINUOUS
 62
     6
 10
1290.574729733463
 20
-1103.113689990875
 30
0.0
 11
1290.724639073628
 21
-1102.836524485786
 31
0.0
  0
LINE
  5
41F
  8
ZUWAKU
  6
CONTINUOUS
 62
     6
 10
1290.724639073628
 20
-1102.836524485786
 30
0.0
 11
1291.857077587748
 21
-1103.968962999905
 31
0.0
  0
LINE
  5
420
  8
ZUWAKU
  6
CONTINUOUS
 62
     6
 10
1289.799969496112
 20
-1095.766231497943
 30
0.0
 11
1289.986775486595
 21
-1096.297844839199
 31
0.0
  0
LINE
  5
421
  8
ZUWAKU
  6
CONTINUOUS
 62
     6
 10
1289.986775486595
 20
-1096.297844839199
 30
0.0
 11
1290.19944848638
 21
-1097.216685076951
 31
0.0
  0
LINE
  5
422
  8
ZUWAKU
  6
CONTINUOUS
 62
     6
 10
1290.19944848638
 20
-1097.216685076951
 30
0.0
 11
1290.302373905809
 21
-1098.133211593916
 31
0.0
  0
LINE
  5
423
  8
ZUWAKU
  6
CONTINUOUS
 62
     6
 10
1290.302373905809
 20
-1098.133211593916
 30
0.0
 11
1290.295194563301
 21
-1099.040918472027
 31
0.0
  0
LINE
  5
424
  8
ZUWAKU
  6
CONTINUOUS
 62
     6
 10
1290.295194563301
 20
-1099.040918472027
 30
0.0
 11
1290.178206940663
 21
-1099.93353546755
 31
0.0
  0
LINE
  5
425
  8
ZUWAKU
  6
CONTINUOUS
 62
     6
 10
1290.178206940663
 20
-1099.93353546755
 30
0.0
 11
1290.14780896044
 21
-1100.050794604643
 31
0.0
  0
LINE
  5
426
  8
ZUWAKU
  6
CONTINUOUS
 62
     6
 10
1290.14780896044
 20
-1100.050794604643
 30
0.0
 11
1287.111289537746
 21
-1097.014275181959
 31
0.0
  0
LINE
  5
427
  8
ZUWAKU
  6
CONTINUOUS
 62
     6
 10
1263.075304346717
 20
-1090.417554321194
 30
0.0
 11
1263.227707094871
 21
-1090.244451126747
 31
0.0
  0
LINE
  5
428
  8
ZUWAKU
  6
CONTINUOUS
 62
     6
 10
1263.227707094871
 20
-1090.244451126747
 30
0.0
 11
1263.962883309522
 21
-1089.567479780188
 31
0.0
  0
LINE
  5
429
  8
ZUWAKU
  6
CONTINUOUS
 62
     6
 10
1263.962883309522
 20
-1089.567479780188
 30
0.0
 11
1264.787551892017
 21
-1088.946439503162
 31
0.0
  0
LINE
  5
42A
  8
ZUWAKU
  6
CONTINUOUS
 62
     6
 10
1264.787551892017
 20
-1088.946439503162
 30
0.0
 11
1265.69568442059
 21
-1088.386415236445
 31
0.0
  0
LINE
  5
42B
  8
ZUWAKU
  6
CONTINUOUS
 62
     6
 10
1265.69568442059
 20
-1088.386415236445
 30
0.0
 11
1266.68049404323
 21
-1087.892047270795
 31
0.0
  0
LINE
  5
42C
  8
ZUWAKU
  6
CONTINUOUS
 62
     6
 10
1266.68049404323
 20
-1087.892047270795
 30
0.0
 11
1267.734508578881
 21
-1087.467460256769
 31
0.0
  0
LINE
  5
42D
  8
ZUWAKU
  6
CONTINUOUS
 62
     6
 10
1267.734508578881
 20
-1087.467460256769
 30
0.0
 11
1268.849651740869
 21
-1087.116210724777
 31
0.0
  0
LINE
  5
42E
  8
ZUWAKU
  6
CONTINUOUS
 62
     6
 10
1268.849651740869
 20
-1087.116210724777
 30
0.0
 11
1270.017326948012
 21
-1086.841249929032
 31
0.0
  0
LINE
  5
42F
  8
ZUWAKU
  6
CONTINUOUS
 62
     6
 10
1270.017326948012
 20
-1086.841249929032
 30
0.0
 11
1271.228501015313
 21
-1086.64489847947
 31
0.0
  0
LINE
  5
430
  8
ZUWAKU
  6
CONTINUOUS
 62
     6
 10
1271.228501015313
 20
-1086.64489847947
 30
0.0
 11
1272.473786761603
 21
-1086.528829854459
 31
0.0
  0
LINE
  5
431
  8
ZUWAKU
  6
CONTINUOUS
 62
     6
 10
1272.473786761603
 20
-1086.528829854459
 30
0.0
 11
1273.743524434486
 21
-1086.494060745183
 31
0.0
  0
LINE
  5
432
  8
ZUWAKU
  6
CONTINUOUS
 62
     6
 10
1273.743524434486
 20
-1086.494060745183
 30
0.0
 11
1275.027862160611
 21
-1086.540946928585
 31
0.0
  0
LINE
  5
433
  8
ZUWAKU
  6
CONTINUOUS
 62
     6
 10
1275.027862160611
 20
-1086.540946928585
 30
0.0
 11
1276.316835651408
 21
-1086.66918390252
 31
0.0
  0
LINE
  5
434
  8
ZUWAKU
  6
CONTINUOUS
 62
     6
 10
1276.316835651408
 20
-1086.66918390252
 30
0.0
 11
1277.600447302129
 21
-1086.877811859381
 31
0.0
  0
LINE
  5
435
  8
ZUWAKU
  6
CONTINUOUS
 62
     6
 10
1277.600447302129
 20
-1086.877811859381
 30
0.0
 11
1278.868744708415
 21
-1087.165224773915
 31
0.0
  0
LINE
  5
436
  8
ZUWAKU
  6
CONTINUOUS
 62
     6
 10
1278.868744708415
 20
-1087.165224773915
 30
0.0
 11
1280.11189853401
 21
-1087.529183490508
 31
0.0
  0
LINE
  5
437
  8
ZUWAKU
  6
CONTINUOUS
 62
     6
 10
1280.11189853401
 20
-1087.529183490508
 30
0.0
 11
1281.320279610925
 21
-1087.966832758645
 31
0.0
  0
LINE
  5
438
  8
ZUWAKU
  6
CONTINUOUS
 62
     6
 10
1281.320279610925
 20
-1087.966832758645
 30
0.0
 11
1282.484535143172
 21
-1088.474722219574
 31
0.0
  0
LINE
  5
439
  8
ZUWAKU
  6
CONTINUOUS
 62
     6
 10
1282.484535143172
 20
-1088.474722219574
 30
0.0
 11
1283.595663909239
 21
-1089.048831425946
 31
0.0
  0
LINE
  5
43A
  8
ZUWAKU
  6
CONTINUOUS
 62
     6
 10
1283.595663909239
 20
-1089.048831425946
 30
0.0
 11
1284.645090401876
 21
-1089.684599111185
 31
0.0
  0
LINE
  5
43B
  8
ZUWAKU
  6
CONTINUOUS
 62
     6
 10
1284.645090401876
 20
-1089.684599111185
 30
0.0
 11
1285.6247378743
 21
-1090.376957153215
 31
0.0
  0
LINE
  5
43C
  8
ZUWAKU
  6
CONTINUOUS
 62
     6
 10
1285.6247378743
 20
-1090.376957153215
 30
0.0
 11
1286.527100219012
 21
-1091.120370029272
 31
0.0
  0
LINE
  5
43D
  8
ZUWAKU
  6
CONTINUOUS
 62
     6
 10
1286.527100219012
 20
-1091.120370029272
 30
0.0
 11
1286.607872216545
 21
-1091.198209998904
 31
0.0
  0
LINE
  5
43E
  8
ZUWAKU
  6
CONTINUOUS
 62
     6
 10
1268.64964005389
 20
-1089.066845891543
 30
0.0
 11
1269.419157955358
 21
-1088.885642031747
 31
0.0
  0
LINE
  5
43F
  8
ZUWAKU
  6
CONTINUOUS
 62
     6
 10
1269.419157955358
 20
-1088.885642031747
 30
0.0
 11
1270.665891398409
 21
-1088.683525816269
 31
0.0
  0
LINE
  5
440
  8
ZUWAKU
  6
CONTINUOUS
 62
     6
 10
1270.665891398409
 20
-1088.683525816269
 30
0.0
 11
1271.945752006196
 21
-1088.564234592236
 31
0.0
  0
LINE
  5
441
  8
ZUWAKU
  6
CONTINUOUS
 62
     6
 10
1271.945752006196
 20
-1088.564234592236
 30
0.0
 11
1273.249181642644
 21
-1088.528542899036
 31
0.0
  0
LINE
  5
442
  8
ZUWAKU
  6
CONTINUOUS
 62
     6
 10
1273.249181642644
 20
-1088.528542899036
 30
0.0
 11
1274.566448824158
 21
-1088.576631208988
 31
0.0
  0
LINE
  5
443
  8
ZUWAKU
  6
CONTINUOUS
 62
     6
 10
1274.566448824158
 20
-1088.576631208988
 30
0.0
 11
1275.887718055058
 21
-1088.708081210979
 31
0.0
  0
LINE
  5
444
  8
ZUWAKU
  6
CONTINUOUS
 62
     6
 10
1275.887718055058
 20
-1088.708081210979
 30
0.0
 11
1277.203121416889
 21
-1088.921876337937
 31
0.0
  0
LINE
  5
445
  8
ZUWAKU
  6
CONTINUOUS
 62
     6
 10
1277.203121416889
 20
-1088.921876337937
 30
0.0
 11
1278.502831240419
 21
-1089.216407720371
 31
0.0
  0
LINE
  5
446
  8
ZUWAKU
  6
CONTINUOUS
 62
     6
 10
1278.502831240419
 20
-1089.216407720371
 30
0.0
 11
1279.176008333477
 21
-1089.413494087149
 31
0.0
  0
LINE
  5
447
  8
ZUWAKU
  6
CONTINUOUS
 62
     6
 10
1288.128593875111
 20
-1092.81144473239
 30
0.0
 11
1288.705435501951
 21
-1093.595605113184
 31
0.0
  0
LINE
  5
448
  8
ZUWAKU
  6
CONTINUOUS
 62
     6
 10
1288.705435501951
 20
-1093.595605113184
 30
0.0
 11
1289.155153262905
 21
-1094.343547198915
 31
0.0
  0
ARC
  5
449
  8
ZUWAKU
  6
CONTINUOUS
 62
     6
 10
1286.663839361521
 20
-1096.934974967055
 30
0.0
 40
1.301606670734187
 50
114.8999999999998
 51
225.0
  0
LINE
  5
44A
  8
ZUWAKU
  6
CONTINUOUS
 62
     6
 10
1285.743464458204
 20
-1097.855349870367
 30
0.0
 11
1289.618919352665
 21
-1101.649280459999
 31
0.0
  0
LINE
  5
44B
  8
ZUWAKU
  6
CONTINUOUS
 62
     6
 10
1289.618919352665
 20
-1101.649280459999
 30
0.0
 11
1289.180151689257
 21
-1102.460512508057
 31
0.0
  0
LINE
  5
44C
  8
ZUWAKU
  6
CONTINUOUS
 62
     6
 10
1289.180151689257
 20
-1102.460512508057
 30
0.0
 11
1288.914520628684
 21
-1102.839421212281
 31
0.0
  0
LINE
  5
44D
  8
ZUWAKU
  6
CONTINUOUS
 62
     6
 10
1261.695908849625
 20
-1092.391175066715
 30
0.0
 11
1261.938511415111
 21
-1091.942630216047
 31
0.0
  0
LINE
  5
44E
  8
ZUWAKU
  6
CONTINUOUS
 62
     6
 10
1285.386146871372
 20
-1096.686616705833
 30
0.0
 11
1285.00926002587
 21
-1098.625531440423
 31
0.0
  0
ARC
  5
44F
  8
ZUWAKU
  6
CONTINUOUS
 62
     6
 10
1286.286952516018
 20
-1098.873889701634
 30
0.0
 40
1.301606670734187
 50
169.0
 51
224.9999999999982
  0
LINE
  5
450
  8
ZUWAKU
  6
CONTINUOUS
 62
     6
 10
1285.366577612707
 20
-1099.794264604957
 30
0.0
 11
1286.521340782104
 21
-1100.949027774354
 31
0.0
  0
ARC
  5
451
  8
ZUWAKU
  6
CONTINUOUS
 62
     6
 10
1286.190005816913
 20
-1101.280362739545
 30
0.0
 40
0.4685784014643071
 50
248.9511701848126
 51
44.99999999999822
  0
LINE
  5
452
  8
ZUWAKU
  6
CONTINUOUS
 62
     6
 10
1261.143572221302
 20
-1090.353472166634
 30
0.0
 11
1252.421499228701
 21
-1090.064131205597
 31
0.0
  0
ARC
  5
453
  8
ZUWAKU
  6
CONTINUOUS
 62
     6
 10
1252.412868228426
 20
-1090.324309419219
 30
0.0
 40
0.2603213341468374
 50
88.10000000000004
 51
168.999999999998
  0
LINE
  5
454
  8
ZUWAKU
  6
CONTINUOUS
 62
     6
 10
1252.157329730396
 20
-1090.274637766983
 30
0.0
 11
1251.7723398803
 21
-1092.255238846411
 31
0.0
  0
ARC
  5
455
  8
ZUWAKU
  6
CONTINUOUS
 62
     6
 10
1252.02787837833
 20
-1092.304910498657
 30
0.0
 40
0.2603213341468374
 50
168.999999999998
 51
249.0000000000001
  0
LINE
  5
456
  8
ZUWAKU
  6
CONTINUOUS
 62
     6
 10
1251.934587555586
 20
-1092.547941400819
 30
0.0
 11
1259.127348613597
 21
-1095.308983683587
 31
0.0
  0
ARC
  5
457
  8
ZUWAKU
  6
CONTINUOUS
 62
     6
 10
1258.84747614537
 20
-1096.038076390073
 30
0.0
 40
0.7809640024405122
 50
47.38928590658141
 51
69.00000000000026
  0
ARC
  5
458
  8
ZUWAKU
  6
CONTINUOUS
 62
     6
 10
1253.934994648212
 20
-1090.583175179786
 30
0.0
 40
0.4685784014643066
 50
88.10000000000034
 51
249.0000000000006
  0
LINE
  5
459
  8
ZUWAKU
  6
CONTINUOUS
 62
     6
 10
1259.689575790562
 20
-1093.294067325882
 30
0.0
 11
1253.767071167276
 21
-1091.020630803673
 31
0.0
  0
LINE
  5
45A
  8
ZUWAKU
  6
CONTINUOUS
 62
     6
 10
1263.075304346717
 20
-1090.417554321194
 30
0.0
 11
1286.607872216545
 21
-1091.198209998904
 31
0.0
  0
ARC
  5
45B
  8
ZUWAKU
  6
CONTINUOUS
 62
     6
 10
1268.82864334217
 20
-1089.827018632365
 30
0.0
 40
0.7809640024405122
 50
103.2504547662727
 51
268.1000000000001
  0
ARC
  5
45C
  8
ZUWAKU
  6
CONTINUOUS
 62
     6
 10
1278.956576090249
 20
-1090.162996764758
 30
0.0
 40
0.7809640024405122
 50
268.1000000000001
 51
73.68152816059866
  0
ARC
  5
45D
  8
ZUWAKU
  6
CONTINUOUS
 62
     6
 10
1288.960424337188
 20
-1090.494858590297
 30
0.0
 40
0.7809640024405122
 50
226.0590228224415
 51
268.1000000000001
  0
LINE
  5
45E
  8
ZUWAKU
  6
CONTINUOUS
 62
     6
 10
1288.634591873784
 20
-1091.265443214438
 30
0.0
 11
1298.206509292525
 21
-1091.582976418664
 31
0.0
  0
ARC
  5
45F
  8
ZUWAKU
  6
CONTINUOUS
 62
     6
 10
1298.19787829225
 20
-1091.843154632298
 30
0.0
 40
0.2603213341468374
 50
348.9999999999998
 51
88.10000000000012
  0
LINE
  5
460
  8
ZUWAKU
  6
CONTINUOUS
 62
     6
 10
1298.453416790279
 20
-1091.892826284534
 30
0.0
 11
1298.135340358199
 21
-1093.529187670589
 31
0.0
  0
ARC
  5
461
  8
ZUWAKU
  6
CONTINUOUS
 62
     6
 10
1297.879801860169
 20
-1093.479516018343
 30
0.0
 40
0.2603213341468374
 50
294.9000000000004
 51
348.9999999999997
  0
LINE
  5
462
  8
ZUWAKU
  6
CONTINUOUS
 62
     6
 10
1297.989406464832
 20
-1093.715638926275
 30
0.0
 11
1292.192147032168
 21
-1096.406637160174
 31
0.0
  0
ARC
  5
463
  8
ZUWAKU
  6
CONTINUOUS
 62
     6
 10
1292.520960846144
 20
-1097.115005883971
 30
0.0
 40
0.7809640024405122
 50
114.9000000000003
 51
186.4074391525501
  0
LINE
  5
464
  8
ZUWAKU
  6
CONTINUOUS
 62
     6
 10
1291.159831721164
 20
-1095.135004469296
 30
0.0
 11
1296.987581501849
 21
-1092.429853087055
 31
0.0
  0
ARC
  5
465
  8
ZUWAKU
  6
CONTINUOUS
 62
     6
 10
1296.790293213458
 20
-1092.004831852781
 30
0.0
 40
0.4685784014643071
 50
294.9000000000001
 51
88.09999999999762
  0
LINE
  5
466
  8
ZUWAKU
  6
CONTINUOUS
 62
     6
 10
1289.799969496112
 20
-1095.766231497943
 30
0.0
 11
1287.111289537746
 21
-1097.014275181959
 31
0.0
  0
LINE
  5
467
  8
ZUWAKU
  6
CONTINUOUS
 62
     6
 10
1289.155153262905
 20
-1094.343547198915
 30
0.0
 11
1286.11581633822
 21
-1095.754360427404
 31
0.0
  0
LINE
  5
468
  8
ZUWAKU
  6
CONTINUOUS
 62
     6
 10
1261.938511415111
 20
-1091.942630216047
 30
0.0
 11
1288.128593875111
 21
-1092.81144473239
 31
0.0
  0
LINE
  5
469
  8
ZUWAKU
  6
CONTINUOUS
 62
     6
 10
1270.881613957731
 20
-1094.290237180071
 30
0.0
 11
1285.14000554682
 21
-1094.763236744363
 31
0.0
  0
LINE
  5
46A
  8
ZUWAKU
  6
CONTINUOUS
 62
     6
 10
1288.914520628684
 20
-1102.839421212281
 30
0.0
 11
1261.695908849625
 21
-1092.391175066715
 31
0.0
  0
LINE
  5
46B
  8
ZUWAKU
  6
CONTINUOUS
 62
     6
 10
1287.844596563516
 20
-1104.101767206292
 30
0.0
 11
1261.155238674284
 21
-1093.856682594426
 31
0.0
  0
LINE
  5
46C
  8
ZUWAKU
  6
CONTINUOUS
 62
     6
 10
1262.157376961069
 20
-1096.472102591325
 30
0.0
 11
1284.276334434925
 21
-1104.96277485801
 31
0.0
  0
LINE
  5
46D
  8
ZUWAKU
  6
CONTINUOUS
 62
     6
 10
1296.099488750594
 20
-1107.270523430013
 30
0.0
 11
1289.352297714154
 21
-1104.680519453603
 31
0.0
  0
LINE
  5
46E
  8
ZUWAKU
  6
CONTINUOUS
 62
     6
 10
1289.179322989644
 20
-1106.844855828364
 30
0.0
 11
1297.104241901229
 21
-1109.88694717909
 31
0.0
  0
ARC
  5
46F
  8
ZUWAKU
  6
CONTINUOUS
 62
     6
 10
1261.877504492842
 20
-1097.2011952978
 30
0.0
 40
0.7809640024405122
 50
69.00000000000045
 51
193.0320838540864
  0
ARC
  5
470
  8
ZUWAKU
  6
CONTINUOUS
 62
     6
 10
1270.855720956916
 20
-1095.070771820949
 30
0.0
 40
0.7809640024405122
 50
88.10000000000004
 51
249.0000000000013
  0
ARC
  5
471
  8
ZUWAKU
  6
CONTINUOUS
 62
     6
 10
1283.996461966698
 20
-1105.691867564496
 30
0.0
 40
0.7809640024405122
 50
291.9409771775832
 51
69.00000000000135
  0
ARC
  5
472
  8
ZUWAKU
  6
CONTINUOUS
 62
     6
 10
1285.114112546005
 20
-1095.543771385241
 30
0.0
 40
0.7809640024405122
 50
318.0853946908567
 51
88.10000000000007
  0
ARC
  5
473
  8
ZUWAKU
  6
CONTINUOUS
 62
     6
 10
1288.899450521423
 20
-1107.573948534839
 30
0.0
 40
0.7809640024405122
 50
68.99999999999984
 51
132.639760324211
  0
LINE
  5
474
  8
ZUWAKU
  6
CONTINUOUS
 62
     6
 10
1297.816561360386
 20
-1107.823593277976
 30
0.0
 11
1297.453071221998
 21
-1109.693587929175
 31
0.0
  0
ARC
  5
475
  8
ZUWAKU
  6
CONTINUOUS
 62
     6
 10
1297.197532723968
 20
-1109.643916276928
 30
0.0
 40
0.2603213341468374
 50
249.0000000000002
 51
348.9999999999995
  0
LINE
  5
476
  8
ZUWAKU
  6
CONTINUOUS
 62
     6
 10
1290.374197491269
 20
-1103.399738662604
 30
0.0
 11
1291.857077587748
 21
-1103.968962999905
 31
0.0
  0
LINE
  5
477
  8
ZUWAKU
  6
CONTINUOUS
 62
     7
 10
1257.227807018425
 20
-1068.641257908214
 30
0.0
 11
1257.643474795846
 21
-1066.502832574563
 31
0.0
  0
LINE
  5
478
  8
ZUWAKU
  6
CONTINUOUS
 62
     7
 10
1259.434709802664
 20
-1066.502832574563
 30
0.0
 11
1257.643474795846
 21
-1066.502832574563
 31
0.0
  0
LINE
  5
479
  8
ZUWAKU
  6
CONTINUOUS
 62
     7
 10
1259.434709802664
 20
-1066.502832574563
 30
0.0
 11
1259.050370106789
 21
-1068.480088900452
 31
0.0
  0
ARC
  5
47A
  8
ZUWAKU
  6
CONTINUOUS
 62
     7
 10
1259.464941439866
 20
-1068.560673404333
 30
0.0
 40
0.4223307382550334
 50
169.0000000000074
 51
270.0000000000001
  0
LINE
  5
47B
  8
ZUWAKU
  6
CONTINUOUS
 62
     7
 10
1259.464941439866
 20
-1068.983004142586
 30
0.0
 11
1263.58226688021
 21
-1068.983004142586
 31
0.0
  0
LINE
  5
47C
  8
ZUWAKU
  6
CONTINUOUS
 62
     7
 10
1263.58226688021
 20
-1068.983004142586
 30
0.0
 11
1263.232216155283
 21
-1070.783859005311
 31
0.0
  0
LINE
  5
47D
  8
ZUWAKU
  6
CONTINUOUS
 62
     7
 10
1258.950705156017
 20
-1070.783859005311
 30
0.0
 11
1263.232216155283
 21
-1070.783859005311
 31
0.0
  0
ARC
  5
47E
  8
ZUWAKU
  6
CONTINUOUS
 62
     7
 10
1258.950705156017
 20
-1071.206189743564
 30
0.0
 40
0.4223307382550334
 50
89.99999999999814
 51
168.9999999999999
  0
LINE
  5
47F
  8
ZUWAKU
  6
CONTINUOUS
 62
     7
 10
1258.536133822941
 20
-1071.125605239683
 30
0.0
 11
1257.156273013302
 21
-1078.2243737094
 31
0.0
  0
LINE
  5
480
  8
ZUWAKU
  6
CONTINUOUS
 62
     7
 10
1255.365038006489
 20
-1078.2243737094
 30
0.0
 11
1257.156273013302
 21
-1078.2243737094
 31
0.0
  0
LINE
  5
481
  8
ZUWAKU
  6
CONTINUOUS
 62
     7
 10
1255.365038006489
 20
-1078.2243737094
 30
0.0
 11
1256.713570734576
 21
-1071.286774247445
 31
0.0
  0
ARC
  5
482
  8
ZUWAKU
  6
CONTINUOUS
 62
     7
 10
1256.2989994015
 20
-1071.206189743564
 30
0.0
 40
0.4223307382550334
 50
349.0000000000003
 51
90.0000000000005
  0
LINE
  5
483
  8
ZUWAKU
  6
CONTINUOUS
 62
     7
 10
1256.2989994015
 20
-1070.783859005311
 30
0.0
 11
1252.181673961156
 21
-1070.783859005311
 31
0.0
  0
LINE
  5
484
  8
ZUWAKU
  6
CONTINUOUS
 62
     7
 10
1252.181673961156
 20
-1070.783859005311
 30
0.0
 11
1252.531724686082
 21
-1068.983004142586
 31
0.0
  0
LINE
  5
485
  8
ZUWAKU
  6
CONTINUOUS
 62
     7
 10
1252.531724686082
 20
-1068.983004142586
 30
0.0
 11
1256.813235685349
 21
-1068.983004142586
 31
0.0
  0
ARC
  5
486
  8
ZUWAKU
  6
CONTINUOUS
 62
     7
 10
1256.813235685349
 20
-1068.560673404333
 30
0.0
 40
0.4223307382550334
 50
270.0000000000001
 51
349.0000000000099
  0
LINE
  5
487
  8
ZUWAKU
  6
CONTINUOUS
 62
     7
 10
1253.312752736608
 20
-1072.620589109036
 30
0.0
 11
1253.119804556004
 21
-1073.613221446431
 31
0.0
  0
ARC
  5
488
  8
ZUWAKU
  6
CONTINUOUS
 62
     7
 10
1250.595243236242
 20
-1073.122496436656
 30
0.0
 40
2.571812763880414
 50
285.6048457891953
 51
348.9999999999995
  0
ARC
  5
489
  8
ZUWAKU
  6
CONTINUOUS
 62
     7
 10
1251.306890515392
 20
-1075.670498566015
 30
0.0
 40
0.0737035753508236
 50
105.6048457891947
 51
168.9999999999997
  0
LINE
  5
48A
  8
ZUWAKU
  6
CONTINUOUS
 62
     7
 10
1250.740269136898
 20
-1078.199243982571
 30
0.0
 11
1251.234541082308
 21
-1075.656435260848
 31
0.0
  0
ARC
  5
48B
  8
ZUWAKU
  6
CONTINUOUS
 62
     7
 10
1249.68267631087
 20
-1073.277544712303
 30
0.0
 40
5.034046711409395
 50
282.127509556616
 51
348.9999999999987
  0
LINE
  5
48C
  8
ZUWAKU
  6
CONTINUOUS
 62
     7
 10
1254.624233405538
 20
-1074.238086107984
 30
0.0
 11
1254.938642972223
 21
-1072.620589109036
 31
0.0
  0
LINE
  5
48D
  8
ZUWAKU
  6
CONTINUOUS
 62
     7
 10
1254.938642972223
 20
-1072.620589109036
 30
0.0
 11
1253.312752736608
 21
-1072.620589109036
 31
0.0
  0
LINE
  5
48E
  8
ZUWAKU
  6
CONTINUOUS
 62
     7
 10
1260.091888355889
 20
-1072.620589109036
 30
0.0
 11
1259.54936311299
 21
-1075.411639526163
 31
0.0
  0
ARC
  5
48F
  8
ZUWAKU
  6
CONTINUOUS
 62
     7
 10
1261.731702532759
 20
-1075.835843337224
 30
0.0
 40
2.223185600976204
 50
168.9999999999999
 51
269.9999999999885
  0
LINE
  5
490
  8
ZUWAKU
  6
CONTINUOUS
 62
     7
 10
1261.731702532759
 20
-1078.059028938191
 30
0.0
 11
1261.818066374696
 21
-1078.059028938191
 31
0.0
  0
LINE
  5
491
  8
ZUWAKU
  6
CONTINUOUS
 62
     7
 10
1261.818066374696
 20
-1078.059028938191
 30
0.0
 11
1262.296676170588
 21
-1075.596794990663
 31
0.0
  0
LINE
  5
492
  8
ZUWAKU
  6
CONTINUOUS
 62
     7
 10
1262.296676170588
 20
-1075.596794990663
 30
0.0
 11
1262.087983894047
 21
-1075.596794990663
 31
0.0
  0
ARC
  5
493
  8
ZUWAKU
  6
CONTINUOUS
 62
     7
 10
1262.087983894047
 20
-1074.678429938806
 30
0.0
 40
0.9183650518608906
 50
168.9999999999997
 51
269.9999999999974
  0
LINE
  5
494
  8
ZUWAKU
  6
CONTINUOUS
 62
     7
 10
1261.186491794811
 20
-1074.503197625877
 30
0.0
 11
1261.552433820301
 21
-1072.620589109036
 31
0.0
  0
LINE
  5
495
  8
ZUWAKU
  6
CONTINUOUS
 62
     7
 10
1261.552433820301
 20
-1072.620589109036
 30
0.0
 11
1260.091888355889
 21
-1072.620589109036
 31
0.0
  0
LINE
  5
496
  8
ZUWAKU
  6
CONTINUOUS
 62
     7
 10
1268.987984473302
 20
-1066.833522116959
 30
0.0
 11
1268.829210216082
 21
-1067.650344859562
 31
0.0
  0
ARC
  5
497
  8
ZUWAKU
  6
CONTINUOUS
 62
     7
 10
1265.0061935199
 20
-1066.907225692311
 30
0.0
 40
3.894570933496032
 50
271.0152301125743
 51
349.000000000001
  0
LINE
  5
498
  8
ZUWAKU
  6
CONTINUOUS
 62
     7
 10
1264.599124664496
 20
-1073.250371444454
 30
0.0
 11
1265.075198232394
 21
-1070.801185258836
 31
0.0
  0
ARC
  5
499
  8
ZUWAKU
  6
CONTINUOUS
 62
     7
 10
1264.182627050395
 20
-1066.907225692311
 30
0.0
 40
6.356804881025012
 50
273.7567084122492
 51
341.5139853209125
  0
ARC
  5
49A
  8
ZUWAKU
  6
CONTINUOUS
 62
     7
 10
1270.611966578378
 20
-1069.056707717937
 30
0.0
 40
0.4223307382550334
 50
89.9999999999993
 51
161.5139853209126
  0
LINE
  5
49B
  8
ZUWAKU
  6
CONTINUOUS
 62
     7
 10
1270.611966578378
 20
-1068.634376979685
 30
0.0
 11
1273.581983044725
 21
-1068.634376979685
 31
0.0
  0
ARC
  5
49C
  8
ZUWAKU
  6
CONTINUOUS
 62
     7
 10
1273.581983044725
 20
-1069.056707717937
 30
0.0
 40
0.4223307382550334
 50
346.2586933201409
 51
90.00000000000375
  0
ARC
  5
49D
  8
ZUWAKU
  6
CONTINUOUS
 62
     7
 10
1265.71198067131
 20
-1067.132195933359
 30
0.0
 40
8.524224527150698
 50
277.267166461819
 51
346.258693320142
  0
LINE
  5
49E
  8
ZUWAKU
  6
CONTINUOUS
 62
     7
 10
1266.310432846077
 20
-1078.056455773655
 30
0.0
 11
1266.790262505826
 21
-1075.587946170596
 31
0.0
  0
ARC
  5
49F
  8
ZUWAKU
  6
CONTINUOUS
 62
     7
 10
1266.087439660541
 20
-1068.395328633135
 30
0.0
 40
9.66370030506406
 50
271.3222370437007
 51
349.0000000000002
  0
LINE
  5
4A0
  8
ZUWAKU
  6
CONTINUOUS
 62
     7
 10
1275.573590572686
 20
-1070.239249579962
 30
0.0
 11
1276.23559692978
 21
-1066.833522116959
 31
0.0
  0
LINE
  5
4A1
  8
ZUWAKU
  6
CONTINUOUS
 62
     7
 10
1268.987984473302
 20
-1066.833522116959
 30
0.0
 11
1276.23559692978
 21
-1066.833522116959
 31
0.0
  0
LINE
  5
4A2
  8
ZUWAKU
  6
CONTINUOUS
 62
     7
 10
1288.305765227523
 20
-1066.833522116959
 30
0.0
 11
1278.081946889407
 21
-1066.833522116959
 31
0.0
  0
LINE
  5
4A3
  8
ZUWAKU
  6
CONTINUOUS
 62
     7
 10
1277.731896164481
 20
-1068.634376979685
 30
0.0
 11
1281.353187291215
 21
-1068.634376979685
 31
0.0
  0
LINE
  5
4A4
  8
ZUWAKU
  6
CONTINUOUS
 62
     7
 10
1284.004893045737
 20
-1068.634376979685
 30
0.0
 11
1287.955714502597
 21
-1068.634376979685
 31
0.0
  0
LINE
  5
4A5
  8
ZUWAKU
  6
CONTINUOUS
 62
     7
 10
1280.035456813853
 20
-1076.258174075477
 30
0.0
 11
1276.084635356993
 21
-1076.258174075477
 31
0.0
  0
LINE
  5
4A6
  8
ZUWAKU
  6
CONTINUOUS
 62
     7
 10
1286.473798466313
 20
-1076.258174075477
 30
0.0
 11
1282.687162568375
 21
-1076.258174075477
 31
0.0
  0
LINE
  5
4A7
  8
ZUWAKU
  6
CONTINUOUS
 62
     7
 10
1275.734584632067
 20
-1078.059028938191
 30
0.0
 11
1286.123747741386
 21
-1078.059028938191
 31
0.0
  0
LINE
  5
4A8
  8
ZUWAKU
  6
CONTINUOUS
 62
     7
 10
1278.081946889407
 20
-1066.833522116959
 30
0.0
 11
1277.731896164481
 21
-1068.634376979685
 31
0.0
  0
ARC
  5
4A9
  8
ZUWAKU
  6
CONTINUOUS
 62
     7
 10
1281.353187291215
 20
-1069.056707717937
 30
0.0
 40
0.4223307382550334
 50
348.9999999999997
 51
90.0000000000051
  0
LINE
  5
4AA
  8
ZUWAKU
  6
CONTINUOUS
 62
     7
 10
1281.767758624291
 20
-1069.137292221819
 30
0.0
 11
1280.450028146929
 21
-1075.916427841105
 31
0.0
  0
ARC
  5
4AB
  8
ZUWAKU
  6
CONTINUOUS
 62
     7
 10
1280.035456813853
 20
-1075.835843337224
 30
0.0
 40
0.4223307382550334
 50
269.9999999999994
 51
348.9999999999999
  0
LINE
  5
4AC
  8
ZUWAKU
  6
CONTINUOUS
 62
     7
 10
1276.084635356993
 20
-1076.258174075477
 30
0.0
 11
1275.734584632067
 21
-1078.059028938191
 31
0.0
  0
LINE
  5
4AD
  8
ZUWAKU
  6
CONTINUOUS
 62
     7
 10
1286.123747741386
 20
-1078.059028938191
 30
0.0
 11
1286.473798466313
 21
-1076.258174075477
 31
0.0
  0
ARC
  5
4AE
  8
ZUWAKU
  6
CONTINUOUS
 62
     7
 10
1282.687162568375
 20
-1075.835843337224
 30
0.0
 40
0.4223307382550334
 50
169.0000000000001
 51
270.0000000000013
  0
LINE
  5
4AF
  8
ZUWAKU
  6
CONTINUOUS
 62
     7
 10
1282.272591235299
 20
-1075.755258833332
 30
0.0
 11
1283.590321712661
 21
-1068.976123214056
 31
0.0
  0
ARC
  5
4B0
  8
ZUWAKU
  6
CONTINUOUS
 62
     7
 10
1284.004893045737
 20
-1069.056707717937
 30
0.0
 40
0.4223307382550334
 50
90.00000000000001
 51
168.9999999999998
  0
LINE
  5
4B1
  8
ZUWAKU
  6
CONTINUOUS
 62
     7
 10
1287.955714502597
 20
-1068.634376979685
 30
0.0
 11
1288.305765227523
 21
-1066.833522116959
 31
0.0
  0
LINE
  5
4B2
  8
ZUWAKU
  6
CONTINUOUS
 62
     7
 10
1298.751546244966
 20
-1066.502832574563
 30
0.0
 11
1297.386976423243
 21
-1066.502832574563
 31
0.0
  0
ARC
  5
4B3
  8
ZUWAKU
  6
CONTINUOUS
 62
     7
 10
1297.386976423243
 20
-1066.576536149915
 30
0.0
 40
0.0737035753508236
 50
90.00000000000001
 51
151.0614722598196
  0
ARC
  5
4B4
  8
ZUWAKU
  6
CONTINUOUS
 62
     7
 10
1288.415594029034
 20
-1061.616193013848
 30
0.0
 40
10.17767223917022
 50
269.999999999989
 51
331.0614722598194
  0
LINE
  5
4B5
  8
ZUWAKU
  6
CONTINUOUS
 62
     7
 10
1288.415594029034
 20
-1071.793865253025
 30
0.0
 11
1287.925920524243
 21
-1071.793865253025
 31
0.0
  0
LINE
  5
4B6
  8
ZUWAKU
  6
CONTINUOUS
 62
     7
 10
1287.324873155153
 20
-1074.573420613154
 30
0.0
 11
1287.853571091165
 21
-1071.853505523199
 31
0.0
  0
ARC
  5
4B7
  8
ZUWAKU
  6
CONTINUOUS
 62
     7
 10
1287.925920524243
 20
-1071.867568828377
 30
0.0
 40
0.0737035753508236
 50
89.99999999998872
 51
168.9999999999997
  0
ARC
  5
4B8
  8
ZUWAKU
  6
CONTINUOUS
 62
     7
 10
1285.629117680893
 20
-1060.048026988895
 30
0.0
 40
14.62404344112263
 50
276.6588077484425
 51
292.9187661784221
  0
ARC
  5
4B9
  8
ZUWAKU
  6
CONTINUOUS
 62
     7
 10
1291.488561674592
 20
-1073.906608879938
 30
0.0
 40
0.4223307382550334
 50
349.0000000000001
 51
112.9187661783919
  0
LINE
  5
4BA
  8
ZUWAKU
  6
CONTINUOUS
 62
     7
 10
1291.903133007668
 20
-1073.987193383819
 30
0.0
 11
1291.079508586109
 21
-1078.2243737094
 31
0.0
  0
LINE
  5
4BB
  8
ZUWAKU
  6
CONTINUOUS
 62
     7
 10
1291.079508586109
 20
-1078.2243737094
 30
0.0
 11
1292.870743592922
 21
-1078.2243737094
 31
0.0
  0
LINE
  5
4BC
  8
ZUWAKU
  6
CONTINUOUS
 62
     7
 10
1292.870743592922
 20
-1078.2243737094
 30
0.0
 11
1294.040132397572
 21
-1072.20838983822
 31
0.0
  0
ARC
  5
4BD
  8
ZUWAKU
  6
CONTINUOUS
 62
     7
 10
1294.617010652702
 20
-1072.32052361178
 30
0.0
 40
0.5876755094569858
 50
126.2175779738571
 51
169.0
  0
ARC
  5
4BE
  8
ZUWAKU
  6
CONTINUOUS
 62
     7
 10
1285.629117680893
 20
-1060.048026988895
 30
0.0
 40
14.62404344112263
 50
306.2175779738571
 51
333.8078384872959
  0
LINE
  5
4BF
  8
ZUWAKU
  6
CONTINUOUS
 62
     2
 10
1419.619630929065
 20
-1072.839296061703
 30
0.0
 11
1421.478692838072
 21
-1063.275251651787
 31
0.0
  0
LINE
  5
4C0
  8
ZUWAKU
  6
CONTINUOUS
 62
     2
 10
1429.48993872267
 20
-1063.275251651787
 30
0.0
 11
1421.478692838072
 21
-1063.275251651787
 31
0.0
  0
LINE
  5
4C1
  8
ZUWAKU
  6
CONTINUOUS
 62
     2
 10
1429.48993872267
 20
-1063.275251651787
 30
0.0
 11
1427.770990736994
 21
-1072.118472414736
 31
0.0
  0
ARC
  5
4C2
  8
ZUWAKU
  6
CONTINUOUS
 62
     2
 10
1429.625148830904
 20
-1072.478884238219
 30
0.0
 40
1.888861805353335
 50
169.0000000000074
 51
270.0000000000001
  0
LINE
  5
4C3
  8
ZUWAKU
  6
CONTINUOUS
 62
     2
 10
1429.625148830904
 20
-1074.367746043569
 30
0.0
 11
1448.03976576502
 21
-1074.367746043569
 31
0.0
  0
LINE
  5
4C4
  8
ZUWAKU
  6
CONTINUOUS
 62
     2
 10
1448.03976576502
 20
-1074.367746043569
 30
0.0
 11
1446.474174193391
 21
-1082.422016450776
 31
0.0
  0
LINE
  5
4C5
  8
ZUWAKU
  6
CONTINUOUS
 62
     2
 10
1427.325242175985
 20
-1082.422016450776
 30
0.0
 11
1446.474174193391
 21
-1082.422016450776
 31
0.0
  0
ARC
  5
4C6
  8
ZUWAKU
  6
CONTINUOUS
 62
     2
 10
1427.325242175985
 20
-1084.310878256126
 30
0.0
 40
1.888861805353335
 50
89.99999999999814
 51
168.9999999999999
  0
LINE
  5
4C7
  8
ZUWAKU
  6
CONTINUOUS
 62
     2
 10
1425.471084082076
 20
-1083.950466432642
 30
0.0
 11
1419.299697195099
 21
-1115.699499626143
 31
0.0
  0
LINE
  5
4C8
  8
ZUWAKU
  6
CONTINUOUS
 62
     2
 10
1411.288451310501
 20
-1115.699499626143
 30
0.0
 11
1419.299697195099
 21
-1115.699499626143
 31
0.0
  0
LINE
  5
4C9
  8
ZUWAKU
  6
CONTINUOUS
 62
     2
 10
1411.288451310501
 20
-1115.699499626143
 30
0.0
 11
1417.319724274147
 21
-1084.671290079609
 31
0.0
  0
ARC
  5
4CA
  8
ZUWAKU
  6
CONTINUOUS
 62
     2
 10
1415.465566180238
 20
-1084.310878256126
 30
0.0
 40
1.888861805353335
 50
349.0000000000003
 51
90.0000000000005
  0
LINE
  5
4CB
  8
ZUWAKU
  6
CONTINUOUS
 62
     2
 10
1415.465566180238
 20
-1082.422016450776
 30
0.0
 11
1397.050949246116
 21
-1082.422016450776
 31
0.0
  0
LINE
  5
4CC
  8
ZUWAKU
  6
CONTINUOUS
 62
     2
 10
1397.050949246116
 20
-1082.422016450776
 30
0.0
 11
1398.61654081775
 21
-1074.367746043569
 31
0.0
  0
LINE
  5
4CD
  8
ZUWAKU
  6
CONTINUOUS
 62
     2
 10
1398.61654081775
 20
-1074.367746043569
 30
0.0
 11
1417.765472835151
 21
-1074.367746043569
 31
0.0
  0
ARC
  5
4CE
  8
ZUWAKU
  6
CONTINUOUS
 62
     2
 10
1417.765472835151
 20
-1072.478884238219
 30
0.0
 40
1.888861805353335
 50
270.0000000000001
 51
349.0000000000099
  0
LINE
  5
4CF
  8
ZUWAKU
  6
CONTINUOUS
 62
     2
 10
1402.109665802313
 20
-1090.63673781819
 30
0.0
 11
1401.246710739507
 21
-1095.076256752139
 31
0.0
  0
ARC
  5
4D0
  8
ZUWAKU
  6
CONTINUOUS
 62
     2
 10
1389.955684488671
 20
-1092.881503579018
 30
0.0
 40
11.50235694490327
 50
285.6048457891953
 51
348.9999999999995
  0
ARC
  5
4D1
  8
ZUWAKU
  6
CONTINUOUS
 62
     2
 10
1393.138506013848
 20
-1104.277368161348
 30
0.0
 40
0.3296370730043426
 50
105.6048457891947
 51
168.9999999999997
  0
LINE
  5
4D2
  8
ZUWAKU
  6
CONTINUOUS
 62
     2
 10
1390.604308563895
 20
-1115.587107662025
 30
0.0
 11
1392.814925302314
 21
-1104.214470442611
 31
0.0
  0
ARC
  5
4D3
  8
ZUWAKU
  6
CONTINUOUS
 62
     2
 10
1385.874255755151
 20
-1093.574952431602
 30
0.0
 40
22.51462585658112
 50
282.127509556616
 51
348.9999999999987
  0
LINE
  5
4D4
  8
ZUWAKU
  6
CONTINUOUS
 62
     2
 10
1407.975224521125
 20
-1097.870945572577
 30
0.0
 11
1409.381412060787
 21
-1090.63673781819
 31
0.0
  0
LINE
  5
4D5
  8
ZUWAKU
  6
CONTINUOUS
 62
     2
 10
1409.381412060787
 20
-1090.63673781819
 30
0.0
 11
1402.109665802313
 21
-1090.63673781819
 31
0.0
  0
LINE
  5
4D6
  8
ZUWAKU
  6
CONTINUOUS
 62
     2
 10
1432.429150473198
 20
-1090.63673781819
 30
0.0
 11
1430.002722280949
 21
-1103.119628719088
 31
0.0
  0
ARC
  5
4D7
  8
ZUWAKU
  6
CONTINUOUS
 62
     2
 10
1439.76317114941
 20
-1105.016867787461
 30
0.0
 40
9.94313221255428
 50
168.9999999999999
 51
269.9999999999885
  0
LINE
  5
4D8
  8
ZUWAKU
  6
CONTINUOUS
 62
     2
 10
1439.763171149404
 20
-1114.960000000018
 30
0.0
 11
1440.149430892373
 21
-1114.960000000018
 31
0.0
  0
LINE
  5
4D9
  8
ZUWAKU
  6
CONTINUOUS
 62
     2
 10
1440.149430892373
 20
-1114.960000000018
 30
0.0
 11
1442.289999127733
 21
-1103.947731088346
 31
0.0
  0
LINE
  5
4DA
  8
ZUWAKU
  6
CONTINUOUS
 62
     2
 10
1442.289999127733
 20
-1103.947731088346
 30
0.0
 11
1441.356629058916
 21
-1103.947731088346
 31
0.0
  0
ARC
  5
4DB
  8
ZUWAKU
  6
CONTINUOUS
 62
     2
 10
1441.356629058916
 20
-1099.840370404633
 30
0.0
 40
4.107360683711014
 50
168.9999999999997
 51
269.9999999999974
  0
LINE
  5
4DC
  8
ZUWAKU
  6
CONTINUOUS
 62
     2
 10
1437.324732159564
 20
-1099.056649038918
 30
0.0
 11
1438.961397105558
 21
-1090.63673781819
 31
0.0
  0
LINE
  5
4DD
  8
ZUWAKU
  6
CONTINUOUS
 62
     2
 10
1438.961397105558
 20
-1090.63673781819
 30
0.0
 11
1432.429150473198
 21
-1090.63673781819
 31
0.0
  0
LINE
  5
4DE
  8
ZUWAKU
  6
CONTINUOUS
 62
     2
 10
1472.216678708432
 20
-1064.754250904026
 30
0.0
 11
1471.506565512863
 21
-1068.407466596077
 31
0.0
  0
ARC
  5
4DF
  8
ZUWAKU
  6
CONTINUOUS
 62
     2
 10
1454.408235780845
 20
-1065.083887977028
 30
0.0
 40
17.41835395385709
 50
271.0152301125743
 51
349.000000000001
  0
LINE
  5
4E0
  8
ZUWAKU
  6
CONTINUOUS
 62
     2
 10
1452.587632297666
 20
-1093.453420790357
 30
0.0
 11
1454.716857327917
 21
-1082.499507610061
 31
0.0
  0
ARC
  5
4E1
  8
ZUWAKU
  6
CONTINUOUS
 62
     2
 10
1450.724858968527
 20
-1065.083887977028
 30
0.0
 40
28.43062286553494
 50
273.7567084122492
 51
341.5139853209125
  0
ARC
  5
4E2
  8
ZUWAKU
  6
CONTINUOUS
 62
     2
 10
1479.479890909212
 20
-1074.697383116582
 30
0.0
 40
1.888861805353335
 50
89.9999999999993
 51
161.5139853209126
  0
LINE
  5
4E3
  8
ZUWAKU
  6
CONTINUOUS
 62
     2
 10
1479.479890909212
 20
-1072.808521311222
 30
0.0
 11
1492.763202201516
 21
-1072.808521311222
 31
0.0
  0
ARC
  5
4E4
  8
ZUWAKU
  6
CONTINUOUS
 62
     2
 10
1492.763202201516
 20
-1074.697383116582
 30
0.0
 40
1.888861805353335
 50
346.2586933201409
 51
90.00000000000375
  0
ARC
  5
4E5
  8
ZUWAKU
  6
CONTINUOUS
 62
     2
 10
1457.564848057081
 20
-1066.090060763313
 30
0.0
 40
38.12434348519541
 50
277.267166461819
 51
346.258693320142
  0
LINE
  5
4E6
  8
ZUWAKU
  6
CONTINUOUS
 62
     2
 10
1460.241407807188
 20
-1114.948491597283
 30
0.0
 11
1462.387431847786
 21
-1103.908155000842
 31
0.0
  0
ARC
  5
4E7
  8
ZUWAKU
  6
CONTINUOUS
 62
     2
 10
1459.244077343511
 20
-1071.739384612095
 30
0.0
 40
43.22061538791944
 50
271.3222370437007
 51
349.0000000000002
  0
LINE
  5
4E8
  8
ZUWAKU
  6
CONTINUOUS
 62
     2
 10
1501.670608293628
 20
-1079.98626681382
 30
0.0
 11
1504.631412254962
 21
-1064.754250904026
 31
0.0
  0
LINE
  5
4E9
  8
ZUWAKU
  6
CONTINUOUS
 62
     2
 10
1472.216678708432
 20
-1064.754250904026
 30
0.0
 11
1504.631412254962
 21
-1064.754250904026
 31
0.0
  0
LINE
  5
4EA
  8
ZUWAKU
  6
CONTINUOUS
 62
     2
 10
1558.61488496167
 20
-1064.754250904026
 30
0.0
 11
1512.889158144991
 21
-1064.754250904026
 31
0.0
  0
LINE
  5
4EB
  8
ZUWAKU
  6
CONTINUOUS
 62
     2
 10
1511.323566573362
 20
-1072.808521311222
 30
0.0
 11
1527.519684629121
 21
-1072.808521311222
 31
0.0
  0
LINE
  5
4EC
  8
ZUWAKU
  6
CONTINUOUS
 62
     2
 10
1539.379360624874
 20
-1072.808521311222
 30
0.0
 11
1557.049293390036
 21
-1072.808521311222
 31
0.0
  0
LINE
  5
4ED
  8
ZUWAKU
  6
CONTINUOUS
 62
     2
 10
1521.626173825895
 20
-1106.905729592822
 30
0.0
 11
1503.956241060733
 21
-1106.905729592822
 31
0.0
  0
LINE
  5
4EE
  8
ZUWAKU
  6
CONTINUOUS
 62
     2
 10
1550.421467503526
 20
-1106.905729592822
 30
0.0
 11
1533.485849821648
 21
-1106.905729592822
 31
0.0
  0
LINE
  5
4EF
  8
ZUWAKU
  6
CONTINUOUS
 62
     2
 10
1502.390649489099
 20
-1114.960000000018
 30
0.0
 11
1548.855875931898
 21
-1114.960000000018
 31
0.0
  0
LINE
  5
4F0
  8
ZUWAKU
  6
CONTINUOUS
 62
     2
 10
1512.889158144991
 20
-1064.754250904026
 30
0.0
 11
1511.323566573362
 21
-1072.808521311222
 31
0.0
  0
ARC
  5
4F1
  8
ZUWAKU
  6
CONTINUOUS
 62
     2
 10
1527.519684629121
 20
-1074.697383116571
 30
0.0
 40
1.888861805353335
 50
348.9999999999997
 51
90.0000000000051
  0
LINE
  5
4F2
  8
ZUWAKU
  6
CONTINUOUS
 62
     2
 10
1529.37384272303
 20
-1075.057794940066
 30
0.0
 11
1523.48033191981
 21
-1105.377279610945
 31
0.0
  0
ARC
  5
4F3
  8
ZUWAKU
  6
CONTINUOUS
 62
     2
 10
1521.626173825895
 20
-1105.016867787461
 30
0.0
 40
1.888861805353335
 50
269.9999999999994
 51
348.9999999999999
  0
LINE
  5
4F4
  8
ZUWAKU
  6
CONTINUOUS
 62
     2
 10
1503.956241060733
 20
-1106.905729592822
 30
0.0
 11
1502.390649489099
 21
-1114.960000000018
 31
0.0
  0
LINE
  5
4F5
  8
ZUWAKU
  6
CONTINUOUS
 62
     2
 10
1548.855875931898
 20
-1114.960000000018
 30
0.0
 11
1550.421467503526
 21
-1106.905729592822
 31
0.0
  0
ARC
  5
4F6
  8
ZUWAKU
  6
CONTINUOUS
 62
     2
 10
1533.485849821648
 20
-1105.016867787461
 30
0.0
 40
1.888861805353335
 50
169.0000000000001
 51
270.0000000000013
  0
LINE
  5
4F7
  8
ZUWAKU
  6
CONTINUOUS
 62
     2
 10
1531.631691727739
 20
-1104.656455963978
 30
0.0
 11
1537.525202530959
 21
-1074.336971293088
 31
0.0
  0
ARC
  5
4F8
  8
ZUWAKU
  6
CONTINUOUS
 62
     2
 10
1539.379360624874
 20
-1074.697383116582
 30
0.0
 40
1.888861805353335
 50
90.00000000000001
 51
168.9999999999998
  0
LINE
  5
4F9
  8
ZUWAKU
  6
CONTINUOUS
 62
     2
 10
1557.049293390036
 20
-1072.808521311222
 30
0.0
 11
1558.61488496167
 21
-1064.754250904026
 31
0.0
  0
LINE
  5
4FA
  8
ZUWAKU
  6
CONTINUOUS
 62
     2
 10
1605.333333333322
 20
-1063.275251651787
 30
0.0
 11
1599.230334940078
 21
-1063.275251651787
 31
0.0
  0
ARC
  5
4FB
  8
ZUWAKU
  6
CONTINUOUS
 62
     2
 10
1599.230334940078
 20
-1063.60488872479
 30
0.0
 40
0.3296370730043426
 50
90.00000000000001
 51
151.0614722598196
  0
ARC
  5
4FC
  8
ZUWAKU
  6
CONTINUOUS
 62
     2
 10
1559.106091046172
 20
-1041.419899941215
 30
0.0
 40
45.51933974638767
 50
269.999999999989
 51
331.0614722598194
  0
LINE
  5
4FD
  8
ZUWAKU
  6
CONTINUOUS
 62
     2
 10
1559.106091046161
 20
-1086.9392396876
 30
0.0
 11
1556.916040698165
 21
-1086.9392396876
 31
0.0
  0
LINE
  5
4FE
  8
ZUWAKU
  6
CONTINUOUS
 62
     2
 10
1554.22787401776
 20
-1099.370719284133
 30
0.0
 11
1556.592459986631
 21
-1087.205979041865
 31
0.0
  0
ARC
  5
4FF
  8
ZUWAKU
  6
CONTINUOUS
 62
     2
 10
1556.916040698165
 20
-1087.268876760602
 30
0.0
 40
0.3296370730043426
 50
89.99999999998872
 51
168.9999999999997
  0
ARC
  5
500
  8
ZUWAKU
  6
CONTINUOUS
 62
     2
 10
1546.643657534286
 20
-1034.406323517146
 30
0.0
 40
65.40560417149622
 50
276.6588077484425
 51
292.9187661784221
  0
ARC
  5
501
  8
ZUWAKU
  6
CONTINUOUS
 62
     2
 10
1572.849848459516
 20
-1096.388423419456
 30
0.0
 40
1.888861805353335
 50
349.0000000000001
 51
112.9187661783919
  0
LINE
  5
502
  8
ZUWAKU
  6
CONTINUOUS
 62
     2
 10
1574.70400655343
 20
-1096.74883524294
 30
0.0
 11
1571.020370552257
 21
-1115.699499626143
 31
0.0
  0
LINE
  5
503
  8
ZUWAKU
  6
CONTINUOUS
 62
     2
 10
1571.020370552257
 20
-1115.699499626143
 30
0.0
 11
1579.031616436855
 21
-1115.699499626143
 31
0.0
  0
LINE
  5
504
  8
ZUWAKU
  6
CONTINUOUS
 62
     2
 10
1579.031616436855
 20
-1115.699499626143
 30
0.0
 11
1584.261673471849
 21
-1088.793188702989
 31
0.0
  0
ARC
  5
505
  8
ZUWAKU
  6
CONTINUOUS
 62
     2
 10
1586.841744500912
 20
-1089.294703707216
 30
0.0
 40
2.628361431472562
 50
126.2175779738571
 51
169.0
  0
ARC
  5
506
  8
ZUWAKU
  6
CONTINUOUS
 62
     2
 10
1546.643657534286
 20
-1034.406323517146
 30
0.0
 40
65.40560417149622
 50
306.2175779738571
 51
333.8078384872959
  0
TEXT
  5
507
  8
ZUWAKU
 62
     2
 10
1330.991788207667
 20
-1088.285672608196
 30
0.0
 40
24.0
  1
株
 41
1.120000000000003
  7
DCSTYLE0
 72
     5
 11
1350.191788207668
 21
-1088.285672608196
 31
0.0
  0
TEXT
  5
508
  8
ZUWAKU
 62
     2
 10
1359.791788207669
 20
-1088.285672608196
 30
0.0
 40
24.0
  1
式
 41
1.120000000000003
  7
DCSTYLE0
 72
     5
 11
1378.991788207669
 21
-1088.285672608196
 31
0.0
  0
TEXT
  5
509
  8
ZUWAKU
 62
     2
 10
1330.991788207667
 20
-1117.085672608203
 30
0.0
 40
24.0
  1
会
 41
1.120000000000003
  7
DCSTYLE0
 72
     5
 11
1350.191788207668
 21
-1117.085672608203
 31
0.0
  0
TEXT
  5
50A
  8
ZUWAKU
 62
     2
 10
1359.791788207669
 20
-1117.085672608203
 30
0.0
 40
24.0
  1
社
 41
1.120000000000003
  7
DCSTYLE0
 72
     5
 11
1378.991788207669
 21
-1117.085672608203
 31
0.0
  0
TEXT
  5
50B
  8
ZUWAKU
 62
     2
 10
891.7333334286908
 20
-933.0388045116016
 30
0.0
 40
32.0
  1
バルクガード　（アンカー固定式・標準）
 41
0.9384955752212389
  7
DCSTYLE0
 72
     5
 11
1376.533333428691
 21
-933.0388045116016
 31
0.0
  0
TEXT
  5
50C
  8
ZUWAKU
 62
     2
 10
891.7333334286908
 20
-978.9611954884333
 30
0.0
 40
32.0
  1
BG-SA1200
 41
0.8204918032786886
  7
DCSTYLE0
 72
     5
 11
1120.533333428691
 21
-978.9611954884333
 31
0.0
  0
LINE
  5
50D
  8
ZUWAKU
  6
CONTINUOUS
 62
     5
 10
-1512.000000000009
 20
-1132.000000000018
 30
0.0
 11
-1512.000000000009
 21
1111.333333333315
 31
0.0
  0
LINE
  5
50E
  8
ZUWAKU
  6
CONTINUOUS
 62
     5
 10
-1512.000000000009
 20
1111.333333333315
 30
0.0
 11
1617.333333333324
 21
1111.333333333316
 31
0.0
  0
LINE
  5
50F
  8
ZUWAKU
  6
CONTINUOUS
 62
     5
 10
1617.333333333324
 20
1111.333333333316
 30
0.0
 11
1617.333333333324
 21
-1132.000000000017
 31
0.0
  0
LINE
  5
510
  8
ZUWAKU
  6
CONTINUOUS
 62
     5
 10
1617.333333333324
 20
-1132.000000000017
 30
0.0
 11
-1512.000000000009
 21
-1132.000000000018
 31
0.0
  0
LINE
  5
511
  8
ZUWAKU
  6
CONTINUOUS
 62
   190
 10
1385.333333333324
 20
1111.333333333316
 30
0.0
 11
1385.333333333324
 21
911.3333333333162
 31
0.0
  0
LINE
  5
512
  8
ZUWAKU
  6
CONTINUOUS
 62
   190
 10
1617.333333333324
 20
911.333333333316
 30
0.0
 11
1385.333333333324
 21
911.3333333333162
 31
0.0
  0
TEXT
  5
513
  8
ZUWAKU
 62
   190
 10
1448.763380634187
 20
1033.635242546653
 30
0.0
 40
32.0
  1
　
 41
1.119999999999996
  7
DCSTYLE0
 72
     5
 11
1474.363380634187
 21
1033.635242546653
 31
0.0
  0
TEXT
  5
514
  8
ZUWAKU
 62
   190
 10
1399.232228839922
 20
995.4215134851145
 30
0.0
 40
32.0
  1
重量6.3kg
 41
0.9966101694915257
  7
DCSTYLE0
 72
     5
 11
1578.432228839922
 21
995.4215134851145
 31
0.0
  0
LINE
  5
515
  8
0
  6
DIVIDE
 62
     7
 10
214.9419818318961
 20
-558.2208759414888
 30
0.0
 11
-1133.919521479268
 21
-558.2208759414888
 31
0.0
  0
LINE
  5
516
  8
0
  6
DIVIDE
 62
     7
 10
-55.99332225914304
 20
-572.2208759414888
 30
0.0
 11
-140.0678537831559
 21
-572.2208759414888
 31
0.0
  0
LINE
  5
517
  8
0
  6
DIVIDE
 62
     7
 10
-69.99332225914304
 20
-586.2208759414888
 30
0.0
 11
-126.0678537831559
 21
-586.2208759414888
 31
0.0
  0
LINE
  5
518
  8
0
  6
DIVIDE
 62
     7
 10
-83.99332225914304
 20
-600.2208759414888
 30
0.0
 11
-112.0678537831559
 21
-600.2208759414888
 31
0.0
  0
LINE
  5
519
  8
0
  6
DIVIDE
 62
     7
 10
758.8503354889901
 20
-558.2208759414888
 30
0.0
 11
473.4532380996284
 21
-558.2208759414888
 31
0.0
  0
LINE
  5
51A
  8
0
  6
CENTER
 62
     7
 10
-966.4518818079091
 20
-539.5629918076792
 30
0.0
 11
-966.4518818079091
 21
-576.92606073378
 31
0.0
  0
LINE
  5
51B
  8
0
  6
CENTER
 62
     7
 10
-451.7018818079091
 20
-593.7927113779723
 30
0.0
 11
-451.7018818079091
 21
189.6129647489064
 31
0.0
  0
LINE
  5
51C
  8
0
  6
CENTER
 62
     7
 10
-1076.451881807909
 20
-539.5629918076792
 30
0.0
 11
-1076.451881807909
 21
-576.92606073378
 31
0.0
  0
LINE
  5
51D
  8
0
  6
CENTER
 62
     7
 10
63.0481181920909
 20
-539.5629918076792
 30
0.0
 11
63.0481181920909
 21
-576.92606073378
 31
0.0
  0
LINE
  5
51E
  8
0
  6
CENTER
 62
     7
 10
173.0481181920909
 20
-539.5629918076792
 30
0.0
 11
173.0481181920909
 21
-576.92606073378
 31
0.0
  0
LINE
  5
51F
  8
0
  6
CENTER
 62
     7
 10
-1092.280591609215
 20
651.3815516518681
 30
0.0
 11
179.5944116405913
 21
651.3815516518681
 31
0.0
  0
LINE
  5
520
  8
0
  6
CONTINUOUS
 62
     3
 10
-877.4018818079098
 20
141.7791240585115
 30
0.0
 11
-31.9518818079091
 21
141.7791240585115
 31
0.0
  0
LINE
  5
521
  8
0
  6
CONTINUOUS
 62
     3
 10
-1045.751881807908
 20
-552.2208759414888
 30
0.0
 11
-1045.751881807908
 21
-32.52087594148844
 31
0.0
  0
LINE
  5
522
  8
0
  6
CONTINUOUS
 62
     3
 10
-1045.751881807908
 20
-552.2208759414888
 30
0.0
 11
-975.2518818079084
 21
-552.2208759414888
 31
0.0
  0
LINE
  5
523
  8
0
  6
CONTINUOUS
 62
     3
 10
-1093.951881807909
 20
-558.2208759414888
 30
0.0
 11
-1093.951881807909
 21
-552.2208759414888
 31
0.0
  0
LINE
  5
524
  8
0
  6
CONTINUOUS
 62
     3
 10
-948.9518818079091
 20
-558.2208759414888
 30
0.0
 11
-948.9518818079091
 21
-552.2208759414888
 31
0.0
  0
LINE
  5
525
  8
0
  6
CONTINUOUS
 62
     3
 10
-1088.001881807908
 20
-558.2208759414888
 30
0.0
 11
-943.0018818079084
 21
-558.2208759414888
 31
0.0
  0
LINE
  5
526
  8
0
  6
CONTINUOUS
 62
     3
 10
-1093.951881807909
 20
-552.2208759414888
 30
0.0
 11
-948.9518818079091
 21
-552.2208759414888
 31
0.0
  0
LINE
  5
527
  8
0
  6
CONTINUOUS
 62
     3
 10
642.1986647752681
 20
-552.2208759414888
 30
0.0
 11
552.1986647752681
 21
-552.2208759414888
 31
0.0
  0
LINE
  5
528
  8
0
  6
CONTINUOUS
 62
     3
 10
642.1986647752681
 20
-552.2208759414888
 30
0.0
 11
642.1986647752681
 21
-558.2208759414888
 31
0.0
  0
LINE
  5
529
  8
0
  6
CONTINUOUS
 62
     3
 10
552.1986647752681
 20
-552.2208759414888
 30
0.0
 11
552.1986647752681
 21
-558.2208759414888
 31
0.0
  0
LINE
  5
52A
  8
0
  6
CONTINUOUS
 62
     3
 10
642.1986647752681
 20
-558.2208759414888
 30
0.0
 11
552.1986647752681
 21
-558.2208759414888
 31
0.0
  0
LINE
  5
52B
  8
0
  6
CONTINUOUS
 62
     3
 10
-997.1518818079098
 20
-552.2208759414888
 30
0.0
 11
-997.1518818079098
 21
-32.52087594148844
 31
0.0
  0
LINE
  5
52C
  8
0
  6
CONTINUOUS
 62
     3
 10
-877.4018818079098
 20
93.17912405851138
 30
0.0
 11
-31.9518818079091
 21
93.17912405851138
 31
0.0
  0
LINE
  5
52D
  8
0
  6
CONTINUOUS
 62
     3
 10
142.3481181920938
 20
-552.2208759414888
 30
0.0
 11
142.3481181920938
 21
-32.52087594148844
 31
0.0
  0
LINE
  5
52E
  8
0
  6
CONTINUOUS
 62
     3
 10
142.3481181920938
 20
-552.2208759414888
 30
0.0
 11
71.8481181920938
 21
-552.2208759414888
 31
0.0
  0
LINE
  5
52F
  8
0
  6
CONTINUOUS
 62
     3
 10
190.5481181920909
 20
-558.2208759414888
 30
0.0
 11
190.5481181920909
 21
-552.2208759414888
 31
0.0
  0
LINE
  5
530
  8
0
  6
CONTINUOUS
 62
     3
 10
45.5481181920909
 20
-558.2208759414888
 30
0.0
 11
45.5481181920909
 21
-552.2208759414888
 31
0.0
  0
LINE
  5
531
  8
0
  6
CONTINUOUS
 62
     3
 10
184.5981181920938
 20
-558.2208759414888
 30
0.0
 11
39.59811819209381
 21
-558.2208759414888
 31
0.0
  0
LINE
  5
532
  8
0
  6
CONTINUOUS
 62
     3
 10
190.5481181920909
 20
-552.2208759414888
 30
0.0
 11
45.5481181920909
 21
-552.2208759414888
 31
0.0
  0
LINE
  5
533
  8
0
  6
CONTINUOUS
 62
     3
 10
93.74811819209162
 20
-552.2208759414888
 30
0.0
 11
93.74811819209162
 21
-32.52087594148844
 31
0.0
  0
ARC
  5
534
  8
0
  6
CONTINUOUS
 62
     3
 10
-31.9518818079091
 20
-32.52087594148844
 30
0.0
 40
125.7
 50
0.0
 51
90.0
  0
ARC
  5
535
  8
0
  6
CONTINUOUS
 62
     3
 10
-31.9518818079091
 20
-32.52087594148844
 30
0.0
 40
174.3
 50
0.0
 51
90.0
  0
ARC
  5
536
  8
0
  6
CONTINUOUS
 62
     3
 10
597.1986647752681
 20
117.479124058512
 30
0.0
 40
24.3
 50
0.0
 51
180.0
  0
LINE
  5
537
  8
0
  6
CONTINUOUS
 62
     3
 10
621.498664775271
 20
117.479124058512
 30
0.0
 11
621.498664775271
 21
-552.2208759414888
 31
0.0
  0
LINE
  5
538
  8
0
  6
CONTINUOUS
 62
     3
 10
572.8986647752688
 20
117.479124058512
 30
0.0
 11
572.8986647752688
 21
-552.2208759414888
 31
0.0
  0
LINE
  5
539
  8
0
  6
CONTINUOUS
 62
     3
 10
-1093.951881807909
 20
687.0640100173883
 30
0.0
 11
-1093.951881807909
 21
615.6990932863513
 31
0.0
  0
LINE
  5
53A
  8
0
  6
CONTINUOUS
 62
     3
 10
-960.2068838095115
 20
606.3815516518695
 30
0.0
 11
-1082.696879806307
 21
606.3815516518697
 31
0.0
  0
ARC
  5
53B
  8
0
  6
CONTINUOUS
 62
     3
 10
-966.4518818079091
 20
625.3815516518695
 30
0.0
 40
20.0
 50
288.1948723387666
 51
331.0449756281399
  0
ARC
  5
53C
  8
0
  6
CONTINUOUS
 62
     3
 10
-1076.451881807909
 20
625.3815516518697
 30
0.0
 40
20.0
 50
208.9550243718597
 51
251.805127661233
  0
LINE
  5
53D
  8
0
  6
CONTINUOUS
 62
     3
 10
-948.9518818079091
 20
687.0640100173879
 30
0.0
 11
-948.9518818079091
 21
675.6815516518692
 31
0.0
  0
LINE
  5
53E
  8
0
  6
CONTINUOUS
 62
     3
 10
-948.9518818079091
 20
627.0815516518688
 30
0.0
 11
-948.9518818079091
 21
615.6990932863508
 31
0.0
  0
ARC
  5
53F
  8
0
  6
CONTINUOUS
 62
     3
 10
-966.4518818079091
 20
677.3815516518695
 30
0.0
 40
20.0
 50
28.95502437185966
 51
71.80512766123304
  0
ARC
  5
540
  8
0
  6
CONTINUOUS
 62
     3
 10
-1076.451881807909
 20
677.3815516518695
 30
0.0
 40
20.0
 50
108.1948723387666
 51
151.04497562814
  0
LINE
  5
541
  8
0
  6
CONTINUOUS
 62
     3
 10
-960.2068838095115
 20
696.3815516518695
 30
0.0
 11
-1082.696879806307
 21
696.3815516518695
 31
0.0
  0
LINE
  5
542
  8
0
  6
CONTINUOUS
 62
     3
 10
-1021.451881807909
 20
627.0815516518688
 30
0.0
 11
118.0481181920909
 21
627.0815516518688
 31
0.0
  0
LINE
  5
543
  8
0
  6
CONTINUOUS
 62
     3
 10
-1021.451881807909
 20
675.6815516518692
 30
0.0
 11
118.0481181920909
 21
675.6815516518692
 31
0.0
  0
ARC
  5
544
  8
0
  6
CONTINUOUS
 62
     3
 10
-1021.451881807909
 20
651.381551651869
 30
0.0
 40
24.3
 50
90.0
 51
270.0
  0
LINE
  5
545
  8
0
  6
CONTINUOUS
 62
     3
 10
190.5481181920909
 20
687.0640100173883
 30
0.0
 11
190.5481181920909
 21
615.6990932863513
 31
0.0
  0
LINE
  5
546
  8
0
  6
CONTINUOUS
 62
     3
 10
56.8031201936933
 20
606.3815516518695
 30
0.0
 11
179.2931161904921
 21
606.3815516518697
 31
0.0
  0
ARC
  5
547
  8
0
  6
CONTINUOUS
 62
     3
 10
63.0481181920909
 20
625.3815516518695
 30
0.0
 40
20.0
 50
208.95502437186
 51
251.8051276612334
  0
ARC
  5
548
  8
0
  6
CONTINUOUS
 62
     3
 10
173.0481181920909
 20
625.3815516518697
 30
0.0
 40
20.0
 50
288.194872338767
 51
331.0449756281403
  0
LINE
  5
549
  8
0
  6
CONTINUOUS
 62
     3
 10
45.5481181920909
 20
687.0640100173879
 30
0.0
 11
45.54811819209453
 21
675.6815516518692
 31
0.0
  0
LINE
  5
54A
  8
0
  6
CONTINUOUS
 62
     3
 10
45.5481181920909
 20
627.0815516518688
 30
0.0
 11
45.5481181920909
 21
615.6990932863508
 31
0.0
  0
ARC
  5
54B
  8
0
  6
CONTINUOUS
 62
     3
 10
63.0481181920909
 20
677.3815516518695
 30
0.0
 40
20.0
 50
108.194872338767
 51
151.0449756281404
  0
ARC
  5
54C
  8
0
  6
CONTINUOUS
 62
     3
 10
173.0481181920909
 20
677.3815516518695
 30
0.0
 40
20.0
 50
28.95502437186005
 51
71.80512766123343
  0
LINE
  5
54D
  8
0
  6
CONTINUOUS
 62
     3
 10
56.8031201936933
 20
696.3815516518695
 30
0.0
 11
179.2931161904885
 21
696.3815516518695
 31
0.0
  0
ARC
  5
54E
  8
0
  6
CONTINUOUS
 62
     3
 10
118.0481181920909
 20
651.381551651869
 30
0.0
 40
24.3
 50
270.0
 51
90.0
  0
POLYLINE
  5
54F
  8
0
  6
CONTINUOUS
 62
     3
 66
     1
 10
0.0
 20
0.0
 30
0.0
 70
     1
  0
VERTEX
  5
580
  8
0
  6
CONTINUOUS
 62
     3
 10
1.0
 20
0.0
 30
0.0
  0
VERTEX
  5
581
  8
0
  6
CONTINUOUS
 62
     3
 10
0.9807852804032304
 20
0.1950903220161282
 30
0.0
  0
VERTEX
  5
582
  8
0
  6
CONTINUOUS
 62
     3
 10
0.9238795325112867
 20
0.3826834323650898
 30
0.0
  0
VERTEX
  5
583
  8
0
  6
CONTINUOUS
 62
     3
 10
0.8314696123025452
 20
0.5555702330196022
 30
0.0
  0
VERTEX
  5
584
  8
0
  6
CONTINUOUS
 62
     3
 10
0.7071067811865476
 20
0.7071067811865475
 30
0.0
  0
VERTEX
  5
585
  8
0
  6
CONTINUOUS
 62
     3
 10
0.5555702330196023
 20
0.8314696123025452
 30
0.0
  0
VERTEX
  5
586
  8
0
  6
CONTINUOUS
 62
     3
 10
0.3826834323650898
 20
0.9238795325112867
 30
0.0
  0
VERTEX
  5
587
  8
0
  6
CONTINUOUS
 62
     3
 10
0.1950903220161283
 20
0.9807852804032304
 30
0.0
  0
VERTEX
  5
588
  8
0
  6
CONTINUOUS
 62
     3
 10
0.0000000000000001
 20
1.0
 30
0.0
  0
VERTEX
  5
589
  8
0
  6
CONTINUOUS
 62
     3
 10
-0.1950903220161282
 20
0.9807852804032304
 30
0.0
  0
VERTEX
  5
58A
  8
0
  6
CONTINUOUS
 62
     3
 10
-0.3826834323650897
 20
0.9238795325112867
 30
0.0
  0
VERTEX
  5
58B
  8
0
  6
CONTINUOUS
 62
     3
 10
-0.555570233019602
 20
0.8314696123025455
 30
0.0
  0
VERTEX
  5
58C
  8
0
  6
CONTINUOUS
 62
     3
 10
-0.7071067811865475
 20
0.7071067811865476
 30
0.0
  0
VERTEX
  5
58D
  8
0
  6
CONTINUOUS
 62
     3
 10
-0.8314696123025453
 20
0.5555702330196022
 30
0.0
  0
VERTEX
  5
58E
  8
0
  6
CONTINUOUS
 62
     3
 10
-0.9238795325112868
 20
0.3826834323650894
 30
0.0
  0
VERTEX
  5
58F
  8
0
  6
CONTINUOUS
 62
     3
 10
-0.9807852804032305
 20
0.1950903220161277
 30
0.0
  0
VERTEX
  5
590
  8
0
  6
CONTINUOUS
 62
     3
 10
-1.0
 20
-0.0000000000000008
 30
0.0
  0
VERTEX
  5
591
  8
0
  6
CONTINUOUS
 62
     3
 10
-0.9807852804032302
 20
-0.1950903220161292
 30
0.0
  0
VERTEX
  5
592
  8
0
  6
CONTINUOUS
 62
     3
 10
-0.9238795325112863
 20
-0.3826834323650909
 30
0.0
  0
VERTEX
  5
593
  8
0
  6
CONTINUOUS
 62
     3
 10
-0.8314696123025445
 20
-0.5555702330196034
 30
0.0
  0
VERTEX
  5
594
  8
0
  6
CONTINUOUS
 62
     3
 10
-0.7071067811865464
 20
-0.7071067811865487
 30
0.0
  0
VERTEX
  5
595
  8
0
  6
CONTINUOUS
 62
     3
 10
-0.5555702330196007
 20
-0.8314696123025462
 30
0.0
  0
VERTEX
  5
596
  8
0
  6
CONTINUOUS
 62
     3
 10
-0.3826834323650879
 20
-0.9238795325112875
 30
0.0
  0
VERTEX
  5
597
  8
0
  6
CONTINUOUS
 62
     3
 10
-0.1950903220161261
 20
-0.9807852804032309
 30
0.0
  0
VERTEX
  5
598
  8
0
  6
CONTINUOUS
 62
     3
 10
0.0000000000000025
 20
-1.0
 30
0.0
  0
VERTEX
  5
599
  8
0
  6
CONTINUOUS
 62
     3
 10
0.1950903220161309
 20
-0.9807852804032299
 30
0.0
  0
VERTEX
  5
59A
  8
0
  6
CONTINUOUS
 62
     3
 10
0.3826834323650924
 20
-0.9238795325112856
 30
0.0
  0
VERTEX
  5
59B
  8
0
  6
CONTINUOUS
 62
     3
 10
0.5555702330196048
 20
-0.8314696123025435
 30
0.0
  0
VERTEX
  5
59C
  8
0
  6
CONTINUOUS
 62
     3
 10
0.7071067811865499
 20
-0.7071067811865451
 30
0.0
  0
VERTEX
  5
59D
  8
0
  6
CONTINUOUS
 62
     3
 10
0.8314696123025472
 20
-0.5555702330195993
 30
0.0
  0
VERTEX
  5
59E
  8
0
  6
CONTINUOUS
 62
     3
 10
0.9238795325112882
 20
-0.3826834323650863
 30
0.0
  0
VERTEX
  5
59F
  8
0
  6
CONTINUOUS
 62
     3
 10
0.9807852804032312
 20
-0.1950903220161244
 30
0.0
  0
SEQEND
  5
7A7
  8
0
  6
CONTINUOUS
 62
     3
  0
POLYLINE
  5
550
  8
0
  6
CONTINUOUS
 62
     3
 66
     1
 10
0.0
 20
0.0
 30
0.0
 70
   128
  0
VERTEX
  5
5A0
  8
0
  6
CONTINUOUS
 62
     3
 10
-877.4010080854908
 20
93.14220745076013
 30
0.0
  0
VERTEX
  5
5A1
  8
0
  6
CONTINUOUS
 62
     3
 10
-878.6657997221414
 20
93.10412102979626
 30
0.0
  0
VERTEX
  5
5A2
  8
0
  6
CONTINUOUS
 62
     3
 10
-879.9301407474458
 20
93.05268024572648
 30
0.0
  0
VERTEX
  5
5A3
  8
0
  6
CONTINUOUS
 62
     3
 10
-881.1938967576662
 20
92.98789056688052
 30
0.0
  0
VERTEX
  5
5A4
  8
0
  6
CONTINUOUS
 62
     3
 10
-882.456933411254
 20
92.9097588806209
 30
0.0
  0
VERTEX
  5
5A5
  8
0
  6
CONTINUOUS
 62
     3
 10
-883.7191164431308
 20
92.8182934926108
 30
0.0
  0
VERTEX
  5
5A6
  8
0
  6
CONTINUOUS
 62
     3
 10
-884.9803116789608
 20
92.71350412593105
 30
0.0
  0
VERTEX
  5
5A7
  8
0
  6
CONTINUOUS
 62
     3
 10
-886.2403850494144
 20
92.59540192004664
 30
0.0
  0
VERTEX
  5
5A8
  8
0
  6
CONTINUOUS
 62
     3
 10
-887.4992026044201
 20
92.46399942962246
 30
0.0
  0
VERTEX
  5
5A9
  8
0
  6
CONTINUOUS
 62
     3
 10
-888.7566305274039
 20
92.31931062318877
 30
0.0
  0
VERTEX
  5
5AA
  8
0
  6
CONTINUOUS
 62
     3
 10
-890.0125351495141
 20
92.16135088165623
 30
0.0
  0
VERTEX
  5
5AB
  8
0
  6
CONTINUOUS
 62
     3
 10
-891.2667829638315
 20
91.99013699668095
 30
0.0
  0
VERTEX
  5
5AC
  8
0
  6
CONTINUOUS
 62
     3
 10
-892.5192406395607
 20
91.80568716887939
 30
0.0
  0
VERTEX
  5
5AD
  8
0
  6
CONTINUOUS
 62
     3
 10
-893.7697750362046
 20
91.6080210058936
 30
0.0
  0
VERTEX
  5
5AE
  8
0
  6
CONTINUOUS
 62
     3
 10
-895.0182532177167
 20
91.39715952030693
 30
0.0
  0
VERTEX
  5
5AF
  8
0
  6
CONTINUOUS
 62
     3
 10
-896.2645424666335
 20
91.17312512741017
 30
0.0
  0
VERTEX
  5
5B0
  8
0
  6
CONTINUOUS
 62
     3
 10
-897.5085102981825
 20
90.9359416428189
 30
0.0
  0
VERTEX
  5
5B1
  8
0
  6
CONTINUOUS
 62
     3
 10
-898.7500244743652
 20
90.68563427994168
 30
0.0
  0
VERTEX
  5
5B2
  8
0
  6
CONTINUOUS
 62
     3
 10
-899.9889530180156
 20
90.42222964729986
 30
0.0
  0
VERTEX
  5
5B3
  8
0
  6
CONTINUOUS
 62
     3
 10
-901.225164226829
 20
90.14575574569892
 30
0.0
  0
VERTEX
  5
5B4
  8
0
  6
CONTINUOUS
 62
     3
 10
-902.4585266873625
 20
89.85624196525202
 30
0.0
  0
VERTEX
  5
5B5
  8
0
  6
CONTINUOUS
 62
     3
 10
-903.6889092890046
 20
89.55371908225558
 30
0.0
  0
VERTEX
  5
5B6
  8
0
  6
CONTINUOUS
 62
     3
 10
-904.9161812379136
 20
89.23821925591777
 30
0.0
  0
VERTEX
  5
5B7
  8
0
  6
CONTINUOUS
 62
     3
 10
-906.1402120709201
 20
88.9097760249398
 30
0.0
  0
VERTEX
  5
5B8
  8
0
  6
CONTINUOUS
 62
     3
 10
-907.3608716693965
 20
88.56842430395075
 30
0.0
  0
VERTEX
  5
5B9
  8
0
  6
CONTINUOUS
 62
     3
 10
-908.5780302730889
 20
88.21420037979587
 30
0.0
  0
VERTEX
  5
5BA
  8
0
  6
CONTINUOUS
 62
     3
 10
-909.791558493911
 20
87.84714190767927
 30
0.0
  0
VERTEX
  5
5BB
  8
0
  6
CONTINUOUS
 62
     3
 10
-911.0013273296984
 20
87.46728790716107
 30
0.0
  0
VERTEX
  5
5BC
  8
0
  6
CONTINUOUS
 62
     3
 10
-912.2072081779223
 20
87.07467875800938
 30
0.0
  0
VERTEX
  5
5BD
  8
0
  6
CONTINUOUS
 62
     3
 10
-913.40907284936
 20
86.66935619590791
 30
0.0
  0
VERTEX
  5
5BE
  8
0
  6
CONTINUOUS
 62
     3
 10
-914.606793581722
 20
86.25136330801922
 30
0.0
  0
VERTEX
  5
5BF
  8
0
  6
CONTINUOUS
 62
     3
 10
-915.8002430532335
 20
85.8207445284045
 30
0.0
  0
VERTEX
  5
5C0
  8
0
  6
CONTINUOUS
 62
     3
 10
-916.9892943961696
 20
85.37754563330004
 30
0.0
  0
VERTEX
  5
5C1
  8
0
  6
CONTINUOUS
 62
     3
 10
-918.1738212103409
 20
84.92181373625102
 30
0.0
  0
VERTEX
  5
5C2
  8
0
  6
CONTINUOUS
 62
     3
 10
-919.353697576531
 20
84.45359728310325
 30
0.0
  0
VERTEX
  5
5C3
  8
0
  6
CONTINUOUS
 62
     3
 10
-920.5287980698819
 20
83.97294604685317
 30
0.0
  0
VERTEX
  5
5C4
  8
0
  6
CONTINUOUS
 62
     3
 10
-921.6989977732268
 20
83.47991112235681
 30
0.0
  0
VERTEX
  5
5C5
  8
0
  6
CONTINUOUS
 62
     3
 10
-922.86417229037
 20
82.9745449208983
 30
0.0
  0
VERTEX
  5
5C6
  8
0
  6
CONTINUOUS
 62
     3
 10
-924.0241977593096
 20
82.45690116461824
 30
0.0
  0
VERTEX
  5
5C7
  8
0
  6
CONTINUOUS
 62
     3
 10
-925.1789508654053
 20
81.92703488080303
 30
0.0
  0
VERTEX
  5
5C8
  8
0
  6
CONTINUOUS
 62
     3
 10
-926.328308854487
 20
81.38500239603512
 30
0.0
  0
VERTEX
  5
5C9
  8
0
  6
CONTINUOUS
 62
     3
 10
-927.4721495459031
 20
80.83086133020537
 30
0.0
  0
VERTEX
  5
5CA
  8
0
  6
CONTINUOUS
 62
     3
 10
-928.6103513455104
 20
80.26467059038788
 30
0.0
  0
VERTEX
  5
5CB
  8
0
  6
CONTINUOUS
 62
     3
 10
-929.7427932585983
 20
79.68649036457795
 30
0.0
  0
VERTEX
  5
5CC
  8
0
  6
CONTINUOUS
 62
     3
 10
-930.8693549027521
 20
79.09638211529388
 30
0.0
  0
VERTEX
  5
5CD
  8
0
  6
CONTINUOUS
 62
     3
 10
-931.9899165206492
 20
78.49440857304333
 30
0.0
  0
VERTEX
  5
5CE
  8
0
  6
CONTINUOUS
 62
     3
 10
-933.1043589927907
 20
77.88063372965479
 30
0.0
  0
VERTEX
  5
5CF
  8
0
  6
CONTINUOUS
 62
     3
 10
-934.2125638501631
 20
77.25512283147515
 30
0.0
  0
VERTEX
  5
5D0
  8
0
  6
CONTINUOUS
 62
     3
 10
-935.3144132868327
 20
76.61794237243359
 30
0.0
  0
VERTEX
  5
5D1
  8
0
  6
CONTINUOUS
 62
     3
 10
-936.4097901724689
 20
75.96916008697329
 30
0.0
  0
VERTEX
  5
5D2
  8
0
  6
CONTINUOUS
 62
     3
 10
-937.4985780647946
 20
75.30884494285088
 30
0.0
  0
VERTEX
  5
5D3
  8
0
  6
CONTINUOUS
 62
     3
 10
-938.5806612219654
 20
74.63706713380493
 30
0.0
  0
VERTEX
  5
5D4
  8
0
  6
CONTINUOUS
 62
     3
 10
-939.6559246148731
 20
73.9538980720942
 30
0.0
  0
VERTEX
  5
5D5
  8
0
  6
CONTINUOUS
 62
     3
 10
-940.7242539393732
 20
73.25941038090625
 30
0.0
  0
VERTEX
  5
5D6
  8
0
  6
CONTINUOUS
 62
     3
 10
-941.7855356284364
 20
72.55367788663722
 30
0.0
  0
VERTEX
  5
5D7
  8
0
  6
CONTINUOUS
 62
     3
 10
-942.839656864221
 20
71.83677561104406
 30
0.0
  0
VERTEX
  5
5D8
  8
0
  6
CONTINUOUS
 62
     3
 10
-943.8865055900654
 20
71.1087797632693
 30
0.0
  0
VERTEX
  5
5D9
  8
0
  6
CONTINUOUS
 62
     3
 10
-944.9259705224011
 20
70.36976773173981
 30
0.0
  0
VERTEX
  5
5DA
  8
0
  6
CONTINUOUS
 62
     3
 10
-945.9579411625814
 20
69.61981807594013
 30
0.0
  0
VERTEX
  5
5DB
  8
0
  6
CONTINUOUS
 62
     3
 10
-946.9823078086282
 20
68.85901051806135
 30
0.0
  0
VERTEX
  5
5DC
  8
0
  6
CONTINUOUS
 62
     3
 10
-947.9989615668941
 20
68.0874259345264
 30
0.0
  0
VERTEX
  5
5DD
  8
0
  6
CONTINUOUS
 62
     3
 10
-949.0077943636377
 20
67.3051463473925
 30
0.0
  0
VERTEX
  5
5DE
  8
0
  6
CONTINUOUS
 62
     3
 10
-950.0086989565121
 20
66.51225491563207
 30
0.0
  0
VERTEX
  5
5DF
  8
0
  6
CONTINUOUS
 62
     3
 10
-951.0015689459658
 20
65.70883592629261
 30
0.0
  0
VERTEX
  5
5E0
  8
0
  6
CONTINUOUS
 62
     3
 10
-951.9862987865524
 20
64.89497478553662
 30
0.0
  0
VERTEX
  5
5E1
  8
0
  6
CONTINUOUS
 62
     3
 10
-952.9627837981512
 20
64.07075800956275
 30
0.0
  0
VERTEX
  5
5E2
  8
0
  6
CONTINUOUS
 62
     3
 10
-953.9309201770948
 20
63.23627321540877
 30
0.0
  0
VERTEX
  5
5E3
  8
0
  6
CONTINUOUS
 62
     3
 10
-954.8906050072037
 20
62.39160911163762
 30
0.0
  0
VERTEX
  5
5E4
  8
0
  6
CONTINUOUS
 62
     3
 10
-955.8417362707265
 20
61.53685548890729
 30
0.0
  0
VERTEX
  5
5E5
  8
0
  6
CONTINUOUS
 62
     3
 10
-956.7842128591852
 20
60.67210321042593
 30
0.0
  0
VERTEX
  5
5E6
  8
0
  6
CONTINUOUS
 62
     3
 10
-957.7179345841231
 20
59.79744420229264
 30
0.0
  0
VERTEX
  5
5E7
  8
0
  6
CONTINUOUS
 62
     3
 10
-958.642802187755
 20
58.9129714437255
 30
0.0
  0
VERTEX
  5
5E8
  8
0
  6
CONTINUOUS
 62
     3
 10
-959.5587173535189
 20
58.01877895717752
 30
0.0
  0
VERTEX
  5
5E9
  8
0
  6
CONTINUOUS
 62
     3
 10
-960.4655827165273
 20
57.11496179834175
 30
0.0
  0
VERTEX
  5
5EA
  8
0
  6
CONTINUOUS
 62
     3
 10
-961.3633018739174
 20
56.20161604604655
 30
0.0
  0
VERTEX
  5
5EB
  8
0
  6
CONTINUOUS
 62
     3
 10
-962.2517793950991
 20
55.27883879204207
 30
0.0
  0
VERTEX
  5
5EC
  8
0
  6
CONTINUOUS
 62
     3
 10
-963.1309208318995
 20
54.34672813067904
 30
0.0
  0
VERTEX
  5
5ED
  8
0
  6
CONTINUOUS
 62
     3
 10
-964.0006327286033
 20
53.40538314848106
 30
0.0
  0
VERTEX
  5
5EE
  8
0
  6
CONTINUOUS
 62
     3
 10
-964.860822631887
 20
52.45490391361135
 30
0.0
  0
VERTEX
  5
5EF
  8
0
  6
CONTINUOUS
 62
     3
 10
-965.7113991006474
 20
51.49539146523514
 30
0.0
  0
VERTEX
  5
5F0
  8
0
  6
CONTINUOUS
 62
     3
 10
-966.5522717157221
 20
50.52694780277888
 30
0.0
  0
VERTEX
  5
5F1
  8
0
  6
CONTINUOUS
 62
     3
 10
-967.3833510895012
 20
49.5496758750874
 30
0.0
  0
VERTEX
  5
5F2
  8
0
  6
CONTINUOUS
 62
     3
 10
-968.2045488754295
 20
48.56367956948002
 30
0.0
  0
VERTEX
  5
5F3
  8
0
  6
CONTINUOUS
 62
     3
 10
-969.0157777773981
 20
47.56906370070699
 30
0.0
  0
VERTEX
  5
5F4
  8
0
  6
CONTINUOUS
 62
     3
 10
-969.8169515590241
 20
46.56593399980738
 30
0.0
  0
VERTEX
  5
5F5
  8
0
  6
CONTINUOUS
 62
     3
 10
-970.6079850528184
 20
45.55439710286953
 30
0.0
  0
VERTEX
  5
5F6
  8
0
  6
CONTINUOUS
 62
     3
 10
-971.3887941692386
 20
44.53456053969511
 30
0.0
  0
VERTEX
  5
5F7
  8
0
  6
CONTINUOUS
 62
     3
 10
-972.1592959056281
 20
43.50653272236852
 30
0.0
  0
VERTEX
  5
5F8
  8
0
  6
CONTINUOUS
 62
     3
 10
-972.9194083550403
 20
42.47042293373227
 30
0.0
  0
VERTEX
  5
5F9
  8
0
  6
CONTINUOUS
 62
     3
 10
-973.6690507149444
 20
41.42634131576978
 30
0.0
  0
VERTEX
  5
5FA
  8
0
  6
CONTINUOUS
 62
     3
 10
-974.4081432958161
 20
40.37439885789695
 30
0.0
  0
VERTEX
  5
5FB
  8
0
  6
CONTINUOUS
 62
     3
 10
-975.136607529608
 20
39.31470738516366
 30
0.0
  0
VERTEX
  5
5FC
  8
0
  6
CONTINUOUS
 62
     3
 10
-975.8543659781024
 20
38.24737954636628
 30
0.0
  0
VERTEX
  5
5FD
  8
0
  6
CONTINUOUS
 62
     3
 10
-976.5613423411424
 20
37.17252880207285
 30
0.0
  0
VERTEX
  5
5FE
  8
0
  6
CONTINUOUS
 62
     3
 10
-977.257461464744
 20
36.09026941256172
 30
0.0
  0
VERTEX
  5
5FF
  8
0
  6
CONTINUOUS
 62
     3
 10
-977.9426493490839
 20
35.00071642567538
 30
0.0
  0
VERTEX
  5
600
  8
0
  6
CONTINUOUS
 62
     3
 10
-978.6168331563671
 20
33.90398566459041
 30
0.0
  0
VERTEX
  5
601
  8
0
  6
CONTINUOUS
 62
     3
 10
-979.2799412185689
 20
32.80019371550517
 30
0.0
  0
VERTEX
  5
602
  8
0
  6
CONTINUOUS
 62
     3
 10
-979.931903045054
 20
31.68945791524621
 30
0.0
  0
VERTEX
  5
603
  8
0
  6
CONTINUOUS
 62
     3
 10
-980.57264933007
 20
30.57189633879503
 30
0.0
  0
VERTEX
  5
604
  8
0
  6
CONTINUOUS
 62
     3
 10
-981.2021119601143
 20
29.44762778673623
 30
0.0
  0
VERTEX
  5
605
  8
0
  6
CONTINUOUS
 62
     3
 10
-981.820224021175
 20
28.31677177262873
 30
0.0
  0
VERTEX
  5
606
  8
0
  6
CONTINUOUS
 62
     3
 10
-982.4269198058446
 20
27.17944851030096
 30
0.0
  0
VERTEX
  5
607
  8
0
  6
CONTINUOUS
 62
     3
 10
-983.0221348203039
 20
26.03577890107175
 30
0.0
  0
VERTEX
  5
608
  8
0
  6
CONTINUOUS
 62
     3
 10
-983.605805791179
 20
24.88588452089814
 30
0.0
  0
VERTEX
  5
609
  8
0
  6
CONTINUOUS
 62
     3
 10
-984.1778706722669
 20
23.72988760745145
 30
0.0
  0
VERTEX
  5
60A
  8
0
  6
CONTINUOUS
 62
     3
 10
-984.7382686511307
 20
22.56791104712293
 30
0.0
  0
VERTEX
  5
60B
  8
0
  6
CONTINUOUS
 62
     3
 10
-985.2869401555657
 20
21.40007836196059
 30
0.0
  0
VERTEX
  5
60C
  8
0
  6
CONTINUOUS
 62
     3
 10
-985.8238268599306
 20
20.22651369653838
 30
0.0
  0
VERTEX
  5
60D
  8
0
  6
CONTINUOUS
 62
     3
 10
-986.3488716913482
 20
19.04734180475916
 30
0.0
  0
VERTEX
  5
60E
  8
0
  6
CONTINUOUS
 62
     3
 10
-986.8620188357731
 20
17.86268803659298
 30
0.0
  0
VERTEX
  5
60F
  8
0
  6
CONTINUOUS
 62
     3
 10
-987.3632137439239
 20
16.67267832475193
 30
0.0
  0
VERTEX
  5
610
  8
0
  6
CONTINUOUS
 62
     3
 10
-987.8524031370824
 20
15.47743917130307
 30
0.0
  0
VERTEX
  5
611
  8
0
  6
CONTINUOUS
 62
     3
 10
-988.3295350127579
 20
14.27709763422083
 30
0.0
  0
VERTEX
  5
612
  8
0
  6
CONTINUOUS
 62
     3
 10
-988.794558650214
 20
13.07178131388033
 30
0.0
  0
VERTEX
  5
613
  8
0
  6
CONTINUOUS
 62
     3
 10
-989.2474246158615
 20
11.86161833949301
 30
0.0
  0
VERTEX
  5
614
  8
0
  6
CONTINUOUS
 62
     3
 10
-989.6880847685128
 20
10.64673735548607
 30
0.0
  0
VERTEX
  5
615
  8
0
  6
CONTINUOUS
 62
     3
 10
-990.1164922644997
 20
9.427267507827139
 30
0.0
  0
VERTEX
  5
616
  8
0
  6
CONTINUOUS
 62
     3
 10
-990.5326015626528
 20
8.203338430295581
 30
0.0
  0
VERTEX
  5
617
  8
0
  6
CONTINUOUS
 62
     3
 10
-990.9363684291429
 20
6.975080230702048
 30
0.0
  0
VERTEX
  5
618
  8
0
  6
CONTINUOUS
 62
     3
 10
-991.3277499421831
 20
5.742623477057528
 30
0.0
  0
VERTEX
  5
619
  8
0
  6
CONTINUOUS
 62
     3
 10
-991.7067044965918
 20
4.506099183693536
 30
0.0
  0
VERTEX
  5
61A
  8
0
  6
CONTINUOUS
 62
     3
 10
-992.0731918082147
 20
3.265638797334859
 30
0.0
  0
VERTEX
  5
61B
  8
0
  6
CONTINUOUS
 62
     3
 10
-992.4271729182083
 20
2.021374183126312
 30
0.0
  0
VERTEX
  5
61C
  8
0
  6
CONTINUOUS
 62
     3
 10
-992.7686101971804
 20
0.7734376106150265
 30
0.0
  0
VERTEX
  5
61D
  8
0
  6
CONTINUOUS
 62
     3
 10
-993.0974673491903
 20
-0.4780382603102424
 30
0.0
  0
VERTEX
  5
61E
  8
0
  6
CONTINUOUS
 62
     3
 10
-993.4137094156082
 20
-1.732920393521326
 30
0.0
  0
VERTEX
  5
61F
  8
0
  6
CONTINUOUS
 62
     3
 10
-993.71730277883
 20
-2.991075390792822
 30
0.0
  0
VERTEX
  5
620
  8
0
  6
CONTINUOUS
 62
     3
 10
-994.0082151658519
 20
-4.252369505982788
 30
0.0
  0
VERTEX
  5
621
  8
0
  6
CONTINUOUS
 62
     3
 10
-994.2864156517008
 20
-5.516668659250389
 30
0.0
  0
VERTEX
  5
622
  8
0
  6
CONTINUOUS
 62
     3
 10
-994.551874662722
 20
-6.783838451309069
 30
0.0
  0
VERTEX
  5
623
  8
0
  6
CONTINUOUS
 62
     3
 10
-994.8045639797223
 20
-8.053744177713632
 30
0.0
  0
VERTEX
  5
624
  8
0
  6
CONTINUOUS
 62
     3
 10
-995.0444567409708
 20
-9.326250843179775
 30
0.0
  0
VERTEX
  5
625
  8
0
  6
CONTINUOUS
 62
     3
 10
-995.2715274450535
 20
-10.60122317593457
 30
0.0
  0
VERTEX
  5
626
  8
0
  6
CONTINUOUS
 62
     3
 10
-995.4857519535847
 20
-11.87852564209629
 30
0.0
  0
VERTEX
  5
627
  8
0
  6
CONTINUOUS
 62
     3
 10
-995.6871074937729
 20
-13.15802246008211
 30
0.0
  0
VERTEX
  5
628
  8
0
  6
CONTINUOUS
 62
     3
 10
-995.8755726608415
 20
-14.4395776150422
 30
0.0
  0
VERTEX
  5
629
  8
0
  6
CONTINUOUS
 62
     3
 10
-996.051127420304
 20
-15.7230548733185
 30
0.0
  0
VERTEX
  5
62A
  8
0
  6
CONTINUOUS
 62
     3
 10
-996.2137531100947
 20
-17.00831779692688
 30
0.0
  0
VERTEX
  5
62B
  8
0
  6
CONTINUOUS
 62
     3
 10
-996.363432442551
 20
-18.29522975806089
 30
0.0
  0
VERTEX
  5
62C
  8
0
  6
CONTINUOUS
 62
     3
 10
-996.5001495062526
 20
-19.58365395361584
 30
0.0
  0
VERTEX
  5
62D
  8
0
  6
CONTINUOUS
 62
     3
 10
-996.623889767712
 20
-20.87345341973138
 30
0.0
  0
VERTEX
  5
62E
  8
0
  6
CONTINUOUS
 62
     3
 10
-996.7346400729198
 20
-22.16449104635122
 30
0.0
  0
VERTEX
  5
62F
  8
0
  6
CONTINUOUS
 62
     3
 10
-996.8323886487432
 20
-23.45662959179844
 30
0.0
  0
VERTEX
  5
630
  8
0
  6
CONTINUOUS
 62
     3
 10
-996.9171251041771
 20
-24.74973169736469
 30
0.0
  0
VERTEX
  5
631
  8
0
  6
CONTINUOUS
 62
     3
 10
-996.988840431449
 20
-26.04365990191193
 30
0.0
  0
VERTEX
  5
632
  8
0
  6
CONTINUOUS
 62
     3
 10
-997.0475270069765
 20
-27.33827665648499
 30
0.0
  0
VERTEX
  5
633
  8
0
  6
CONTINUOUS
 62
     3
 10
-997.0931785921777
 20
-28.6334443389335
 30
0.0
  0
VERTEX
  5
634
  8
0
  6
CONTINUOUS
 62
     3
 10
-997.1257903341341
 20
-29.92902526854158
 30
0.0
  0
VERTEX
  5
635
  8
0
  6
CONTINUOUS
 62
     3
 10
-997.1453587661072
 20
-31.22488172066379
 30
0.0
  0
VERTEX
  5
636
  8
0
  6
CONTINUOUS
 62
     3
 10
-997.1518818079062
 20
-32.5208759413657
 30
0.0
  0
SEQEND
  5
7A8
  8
0
  6
CONTINUOUS
 62
     3
  0
POLYLINE
  5
551
  8
0
  6
CONTINUOUS
 62
     3
 66
     1
 10
0.0
 20
0.0
 30
0.0
 70
     1
  0
VERTEX
  5
637
  8
0
  6
CONTINUOUS
 62
     3
 10
1.0
 20
0.0
 30
0.0
  0
VERTEX
  5
638
  8
0
  6
CONTINUOUS
 62
     3
 10
0.9807852804032304
 20
0.1950903220161282
 30
0.0
  0
VERTEX
  5
639
  8
0
  6
CONTINUOUS
 62
     3
 10
0.9238795325112867
 20
0.3826834323650898
 30
0.0
  0
VERTEX
  5
63A
  8
0
  6
CONTINUOUS
 62
     3
 10
0.8314696123025452
 20
0.5555702330196022
 30
0.0
  0
VERTEX
  5
63B
  8
0
  6
CONTINUOUS
 62
     3
 10
0.7071067811865476
 20
0.7071067811865475
 30
0.0
  0
VERTEX
  5
63C
  8
0
  6
CONTINUOUS
 62
     3
 10
0.5555702330196023
 20
0.8314696123025452
 30
0.0
  0
VERTEX
  5
63D
  8
0
  6
CONTINUOUS
 62
     3
 10
0.3826834323650898
 20
0.9238795325112867
 30
0.0
  0
VERTEX
  5
63E
  8
0
  6
CONTINUOUS
 62
     3
 10
0.1950903220161283
 20
0.9807852804032304
 30
0.0
  0
VERTEX
  5
63F
  8
0
  6
CONTINUOUS
 62
     3
 10
0.0000000000000001
 20
1.0
 30
0.0
  0
VERTEX
  5
640
  8
0
  6
CONTINUOUS
 62
     3
 10
-0.1950903220161282
 20
0.9807852804032304
 30
0.0
  0
VERTEX
  5
641
  8
0
  6
CONTINUOUS
 62
     3
 10
-0.3826834323650897
 20
0.9238795325112867
 30
0.0
  0
VERTEX
  5
642
  8
0
  6
CONTINUOUS
 62
     3
 10
-0.555570233019602
 20
0.8314696123025455
 30
0.0
  0
VERTEX
  5
643
  8
0
  6
CONTINUOUS
 62
     3
 10
-0.7071067811865475
 20
0.7071067811865476
 30
0.0
  0
VERTEX
  5
644
  8
0
  6
CONTINUOUS
 62
     3
 10
-0.8314696123025453
 20
0.5555702330196022
 30
0.0
  0
VERTEX
  5
645
  8
0
  6
CONTINUOUS
 62
     3
 10
-0.9238795325112868
 20
0.3826834323650894
 30
0.0
  0
VERTEX
  5
646
  8
0
  6
CONTINUOUS
 62
     3
 10
-0.9807852804032305
 20
0.1950903220161277
 30
0.0
  0
VERTEX
  5
647
  8
0
  6
CONTINUOUS
 62
     3
 10
-1.0
 20
-0.0000000000000008
 30
0.0
  0
VERTEX
  5
648
  8
0
  6
CONTINUOUS
 62
     3
 10
-0.9807852804032302
 20
-0.1950903220161292
 30
0.0
  0
VERTEX
  5
649
  8
0
  6
CONTINUOUS
 62
     3
 10
-0.9238795325112863
 20
-0.3826834323650909
 30
0.0
  0
VERTEX
  5
64A
  8
0
  6
CONTINUOUS
 62
     3
 10
-0.8314696123025445
 20
-0.5555702330196034
 30
0.0
  0
VERTEX
  5
64B
  8
0
  6
CONTINUOUS
 62
     3
 10
-0.7071067811865464
 20
-0.7071067811865487
 30
0.0
  0
VERTEX
  5
64C
  8
0
  6
CONTINUOUS
 62
     3
 10
-0.5555702330196007
 20
-0.8314696123025462
 30
0.0
  0
VERTEX
  5
64D
  8
0
  6
CONTINUOUS
 62
     3
 10
-0.3826834323650879
 20
-0.9238795325112875
 30
0.0
  0
VERTEX
  5
64E
  8
0
  6
CONTINUOUS
 62
     3
 10
-0.1950903220161261
 20
-0.9807852804032309
 30
0.0
  0
VERTEX
  5
64F
  8
0
  6
CONTINUOUS
 62
     3
 10
0.0000000000000025
 20
-1.0
 30
0.0
  0
VERTEX
  5
650
  8
0
  6
CONTINUOUS
 62
     3
 10
0.1950903220161309
 20
-0.9807852804032299
 30
0.0
  0
VERTEX
  5
651
  8
0
  6
CONTINUOUS
 62
     3
 10
0.3826834323650924
 20
-0.9238795325112856
 30
0.0
  0
VERTEX
  5
652
  8
0
  6
CONTINUOUS
 62
     3
 10
0.5555702330196048
 20
-0.8314696123025435
 30
0.0
  0
VERTEX
  5
653
  8
0
  6
CONTINUOUS
 62
     3
 10
0.7071067811865499
 20
-0.7071067811865451
 30
0.0
  0
VERTEX
  5
654
  8
0
  6
CONTINUOUS
 62
     3
 10
0.8314696123025472
 20
-0.5555702330195993
 30
0.0
  0
VERTEX
  5
655
  8
0
  6
CONTINUOUS
 62
     3
 10
0.9238795325112882
 20
-0.3826834323650863
 30
0.0
  0
VERTEX
  5
656
  8
0
  6
CONTINUOUS
 62
     3
 10
0.9807852804032312
 20
-0.1950903220161244
 30
0.0
  0
SEQEND
  5
7A9
  8
0
  6
CONTINUOUS
 62
     3
  0
POLYLINE
  5
552
  8
0
  6
CONTINUOUS
 62
     3
 66
     1
 10
0.0
 20
0.0
 30
0.0
 70
   128
  0
VERTEX
  5
657
  8
0
  6
CONTINUOUS
 62
     3
 10
-877.4014333814486
 20
141.7528515434852
 30
0.0
  0
VERTEX
  5
658
  8
0
  6
CONTINUOUS
 62
     3
 10
-879.1752545841732
 20
141.7121666019087
 30
0.0
  0
VERTEX
  5
659
  8
0
  6
CONTINUOUS
 62
     3
 10
-880.9485665220598
 20
141.6527950983445
 30
0.0
  0
VERTEX
  5
65A
  8
0
  6
CONTINUOUS
 62
     3
 10
-882.7211790067089
 20
141.5747434004095
 30
0.0
  0
VERTEX
  5
65B
  8
0
  6
CONTINUOUS
 62
     3
 10
-884.4929019247379
 20
141.4780198791789
 30
0.0
  0
VERTEX
  5
65C
  8
0
  6
CONTINUOUS
 62
     3
 10
-886.2635452581708
 20
141.3626349082881
 30
0.0
  0
VERTEX
  5
65D
  8
0
  6
CONTINUOUS
 62
     3
 10
-888.032919104817
 20
141.2286008628204
 30
0.0
  0
VERTEX
  5
65E
  8
0
  6
CONTINUOUS
 62
     3
 10
-889.8008336986394
 20
141.0759321179797
 30
0.0
  0
VERTEX
  5
65F
  8
0
  6
CONTINUOUS
 62
     3
 10
-891.5670994301057
 20
140.9046450475486
 30
0.0
  0
VERTEX
  5
660
  8
0
  6
CONTINUOUS
 62
     3
 10
-893.3315268665255
 20
140.7147580221323
 30
0.0
  0
VERTEX
  5
661
  8
0
  6
CONTINUOUS
 62
     3
 10
-895.0939267723655
 20
140.5062914071887
 30
0.0
  0
VERTEX
  5
662
  8
0
  6
CONTINUOUS
 62
     3
 10
-896.8541101295464
 20
140.2792675608439
 30
0.0
  0
VERTEX
  5
663
  8
0
  6
CONTINUOUS
 62
     3
 10
-898.6118881577142
 20
140.033710831494
 30
0.0
  0
VERTEX
  5
664
  8
0
  6
CONTINUOUS
 62
     3
 10
-900.367072334488
 20
139.7696475551946
 30
0.0
  0
VERTEX
  5
665
  8
0
  6
CONTINUOUS
 62
     3
 10
-902.1194744156776
 20
139.4871060528351
 30
0.0
  0
VERTEX
  5
666
  8
0
  6
CONTINUOUS
 62
     3
 10
-903.8689064554743
 20
139.1861166271025
 30
0.0
  0
VERTEX
  5
667
  8
0
  6
CONTINUOUS
 62
     3
 10
-905.6151808266072
 20
138.8667115592302
 30
0.0
  0
VERTEX
  5
668
  8
0
  6
CONTINUOUS
 62
     3
 10
-907.3581102404669
 20
138.5289251055369
 30
0.0
  0
VERTEX
  5
669
  8
0
  6
CONTINUOUS
 62
     3
 10
-909.0975077671917
 20
138.1727934937519
 30
0.0
  0
VERTEX
  5
66A
  8
0
  6
CONTINUOUS
 62
     3
 10
-910.8331868557161
 20
137.7983549191298
 30
0.0
  0
VERTEX
  5
66B
  8
0
  6
CONTINUOUS
 62
     3
 10
-912.564961353779
 20
137.4056495403544
 30
0.0
  0
VERTEX
  5
66C
  8
0
  6
CONTINUOUS
 62
     3
 10
-914.2926455278875
 20
136.9947194752311
 30
0.0
  0
VERTEX
  5
66D
  8
0
  6
CONTINUOUS
 62
     3
 10
-916.0160540832383
 20
136.5656087961702
 30
0.0
  0
VERTEX
  5
66E
  8
0
  6
CONTINUOUS
 62
     3
 10
-917.7350021835892
 20
136.11836352546
 30
0.0
  0
VERTEX
  5
66F
  8
0
  6
CONTINUOUS
 62
     3
 10
-919.449305471084
 20
135.6530316303308
 30
0.0
  0
VERTEX
  5
670
  8
0
  6
CONTINUOUS
 62
     3
 10
-921.1587800860242
 20
135.1696630178103
 30
0.0
  0
VERTEX
  5
671
  8
0
  6
CONTINUOUS
 62
     3
 10
-922.8632426865885
 20
134.6683095293715
 30
0.0
  0
VERTEX
  5
672
  8
0
  6
CONTINUOUS
 62
     3
 10
-924.5625104684962
 20
134.149024935372
 30
0.0
  0
VERTEX
  5
673
  8
0
  6
CONTINUOUS
 62
     3
 10
-926.2564011846125
 20
133.6118649292879
 30
0.0
  0
VERTEX
  5
674
  8
0
  6
CONTINUOUS
 62
     3
 10
-927.9447331644956
 20
133.0568871217399
 30
0.0
  0
VERTEX
  5
675
  8
0
  6
CONTINUOUS
 62
     3
 10
-929.6273253338799
 20
132.4841510343151
 30
0.0
  0
VERTEX
  5
676
  8
0
  6
CONTINUOUS
 62
     3
 10
-931.3039972340968
 20
131.8937180931829
 30
0.0
  0
VERTEX
  5
677
  8
0
  6
CONTINUOUS
 62
     3
 10
-932.9745690414289
 20
131.2856516225073
 30
0.0
  0
VERTEX
  5
678
  8
0
  6
CONTINUOUS
 62
     3
 10
-934.6388615863965
 20
130.6600168376552
 30
0.0
  0
VERTEX
  5
679
  8
0
  6
CONTINUOUS
 62
     3
 10
-936.2966963729726
 20
130.0168808382022
 30
0.0
  0
VERTEX
  5
67A
  8
0
  6
CONTINUOUS
 62
     3
 10
-937.9478955977279
 20
129.3563126007357
 30
0.0
  0
VERTEX
  5
67B
  8
0
  6
CONTINUOUS
 62
     3
 10
-939.5922821688993
 20
128.6783829714577
 30
0.0
  0
VERTEX
  5
67C
  8
0
  6
CONTINUOUS
 62
     3
 10
-941.2296797253836
 20
127.9831646585863
 30
0.0
  0
VERTEX
  5
67D
  8
0
  6
CONTINUOUS
 62
     3
 10
-942.8599126556522
 20
127.2707322245574
 30
0.0
  0
VERTEX
  5
67E
  8
0
  6
CONTINUOUS
 62
     3
 10
-944.4828061165856
 20
126.5411620780285
 30
0.0
  0
VERTEX
  5
67F
  8
0
  6
CONTINUOUS
 62
     3
 10
-946.098186052225
 20
125.7945324656832
 30
0.0
  0
VERTEX
  5
680
  8
0
  6
CONTINUOUS
 62
     3
 10
-947.70587921244
 20
125.0309234638396
 30
0.0
  0
VERTEX
  5
681
  8
0
  6
CONTINUOUS
 62
     3
 10
-949.3057131715104
 20
124.2504169698619
 30
0.0
  0
VERTEX
  5
682
  8
0
  6
CONTINUOUS
 62
     3
 10
-950.8975163466181
 20
123.4530966933771
 30
0.0
  0
VERTEX
  5
683
  8
0
  6
CONTINUOUS
 62
     3
 10
-952.4811180162494
 20
122.6390481472966
 30
0.0
  0
VERTEX
  5
684
  8
0
  6
CONTINUOUS
 62
     3
 10
-954.056348338506
 20
121.8083586386457
 30
0.0
  0
VERTEX
  5
685
  8
0
  6
CONTINUOUS
 62
     3
 10
-955.6230383693191
 20
120.9611172591991
 30
0.0
  0
VERTEX
  5
686
  8
0
  6
CONTINUOUS
 62
     3
 10
-957.1810200805702
 20
120.0974148759264
 30
0.0
  0
VERTEX
  5
687
  8
0
  6
CONTINUOUS
 62
     3
 10
-958.730126378111
 20
119.217344121246
 30
0.0
  0
VERTEX
  5
688
  8
0
  6
CONTINUOUS
 62
     3
 10
-960.2701911196848
 20
118.3209993830909
 30
0.0
  0
VERTEX
  5
689
  8
0
  6
CONTINUOUS
 62
     3
 10
-961.8010491327457
 20
117.4084767947848
 30
0.0
  0
VERTEX
  5
68A
  8
0
  6
CONTINUOUS
 62
     3
 10
-963.3225362321728
 20
116.4798742247325
 30
0.0
  0
VERTEX
  5
68B
  8
0
  6
CONTINUOUS
 62
     3
 10
-964.834489237879
 20
115.5352912659229
 30
0.0
  0
VERTEX
  5
68C
  8
0
  6
CONTINUOUS
 62
     3
 10
-966.3367459923132
 20
114.5748292252479
 30
0.0
  0
VERTEX
  5
68D
  8
0
  6
CONTINUOUS
 62
     3
 10
-967.8291453778506
 20
113.5985911126373
 30
0.0
  0
VERTEX
  5
68E
  8
0
  6
CONTINUOUS
 62
     3
 10
-969.311527334073
 20
112.6066816300106
 30
0.0
  0
VERTEX
  5
68F
  8
0
  6
CONTINUOUS
 62
     3
 10
-970.7837328749358
 20
111.5992071600479
 30
0.0
  0
VERTEX
  5
690
  8
0
  6
CONTINUOUS
 62
     3
 10
-972.2456041058184
 20
110.5762757547803
 30
0.0
  0
VERTEX
  5
691
  8
0
  6
CONTINUOUS
 62
     3
 10
-973.6969842404595
 20
109.5379971240014
 30
0.0
  0
VERTEX
  5
692
  8
0
  6
CONTINUOUS
 62
     3
 10
-975.1377176177717
 20
108.4844826235006
 30
0.0
  0
VERTEX
  5
693
  8
0
  6
CONTINUOUS
 62
     3
 10
-976.5676497185365
 20
107.4158452431201
 30
0.0
  0
VERTEX
  5
694
  8
0
  6
CONTINUOUS
 62
     3
 10
-977.9866271819766
 20
106.3321995946373
 30
0.0
  0
VERTEX
  5
695
  8
0
  6
CONTINUOUS
 62
     3
 10
-979.3944978222038
 20
105.233661899472
 30
0.0
  0
VERTEX
  5
696
  8
0
  6
CONTINUOUS
 62
     3
 10
-980.791110644541
 20
104.1203499762217
 30
0.0
  0
VERTEX
  5
697
  8
0
  6
CONTINUOUS
 62
     3
 10
-982.1763158617168
 20
102.9923832280259
 30
0.0
  0
VERTEX
  5
698
  8
0
  6
CONTINUOUS
 62
     3
 10
-983.5499649099294
 20
101.8498826297597
 30
0.0
  0
VERTEX
  5
699
  8
0
  6
CONTINUOUS
 62
     3
 10
-984.9119104647809
 20
100.6929707150593
 30
0.0
  0
VERTEX
  5
69A
  8
0
  6
CONTINUOUS
 62
     3
 10
-986.2620064570776
 20
99.5217715631803
 30
0.0
  0
VERTEX
  5
69B
  8
0
  6
CONTINUOUS
 62
     3
 10
-987.6001080884962
 20
98.33641078568988
 30
0.0
  0
VERTEX
  5
69C
  8
0
  6
CONTINUOUS
 62
     3
 10
-988.9260718471131
 20
97.13701551299533
 30
0.0
  0
VERTEX
  5
69D
  8
0
  6
CONTINUOUS
 62
     3
 10
-990.2397555227963
 20
95.9237143807089
 30
0.0
  0
VERTEX
  5
69E
  8
0
  6
CONTINUOUS
 62
     3
 10
-991.5410182224576
 20
94.69663751585186
 30
0.0
  0
VERTEX
  5
69F
  8
0
  6
CONTINUOUS
 62
     3
 10
-992.8297203851633
 20
93.45591652289804
 30
0.0
  0
VERTEX
  5
6A0
  8
0
  6
CONTINUOUS
 62
     3
 10
-994.1057237971022
 20
92.20168446965941
 30
0.0
  0
VERTEX
  5
6A1
  8
0
  6
CONTINUOUS
 62
     3
 10
-995.368891606409
 20
90.93407587301445
 30
0.0
  0
VERTEX
  5
6A2
  8
0
  6
CONTINUOUS
 62
     3
 10
-996.619088337842
 20
89.65322668448115
 30
0.0
  0
VERTEX
  5
6A3
  8
0
  6
CONTINUOUS
 62
     3
 10
-997.8561799073125
 20
88.35927427563618
 30
0.0
  0
VERTEX
  5
6A4
  8
0
  6
CONTINUOUS
 62
     3
 10
-999.0800336362657
 20
87.05235742338168
 30
0.0
  0
VERTEX
  5
6A5
  8
0
  6
CONTINUOUS
 62
     3
 10
-1000.29051826591
 20
85.73261629506142
 30
0.0
  0
VERTEX
  5
6A6
  8
0
  6
CONTINUOUS
 62
     3
 10
-1001.487503971296
 20
84.40019243342783
 30
0.0
  0
VERTEX
  5
6A7
  8
0
  6
CONTINUOUS
 62
     3
 10
-1002.670862375237
 20
83.0552287414614
 30
0.0
  0
VERTEX
  5
6A8
  8
0
  6
CONTINUOUS
 62
     3
 10
-1003.840466562083
 20
81.6978694670444
 30
0.0
  0
VERTEX
  5
6A9
  8
0
  6
CONTINUOUS
 62
     3
 10
-1004.996191091326
 20
80.3282601874901
 30
0.0
  0
VERTEX
  5
6AA
  8
0
  6
CONTINUOUS
 62
     3
 10
-1006.137912011058
 20
78.94654779392964
 30
0.0
  0
VERTEX
  5
6AB
  8
0
  6
CONTINUOUS
 62
     3
 10
-1007.265506871265
 20
77.5528804755579
 30
0.0
  0
VERTEX
  5
6AC
  8
0
  6
CONTINUOUS
 62
     3
 10
-1008.378854736955
 20
76.14740770374006
 30
0.0
  0
VERTEX
  5
6AD
  8
0
  6
CONTINUOUS
 62
     3
 10
-1009.477836201135
 20
74.73028021598088
 30
0.0
  0
VERTEX
  5
6AE
  8
0
  6
CONTINUOUS
 62
     3
 10
-1010.562333397613
 20
73.3016499997579
 30
0.0
  0
VERTEX
  5
6AF
  8
0
  6
CONTINUOUS
 62
     3
 10
-1011.63223001364
 20
71.86167027622079
 30
0.0
  0
VERTEX
  5
6B0
  8
0
  6
CONTINUOUS
 62
     3
 10
-1012.687411302385
 20
70.41049548375841
 30
0.0
  0
VERTEX
  5
6B1
  8
0
  6
CONTINUOUS
 62
     3
 10
-1013.727764095243
 20
68.94828126143503
 30
0.0
  0
VERTEX
  5
6B2
  8
0
  6
CONTINUOUS
 62
     3
 10
-1014.753176813969
 20
67.47518443229814
 30
0.0
  0
VERTEX
  5
6B3
  8
0
  6
CONTINUOUS
 62
     3
 10
-1015.763539482647
 20
65.99136298655907
 30
0.0
  0
VERTEX
  5
6B4
  8
0
  6
CONTINUOUS
 62
     3
 10
-1016.758743739487
 20
64.49697606464849
 30
0.0
  0
VERTEX
  5
6B5
  8
0
  6
CONTINUOUS
 62
     3
 10
-1017.738682848442
 20
62.99218394014849
 30
0.0
  0
VERTEX
  5
6B6
  8
0
  6
CONTINUOUS
 62
     3
 10
-1018.70325171066
 20
61.47714800260323
 30
0.0
  0
VERTEX
  5
6B7
  8
0
  6
CONTINUOUS
 62
     3
 10
-1019.652346875752
 20
59.95203074020982
 30
0.0
  0
VERTEX
  5
6B8
  8
0
  6
CONTINUOUS
 62
     3
 10
-1020.585866552891
 20
58.41699572239141
 30
0.0
  0
VERTEX
  5
6B9
  8
0
  6
CONTINUOUS
 62
     3
 10
-1021.503710621726
 20
56.8722075822543
 30
0.0
  0
VERTEX
  5
6BA
  8
0
  6
CONTINUOUS
 62
     3
 10
-1022.405780643122
 20
55.317831998931
 30
0.0
  0
VERTEX
  5
6BB
  8
0
  6
CONTINUOUS
 62
     3
 10
-1023.291979869716
 20
53.75403567981101
 30
0.0
  0
VERTEX
  5
6BC
  8
0
  6
CONTINUOUS
 62
     3
 10
-1024.162213256293
 20
52.18098634266143
 30
0.0
  0
VERTEX
  5
6BD
  8
0
  6
CONTINUOUS
 62
     3
 10
-1025.016387469983
 20
50.5988526976392
 30
0.0
  0
VERTEX
  5
6BE
  8
0
  6
CONTINUOUS
 62
     3
 10
-1025.854410900268
 20
49.00780442919682
 30
0.0
  0
VERTEX
  5
6BF
  8
0
  6
CONTINUOUS
 62
     3
 10
-1026.676193668805
 20
47.40801217788362
 30
0.0
  0
VERTEX
  5
6C0
  8
0
  6
CONTINUOUS
 62
     3
 10
-1027.481647639073
 20
45.79964752204455
 30
0.0
  0
VERTEX
  5
6C1
  8
0
  6
CONTINUOUS
 62
     3
 10
-1028.270686425817
 20
44.18288295941828
 30
0.0
  0
VERTEX
  5
6C2
  8
0
  6
CONTINUOUS
 62
     3
 10
-1029.043225404318
 20
42.55789188863673
 30
0.0
  0
VERTEX
  5
6C3
  8
0
  6
CONTINUOUS
 62
     3
 10
-1029.79918171947
 20
40.92484859062812
 30
0.0
  0
VERTEX
  5
6C4
  8
0
  6
CONTINUOUS
 62
     3
 10
-1030.538474294661
 20
39.28392820992514
 30
0.0
  0
VERTEX
  5
6C5
  8
0
  6
CONTINUOUS
 62
     3
 10
-1031.261023840474
 20
37.63530673588069
 30
0.0
  0
VERTEX
  5
6C6
  8
0
  6
CONTINUOUS
 62
     3
 10
-1031.966752863187
 20
35.97916098379294
 30
0.0
  0
VERTEX
  5
6C7
  8
0
  6
CONTINUOUS
 62
     3
 10
-1032.655585673085
 20
34.3156685759418
 30
0.0
  0
VERTEX
  5
6C8
  8
0
  6
CONTINUOUS
 62
     3
 10
-1033.327448392582
 20
32.64500792253897
 30
0.0
  0
VERTEX
  5
6C9
  8
0
  6
CONTINUOUS
 62
     3
 10
-1033.982268964136
 20
30.96735820259319
 30
0.0
  0
VERTEX
  5
6CA
  8
0
  6
CONTINUOUS
 62
     3
 10
-1034.619977157987
 20
29.2828993446934
 30
0.0
  0
VERTEX
  5
6CB
  8
0
  6
CONTINUOUS
 62
     3
 10
-1035.240504579679
 20
27.59181200771118
 30
0.0
  0
VERTEX
  5
6CC
  8
0
  6
CONTINUOUS
 62
     3
 10
-1035.843784677405
 20
25.89427756142515
 30
0.0
  0
VERTEX
  5
6CD
  8
0
  6
CONTINUOUS
 62
     3
 10
-1036.429752749139
 20
24.19047806706888
 30
0.0
  0
VERTEX
  5
6CE
  8
0
  6
CONTINUOUS
 62
     3
 10
-1036.998345949574
 20
22.48059625780481
 30
0.0
  0
VERTEX
  5
6CF
  8
0
  6
CONTINUOUS
 62
     3
 10
-1037.549503296868
 20
20.76481551912605
 30
0.0
  0
VERTEX
  5
6D0
  8
0
  6
CONTINUOUS
 62
     3
 10
-1038.08316567918
 20
19.04331986918818
 30
0.0
  0
VERTEX
  5
6D1
  8
0
  6
CONTINUOUS
 62
     3
 10
-1038.59927586101
 20
17.31629393907325
 30
0.0
  0
VERTEX
  5
6D2
  8
0
  6
CONTINUOUS
 62
     3
 10
-1039.09777848934
 20
15.58392295298803
 30
0.0
  0
VERTEX
  5
6D3
  8
0
  6
CONTINUOUS
 62
     3
 10
-1039.578620099566
 20
13.84639270839863
 30
0.0
  0
VERTEX
  5
6D4
  8
0
  6
CONTINUOUS
 62
     3
 10
-1040.04174912124
 20
12.10388955610365
 30
0.0
  0
VERTEX
  5
6D5
  8
0
  6
CONTINUOUS
 62
     3
 10
-1040.487115883591
 20
10.356600380248
 30
0.0
  0
VERTEX
  5
6D6
  8
0
  6
CONTINUOUS
 62
     3
 10
-1040.914672620861
 20
8.604712578279475
 30
0.0
  0
VERTEX
  5
6D7
  8
0
  6
CONTINUOUS
 62
     3
 10
-1041.324373477422
 20
6.848414040850329
 30
0.0
  0
VERTEX
  5
6D8
  8
0
  6
CONTINUOUS
 62
     3
 10
-1041.716174512696
 20
5.087893131665908
 30
0.0
  0
VERTEX
  5
6D9
  8
0
  6
CONTINUOUS
 62
     3
 10
-1042.09003370587
 20
3.323338667282592
 30
0.0
  0
VERTEX
  5
6DA
  8
0
  6
CONTINUOUS
 62
     3
 10
-1042.445910960398
 20
1.554939896857135
 30
0.0
  0
VERTEX
  5
6DB
  8
0
  6
CONTINUOUS
 62
     3
 10
-1042.783768108307
 20
-0.2171135181503701
 30
0.0
  0
VERTEX
  5
6DC
  8
0
  6
CONTINUOUS
 62
     3
 10
-1043.103568914283
 20
-1.992631524317808
 30
0.0
  0
VERTEX
  5
6DD
  8
0
  6
CONTINUOUS
 62
     3
 10
-1043.405279079567
 20
-3.771423696644266
 30
0.0
  0
VERTEX
  5
6DE
  8
0
  6
CONTINUOUS
 62
     3
 10
-1043.688866245624
 20
-5.553299258973254
 30
0.0
  0
VERTEX
  5
6DF
  8
0
  6
CONTINUOUS
 62
     3
 10
-1043.954299997621
 20
-7.338067104453486
 30
0.0
  0
VERTEX
  5
6E0
  8
0
  6
CONTINUOUS
 62
     3
 10
-1044.201551867683
 20
-9.125535816035175
 30
0.0
  0
VERTEX
  5
6E1
  8
0
  6
CONTINUOUS
 62
     3
 10
-1044.430595337951
 20
-10.9155136869996
 30
0.0
  0
VERTEX
  5
6E2
  8
0
  6
CONTINUOUS
 62
     3
 10
-1044.641405843422
 20
-12.7078087415197
 30
0.0
  0
VERTEX
  5
6E3
  8
0
  6
CONTINUOUS
 62
     3
 10
-1044.833960774588
 20
-14.50222875524957
 30
0.0
  0
VERTEX
  5
6E4
  8
0
  6
CONTINUOUS
 62
     3
 10
-1045.008239479857
 20
-16.29858127594062
 30
0.0
  0
VERTEX
  5
6E5
  8
0
  6
CONTINUOUS
 62
     3
 10
-1045.164223267769
 20
-18.09667364408211
 30
0.0
  0
VERTEX
  5
6E6
  8
0
  6
CONTINUOUS
 62
     3
 10
-1045.301895409003
 20
-19.89631301356399
 30
0.0
  0
VERTEX
  5
6E7
  8
0
  6
CONTINUOUS
 62
     3
 10
-1045.421241138167
 20
-21.69730637235971
 30
0.0
  0
VERTEX
  5
6E8
  8
0
  6
CONTINUOUS
 62
     3
 10
-1045.522247655384
 20
-23.49946056322683
 30
0.0
  0
VERTEX
  5
6E9
  8
0
  6
CONTINUOUS
 62
     3
 10
-1045.604904127668
 20
-25.30258230442322
 30
0.0
  0
VERTEX
  5
6EA
  8
0
  6
CONTINUOUS
 62
     3
 10
-1045.669201690078
 20
-27.10647821043661
 30
0.0
  0
VERTEX
  5
6EB
  8
0
  6
CONTINUOUS
 62
     3
 10
-1045.715133446676
 20
-28.91095481272524
 30
0.0
  0
VERTEX
  5
6EC
  8
0
  6
CONTINUOUS
 62
     3
 10
-1045.742694471263
 20
-30.71581858046743
 30
0.0
  0
VERTEX
  5
6ED
  8
0
  6
CONTINUOUS
 62
     3
 10
-1045.751881807908
 20
-32.5208759413179
 30
0.0
  0
SEQEND
  5
7AA
  8
0
  6
CONTINUOUS
 62
     3
  0
LINE
  5
553
  8
0
  6
CENTER
 62
     4
 10
597.1986647752681
 20
160.8562435421517
 30
0.0
 11
597.1986647752681
 21
-575.326885958183
 31
0.0
  0
LINE
  5
554
  8
0
  6
CENTER
 62
     4
 10
-1021.451881807909
 20
-599.2280617712012
 30
0.0
 11
-1021.451881807909
 21
-32.52087594148844
 31
0.0
  0
LINE
  5
555
  8
0
  6
CENTER
 62
     4
 10
-877.4018818079098
 20
117.4791240585116
 30
0.0
 11
-31.9518818079091
 21
117.4791240585116
 31
0.0
  0
LINE
  5
556
  8
0
  6
CENTER
 62
     4
 10
118.0481181920909
 20
-599.2280617712012
 30
0.0
 11
118.0481181920909
 21
-32.52087594148844
 31
0.0
  0
ARC
  5
557
  8
0
  6
CENTER
 62
     4
 10
-31.9518818079091
 20
-32.52087594148844
 30
0.0
 40
150.0
 50
0.0
 51
90.0
  0
LINE
  5
558
  8
0
  6
CENTER
 62
     4
 10
-1092.280591609215
 20
651.3815516518686
 30
0.0
 11
179.5944116405913
 21
651.3815516518681
 31
0.0
  0
LINE
  5
559
  8
0
  6
CENTER
 62
     4
 10
-1076.451881807909
 20
666.5064079193238
 30
0.0
 11
-1076.451881807909
 21
633.7551245402425
 31
0.0
  0
LINE
  5
55A
  8
0
  6
CENTER
 62
     4
 10
-1021.451881807909
 20
700.7415779010718
 30
0.0
 11
-1021.451881807909
 21
612.4660757456658
 31
0.0
  0
LINE
  5
55B
  8
0
  6
CENTER
 62
     4
 10
-966.4518818079091
 20
666.5064079193236
 30
0.0
 11
-966.4518818079091
 21
633.755124540242
 31
0.0
  0
LINE
  5
55C
  8
0
  6
CENTER
 62
     4
 10
-451.7018818079091
 20
597.0274322221477
 30
0.0
 11
-451.7018818079091
 21
730.9005540919308
 31
0.0
  0
LINE
  5
55D
  8
0
  6
CENTER
 62
     4
 10
173.0481181920909
 20
666.5064079193238
 30
0.0
 11
173.0481181920909
 21
633.7551245402425
 31
0.0
  0
LINE
  5
55E
  8
0
  6
CENTER
 62
     4
 10
118.0481181920909
 20
700.7415779010718
 30
0.0
 11
118.0481181920909
 21
612.4660757456658
 31
0.0
  0
LINE
  5
55F
  8
0
  6
CENTER
 62
     4
 10
63.0481181920909
 20
666.5064079193236
 30
0.0
 11
63.0481181920909
 21
633.755124540242
 31
0.0
  0
POLYLINE
  5
560
  8
0
  6
CENTER
 62
     4
 66
     1
 10
0.0
 20
0.0
 30
0.0
 70
     1
  0
VERTEX
  5
6EE
  8
0
  6
CENTER
 62
     4
 10
1.0
 20
0.0
 30
0.0
  0
VERTEX
  5
6EF
  8
0
  6
CENTER
 62
     4
 10
0.9807852804032304
 20
0.1950903220161282
 30
0.0
  0
VERTEX
  5
6F0
  8
0
  6
CENTER
 62
     4
 10
0.9238795325112867
 20
0.3826834323650898
 30
0.0
  0
VERTEX
  5
6F1
  8
0
  6
CENTER
 62
     4
 10
0.8314696123025452
 20
0.5555702330196022
 30
0.0
  0
VERTEX
  5
6F2
  8
0
  6
CENTER
 62
     4
 10
0.7071067811865476
 20
0.7071067811865475
 30
0.0
  0
VERTEX
  5
6F3
  8
0
  6
CENTER
 62
     4
 10
0.5555702330196023
 20
0.8314696123025452
 30
0.0
  0
VERTEX
  5
6F4
  8
0
  6
CENTER
 62
     4
 10
0.3826834323650898
 20
0.9238795325112867
 30
0.0
  0
VERTEX
  5
6F5
  8
0
  6
CENTER
 62
     4
 10
0.1950903220161283
 20
0.9807852804032304
 30
0.0
  0
VERTEX
  5
6F6
  8
0
  6
CENTER
 62
     4
 10
0.0000000000000001
 20
1.0
 30
0.0
  0
VERTEX
  5
6F7
  8
0
  6
CENTER
 62
     4
 10
-0.1950903220161282
 20
0.9807852804032304
 30
0.0
  0
VERTEX
  5
6F8
  8
0
  6
CENTER
 62
     4
 10
-0.3826834323650897
 20
0.9238795325112867
 30
0.0
  0
VERTEX
  5
6F9
  8
0
  6
CENTER
 62
     4
 10
-0.555570233019602
 20
0.8314696123025455
 30
0.0
  0
VERTEX
  5
6FA
  8
0
  6
CENTER
 62
     4
 10
-0.7071067811865475
 20
0.7071067811865476
 30
0.0
  0
VERTEX
  5
6FB
  8
0
  6
CENTER
 62
     4
 10
-0.8314696123025453
 20
0.5555702330196022
 30
0.0
  0
VERTEX
  5
6FC
  8
0
  6
CENTER
 62
     4
 10
-0.9238795325112868
 20
0.3826834323650894
 30
0.0
  0
VERTEX
  5
6FD
  8
0
  6
CENTER
 62
     4
 10
-0.9807852804032305
 20
0.1950903220161277
 30
0.0
  0
VERTEX
  5
6FE
  8
0
  6
CENTER
 62
     4
 10
-1.0
 20
-0.0000000000000008
 30
0.0
  0
VERTEX
  5
6FF
  8
0
  6
CENTER
 62
     4
 10
-0.9807852804032302
 20
-0.1950903220161292
 30
0.0
  0
VERTEX
  5
700
  8
0
  6
CENTER
 62
     4
 10
-0.9238795325112863
 20
-0.3826834323650909
 30
0.0
  0
VERTEX
  5
701
  8
0
  6
CENTER
 62
     4
 10
-0.8314696123025445
 20
-0.5555702330196034
 30
0.0
  0
VERTEX
  5
702
  8
0
  6
CENTER
 62
     4
 10
-0.7071067811865464
 20
-0.7071067811865487
 30
0.0
  0
VERTEX
  5
703
  8
0
  6
CENTER
 62
     4
 10
-0.5555702330196007
 20
-0.8314696123025462
 30
0.0
  0
VERTEX
  5
704
  8
0
  6
CENTER
 62
     4
 10
-0.3826834323650879
 20
-0.9238795325112875
 30
0.0
  0
VERTEX
  5
705
  8
0
  6
CENTER
 62
     4
 10
-0.1950903220161261
 20
-0.9807852804032309
 30
0.0
  0
VERTEX
  5
706
  8
0
  6
CENTER
 62
     4
 10
0.0000000000000025
 20
-1.0
 30
0.0
  0
VERTEX
  5
707
  8
0
  6
CENTER
 62
     4
 10
0.1950903220161309
 20
-0.9807852804032299
 30
0.0
  0
VERTEX
  5
708
  8
0
  6
CENTER
 62
     4
 10
0.3826834323650924
 20
-0.9238795325112856
 30
0.0
  0
VERTEX
  5
709
  8
0
  6
CENTER
 62
     4
 10
0.5555702330196048
 20
-0.8314696123025435
 30
0.0
  0
VERTEX
  5
70A
  8
0
  6
CENTER
 62
     4
 10
0.7071067811865499
 20
-0.7071067811865451
 30
0.0
  0
VERTEX
  5
70B
  8
0
  6
CENTER
 62
     4
 10
0.8314696123025472
 20
-0.5555702330195993
 30
0.0
  0
VERTEX
  5
70C
  8
0
  6
CENTER
 62
     4
 10
0.9238795325112882
 20
-0.3826834323650863
 30
0.0
  0
VERTEX
  5
70D
  8
0
  6
CENTER
 62
     4
 10
0.9807852804032312
 20
-0.1950903220161244
 30
0.0
  0
SEQEND
  5
7AB
  8
0
  6
CENTER
 62
     4
  0
POLYLINE
  5
561
  8
0
  6
CENTER
 62
     4
 66
     1
 10
0.0
 20
0.0
 30
0.0
 70
   128
  0
VERTEX
  5
70E
  8
0
  6
CENTER
 62
     4
 10
-877.4012729510551
 20
117.4484253935682
 30
0.0
  0
VERTEX
  5
70F
  8
0
  6
CENTER
 62
     4
 10
-878.9205875075894
 20
117.4090447832396
 30
0.0
  0
VERTEX
  5
710
  8
0
  6
CENTER
 62
     4
 10
-880.4394218909679
 20
117.3536434701749
 30
0.0
  0
VERTEX
  5
711
  8
0
  6
CENTER
 62
     4
 10
-881.9576138067395
 20
117.2822273742597
 30
0.0
  0
VERTEX
  5
712
  8
0
  6
CENTER
 62
     4
 10
-883.475001029104
 20
117.1948041266328
 30
0.0
  0
VERTEX
  5
713
  8
0
  6
CENTER
 62
     4
 10
-884.9914214182462
 20
117.091383068871
 30
0.0
  0
VERTEX
  5
714
  8
0
  6
CENTER
 62
     4
 10
-886.5067129376617
 20
116.9719752519907
 30
0.0
  0
VERTEX
  5
715
  8
0
  6
CENTER
 62
     4
 10
-888.0207136714708
 20
116.8365934352673
 30
0.0
  0
VERTEX
  5
716
  8
0
  6
CENTER
 62
     4
 10
-889.5332618417204
 20
116.6852520848716
 30
0.0
  0
VERTEX
  5
717
  8
0
  6
CENTER
 62
     4
 10
-891.0441958256705
 20
116.5179673723241
 30
0.0
  0
VERTEX
  5
718
  8
0
  6
CENTER
 62
     4
 10
-892.553354173064
 20
116.3347571727669
 30
0.0
  0
VERTEX
  5
719
  8
0
  6
CENTER
 62
     4
 10
-894.060575623379
 20
116.1356410630539
 30
0.0
  0
VERTEX
  5
71A
  8
0
  6
CENTER
 62
     4
 10
-895.5656991230602
 20
115.9206403196588
 30
0.0
  0
VERTEX
  5
71B
  8
0
  6
CENTER
 62
     4
 10
-897.0685638427276
 20
115.6897779164014
 30
0.0
  0
VERTEX
  5
71C
  8
0
  6
CENTER
 62
     4
 10
-898.5690091943625
 20
115.4430785219932
 30
0.0
  0
VERTEX
  5
71D
  8
0
  6
CENTER
 62
     4
 10
-900.0668748484666
 20
115.1805684974008
 30
0.0
  0
VERTEX
  5
71E
  8
0
  6
CENTER
 62
     4
 10
-901.5620007511944
 20
114.9022758930298
 30
0.0
  0
VERTEX
  5
71F
  8
0
  6
CENTER
 62
     4
 10
-903.0542271414554
 20
114.6082304457269
 30
0.0
  0
VERTEX
  5
720
  8
0
  6
CENTER
 62
     4
 10
-904.5433945679852
 20
114.298463575603
 30
0.0
  0
VERTEX
  5
721
  8
0
  6
CENTER
 62
     4
 10
-906.0293439063839
 20
113.9730083826751
 30
0.0
  0
VERTEX
  5
722
  8
0
  6
CENTER
 62
     4
 10
-907.5119163761192
 20
113.6318996433298
 30
0.0
  0
VERTEX
  5
723
  8
0
  6
CENTER
 62
     4
 10
-908.9909535574926
 20
113.2751738066075
 30
0.0
  0
VERTEX
  5
724
  8
0
  6
CENTER
 62
     4
 10
-910.4662974085677
 20
112.9028689903072
 30
0.0
  0
VERTEX
  5
725
  8
0
  6
CENTER
 62
     4
 10
-911.9377902820572
 20
112.5150249769136
 30
0.0
  0
VERTEX
  5
726
  8
0
  6
CENTER
 62
     4
 10
-913.4052749421686
 20
112.1116832093463
 30
0.0
  0
VERTEX
  5
727
  8
0
  6
CENTER
 62
     4
 10
-914.8685945814054
 20
111.6928867865314
 30
0.0
  0
VERTEX
  5
728
  8
0
  6
CENTER
 62
     4
 10
-916.3275928373231
 20
111.2586804587959
 30
0.0
  0
VERTEX
  5
729
  8
0
  6
CENTER
 62
     4
 10
-917.7821138092363
 20
110.8091106230864
 30
0.0
  0
VERTEX
  5
72A
  8
0
  6
CENTER
 62
     4
 10
-919.2320020748787
 20
110.3442253180107
 30
0.0
  0
VERTEX
  5
72B
  8
0
  6
CENTER
 62
     4
 10
-920.6771027070093
 20
109.8640742187055
 30
0.0
  0
VERTEX
  5
72C
  8
0
  6
CENTER
 62
     4
 10
-922.1172612899686
 20
109.3687086315278
 30
0.0
  0
VERTEX
  5
72D
  8
0
  6
CENTER
 62
     4
 10
-923.5523239361771
 20
108.8581814885725
 30
0.0
  0
VERTEX
  5
72E
  8
0
  6
CENTER
 62
     4
 10
-924.98213730258
 20
108.3325473420168
 30
0.0
  0
VERTEX
  5
72F
  8
0
  6
CENTER
 62
     4
 10
-926.4065486070322
 20
107.7918623582909
 30
0.0
  0
VERTEX
  5
730
  8
0
  6
CENTER
 62
     4
 10
-927.8254056446236
 20
107.2361843120761
 30
0.0
  0
VERTEX
  5
731
  8
0
  6
CENTER
 62
     4
 10
-929.2385568039434
 20
106.6655725801315
 30
0.0
  0
VERTEX
  5
732
  8
0
  6
CENTER
 62
     4
 10
-930.64585108328
 20
106.0800881349494
 30
0.0
  0
VERTEX
  5
733
  8
0
  6
CENTER
 62
     4
 10
-932.0471381067565
 20
105.4797935382402
 30
0.0
  0
VERTEX
  5
734
  8
0
  6
CENTER
 62
     4
 10
-933.4422681403988
 20
104.8647529342468
 30
0.0
  0
VERTEX
  5
735
  8
0
  6
CENTER
 62
     4
 10
-934.8310921081356
 20
104.2350320428913
 30
0.0
  0
VERTEX
  5
736
  8
0
  6
CENTER
 62
     4
 10
-936.213461607728
 20
103.5906981527519
 30
0.0
  0
VERTEX
  5
737
  8
0
  6
CENTER
 62
     4
 10
-937.5892289266264
 20
102.9318201138731
 30
0.0
  0
VERTEX
  5
738
  8
0
  6
CENTER
 62
     4
 10
-938.9582470577549
 20
102.2584683304088
 30
0.0
  0
VERTEX
  5
739
  8
0
  6
CENTER
 62
     4
 10
-940.3203697152193
 20
101.5707147530991
 30
0.0
  0
VERTEX
  5
73A
  8
0
  6
CENTER
 62
     4
 10
-941.6754513499385
 20
100.868632871582
 30
0.0
  0
VERTEX
  5
73B
  8
0
  6
CENTER
 62
     4
 10
-943.0233471651972
 20
100.152297706541
 30
0.0
  0
VERTEX
  5
73C
  8
0
  6
CENTER
 62
     4
 10
-944.3639131321179
 20
99.42178580168866
 30
0.0
  0
VERTEX
  5
73D
  8
0
  6
CENTER
 62
     4
 10
-945.6970060050513
 20
98.6771752155872
 30
0.0
  0
VERTEX
  5
73E
  8
0
  6
CENTER
 62
     4
 10
-947.0224833368826
 20
97.9185455133082
 30
0.0
  0
VERTEX
  5
73F
  8
0
  6
CENTER
 62
     4
 10
-948.3402034942525
 20
97.14597775793015
 30
0.0
  0
VERTEX
  5
740
  8
0
  6
CENTER
 62
     4
 10
-949.6500256726916
 20
96.35955450187691
 30
0.0
  0
VERTEX
  5
741
  8
0
  6
CENTER
 62
     4
 10
-950.951809911666
 20
95.55935977809628
 30
0.0
  0
VERTEX
  5
742
  8
0
  6
CENTER
 62
     4
 10
-952.2454171095328
 20
94.74547909108088
 30
0.0
  0
VERTEX
  5
743
  8
0
  6
CENTER
 62
     4
 10
-953.5307090384032
 20
93.91799940773161
 30
0.0
  0
VERTEX
  5
744
  8
0
  6
CENTER
 62
     4
 10
-954.8075483589134
 20
93.07700914806466
 30
0.0
  0
VERTEX
  5
745
  8
0
  6
CENTER
 62
     4
 10
-956.0757986349
 20
92.22259817576364
 30
0.0
  0
VERTEX
  5
746
  8
0
  6
CENTER
 62
     4
 10
-957.3353243479784
 20
91.35485778857706
 30
0.0
  0
VERTEX
  5
747
  8
0
  6
CENTER
 62
     4
 10
-958.5859909120234
 20
90.47388070856292
 30
0.0
  0
VERTEX
  5
748
  8
0
  6
CENTER
 62
     4
 10
-959.8276646875511
 20
89.57976107218069
 30
0.0
  0
VERTEX
  5
749
  8
0
  6
CENTER
 62
     4
 10
-961.0602129959984
 20
88.67259442023261
 30
0.0
  0
VERTEX
  5
74A
  8
0
  6
CENTER
 62
     4
 10
-962.2835041339004
 20
87.75247768765469
 30
0.0
  0
VERTEX
  5
74B
  8
0
  6
CENTER
 62
     4
 10
-963.4974073869633
 20
86.8195091931586
 30
0.0
  0
VERTEX
  5
74C
  8
0
  6
CENTER
 62
     4
 10
-964.7017930440326
 20
85.87378862872606
 30
0.0
  0
VERTEX
  5
74D
  8
0
  6
CENTER
 62
     4
 10
-965.896532410952
 20
84.91541704895617
 30
0.0
  0
VERTEX
  5
74E
  8
0
  6
CENTER
 62
     4
 10
-967.0814978243163
 20
83.94449686026732
 30
0.0
  0
VERTEX
  5
74F
  8
0
  6
CENTER
 62
     4
 10
-968.2565626651123
 20
82.96113180995461
 30
0.0
  0
VERTEX
  5
750
  8
0
  6
CENTER
 62
     4
 10
-969.421601372248
 20
81.96542697510382
 30
0.0
  0
VERTEX
  5
751
  8
0
  6
CENTER
 62
     4
 10
-970.5764894559707
 20
80.95748875136368
 30
0.0
  0
VERTEX
  5
752
  8
0
  6
CENTER
 62
     4
 10
-971.721103511168
 20
79.93742484157683
 30
0.0
  0
VERTEX
  5
753
  8
0
  6
CENTER
 62
     4
 10
-972.8553212305552
 20
78.90534424427128
 30
0.0
  0
VERTEX
  5
754
  8
0
  6
CENTER
 62
     4
 10
-973.9790214177438
 20
77.86135724201355
 30
0.0
  0
VERTEX
  5
755
  8
0
  6
CENTER
 62
     4
 10
-975.092084000192
 20
76.80557538962435
 30
0.0
  0
VERTEX
  5
756
  8
0
  6
CENTER
 62
     4
 10
-976.1943900420351
 20
75.7381115022584
 30
0.0
  0
VERTEX
  5
757
  8
0
  6
CENTER
 62
     4
 10
-977.2858217567945
 20
74.65907964334977
 30
0.0
  0
VERTEX
  5
758
  8
0
  6
CENTER
 62
     4
 10
-978.3662625199631
 20
73.5685951124235
 30
0.0
  0
VERTEX
  5
759
  8
0
  6
CENTER
 62
     4
 10
-979.4355968814683
 20
72.46677443277545
 30
0.0
  0
VERTEX
  5
75A
  8
0
  6
CENTER
 62
     4
 10
-980.493710578007
 20
71.35373533902117
 30
0.0
  0
VERTEX
  5
75B
  8
0
  6
CENTER
 62
     4
 10
-981.5404905452564
 20
70.22959676451548
 30
0.0
  0
VERTEX
  5
75C
  8
0
  6
CENTER
 62
     4
 10
-982.5758249299545
 20
69.09447882864377
 30
0.0
  0
VERTEX
  5
75D
  8
0
  6
CENTER
 62
     4
 10
-983.5996031018525
 20
67.94850282398686
 30
0.0
  0
VERTEX
  5
75E
  8
0
  6
CENTER
 62
     4
 10
-984.6117156655364
 20
66.79179120336016
 30
0.0
  0
VERTEX
  5
75F
  8
0
  6
CENTER
 62
     4
 10
-985.6120544721164
 20
65.6244675667292
 30
0.0
  0
VERTEX
  5
760
  8
0
  6
CENTER
 62
     4
 10
-986.6005126307821
 20
64.44665664800219
 30
0.0
  0
VERTEX
  5
761
  8
0
  6
CENTER
 62
     4
 10
-987.576984520226
 20
63.25848430170187
 30
0.0
  0
VERTEX
  5
762
  8
0
  6
CENTER
 62
     4
 10
-988.5413657999279
 20
62.06007748951714
 30
0.0
  0
VERTEX
  5
763
  8
0
  6
CENTER
 62
     4
 10
-989.4935534213056
 20
60.85156426673683
 30
0.0
  0
VERTEX
  5
764
  8
0
  6
CENTER
 62
     4
 10
-990.433445638725
 20
59.63307376856621
 30
0.0
  0
VERTEX
  5
765
  8
0
  6
CENTER
 62
     4
 10
-991.3609420203726
 20
58.40473619632846
 30
0.0
  0
VERTEX
  5
766
  8
0
  6
CENTER
 62
     4
 10
-992.2759434589874
 20
57.16668280355191
 30
0.0
  0
VERTEX
  5
767
  8
0
  6
CENTER
 62
     4
 10
-993.1783521824502
 20
55.91904588194514
 30
0.0
  0
VERTEX
  5
768
  8
0
  6
CENTER
 62
     4
 10
-994.0680717642317
 20
54.66195874726094
 30
0.0
  0
VERTEX
  5
769
  8
0
  6
CENTER
 62
     4
 10
-994.9450071336959
 20
53.39555572505087
 30
0.0
  0
VERTEX
  5
76A
  8
0
  6
CENTER
 62
     4
 10
-995.8090645862585
 20
52.11997213631197
 30
0.0
  0
VERTEX
  5
76B
  8
0
  6
CENTER
 62
     4
 10
-996.6601517934
 20
50.83534428302715
 30
0.0
  0
VERTEX
  5
76C
  8
0
  6
CENTER
 62
     4
 10
-997.4981778125318
 20
49.54180943360066
 30
0.0
  0
VERTEX
  5
76D
  8
0
  6
CENTER
 62
     4
 10
-998.3230530967128
 20
48.2395058081903
 30
0.0
  0
VERTEX
  5
76E
  8
0
  6
CENTER
 62
     4
 10
-999.1346895042188
 20
46.92857256393792
 30
0.0
  0
VERTEX
  5
76F
  8
0
  6
CENTER
 62
     4
 10
-999.9330003079608
 20
45.60914978010001
 30
0.0
  0
VERTEX
  5
770
  8
0
  6
CENTER
 62
     4
 10
-1000.717900204751
 20
44.28137844307943
 30
0.0
  0
VERTEX
  5
771
  8
0
  6
CENTER
 62
     4
 10
-1001.489305324421
 20
42.94540043136038
 30
0.0
  0
VERTEX
  5
772
  8
0
  6
CENTER
 62
     4
 10
-1002.247133238779
 20
41.60135850034808
 30
0.0
  0
VERTEX
  5
773
  8
0
  6
CENTER
 62
     4
 10
-1002.991302970421
 20
40.24939626711468
 30
0.0
  0
VERTEX
  5
774
  8
0
  6
CENTER
 62
     4
 10
-1003.721735001383
 20
38.88965819505312
 30
0.0
  0
VERTEX
  5
775
  8
0
  6
CENTER
 62
     4
 10
-1004.438351281637
 20
37.52228957844051
 30
0.0
  0
VERTEX
  5
776
  8
0
  6
CENTER
 62
     4
 10
-1005.141075237433
 20
36.14743652691281
 30
0.0
  0
VERTEX
  5
777
  8
0
  6
CENTER
 62
     4
 10
-1005.829831779479
 20
34.76524594985236
 30
0.0
  0
VERTEX
  5
778
  8
0
  6
CENTER
 62
     4
 10
-1006.504547310965
 20
33.37586554068986
 30
0.0
  0
VERTEX
  5
779
  8
0
  6
CENTER
 62
     4
 10
-1007.165149735428
 20
31.97944376112272
 30
0.0
  0
VERTEX
  5
77A
  8
0
  6
CENTER
 62
     4
 10
-1007.811568464457
 20
30.57612982525121
 30
0.0
  0
VERTEX
  5
77B
  8
0
  6
CENTER
 62
     4
 10
-1008.443734425231
 20
29.16607368363426
 30
0.0
  0
VERTEX
  5
77C
  8
0
  6
CENTER
 62
     4
 10
-1009.061580067905
 20
27.74942600726653
 30
0.0
  0
VERTEX
  5
77D
  8
0
  6
CENTER
 62
     4
 10
-1009.665039372827
 20
26.32633817147856
 30
0.0
  0
VERTEX
  5
77E
  8
0
  6
CENTER
 62
     4
 10
-1010.254047857589
 20
24.89696223976155
 30
0.0
  0
VERTEX
  5
77F
  8
0
  6
CENTER
 62
     4
 10
-1010.828542583922
 20
23.46145094751874
 30
0.0
  0
VERTEX
  5
780
  8
0
  6
CENTER
 62
     4
 10
-1011.388462164417
 20
22.01995768574494
 30
0.0
  0
VERTEX
  5
781
  8
0
  6
CENTER
 62
     4
 10
-1011.933746769088
 20
20.57263648463591
 30
0.0
  0
VERTEX
  5
782
  8
0
  6
CENTER
 62
     4
 10
-1012.464338131762
 20
19.11964199712961
 30
0.0
  0
VERTEX
  5
783
  8
0
  6
CENTER
 62
     4
 10
-1012.980179556309
 20
17.66112948238077
 30
0.0
  0
VERTEX
  5
784
  8
0
  6
CENTER
 62
     4
 10
-1013.481215922694
 20
16.19725478917076
 30
0.0
  0
VERTEX
  5
785
  8
0
  6
CENTER
 62
     4
 10
-1013.967393692876
 20
14.72817433925441
 30
0.0
  0
VERTEX
  5
786
  8
0
  6
CENTER
 62
     4
 10
-1014.438660916519
 20
13.25404511064566
 30
0.0
  0
VERTEX
  5
787
  8
0
  6
CENTER
 62
     4
 10
-1014.894967236548
 20
11.7750246208437
 30
0.0
  0
VERTEX
  5
788
  8
0
  6
CENTER
 62
     4
 10
-1015.336263894533
 20
10.2912709100015
 30
0.0
  0
VERTEX
  5
789
  8
0
  6
CENTER
 62
     4
 10
-1015.762503735891
 20
8.80294252403852
 30
0.0
  0
VERTEX
  5
78A
  8
0
  6
CENTER
 62
     4
 10
-1016.173641214932
 20
7.310198497699332
 30
0.0
  0
VERTEX
  5
78B
  8
0
  6
CENTER
 62
     4
 10
-1016.569632399723
 20
5.813198337559996
 30
0.0
  0
VERTEX
  5
78C
  8
0
  6
CENTER
 62
     4
 10
-1016.950434976781
 20
4.312102004984112
 30
0.0
  0
VERTEX
  5
78D
  8
0
  6
CENTER
 62
     4
 10
-1017.316008255596
 20
2.807069899030168
 30
0.0
  0
VERTEX
  5
78E
  8
0
  6
CENTER
 62
     4
 10
-1017.66631317298
 20
1.298262839312152
 30
0.0
  0
VERTEX
  5
78F
  8
0
  6
CENTER
 62
     4
 10
-1018.001312297238
 20
-0.2141579511847382
 30
0.0
  0
VERTEX
  5
790
  8
0
  6
CENTER
 62
     4
 10
-1018.32096983217
 20
-1.730030863331521
 30
0.0
  0
VERTEX
  5
791
  8
0
  6
CENTER
 62
     4
 10
-1018.625251620897
 20
-3.249193919124114
 30
0.0
  0
VERTEX
  5
792
  8
0
  6
CENTER
 62
     4
 10
-1018.914125149506
 20
-4.771484788991422
 30
0.0
  0
VERTEX
  5
793
  8
0
  6
CENTER
 62
     4
 10
-1019.187559550532
 20
-6.296740809141024
 30
0.0
  0
VERTEX
  5
794
  8
0
  6
CENTER
 62
     4
 10
-1019.445525606249
 20
-7.824798998940519
 30
0.0
  0
VERTEX
  5
795
  8
0
  6
CENTER
 62
     4
 10
-1019.687995751794
 20
-9.355496078332767
 30
0.0
  0
VERTEX
  5
796
  8
0
  6
CENTER
 62
     4
 10
-1019.914944078117
 20
-10.88866848528313
 30
0.0
  0
VERTEX
  5
797
  8
0
  6
CENTER
 62
     4
 10
-1020.126346334742
 20
-12.42415239325681
 30
0.0
  0
VERTEX
  5
798
  8
0
  6
CENTER
 62
     4
 10
-1020.322179932366
 20
-13.96178372872447
 30
0.0
  0
VERTEX
  5
799
  8
0
  6
CENTER
 62
     4
 10
-1020.502423945265
 20
-15.50139818869426
 30
0.0
  0
VERTEX
  5
79A
  8
0
  6
CENTER
 62
     4
 10
-1020.667059113536
 20
-17.04283125826834
 30
0.0
  0
VERTEX
  5
79B
  8
0
  6
CENTER
 62
     4
 10
-1020.816067845154
 20
-18.58591822822206
 30
0.0
  0
VERTEX
  5
79C
  8
0
  6
CENTER
 62
     4
 10
-1020.949434217849
 20
-20.13049421260388
 30
0.0
  0
VERTEX
  5
79D
  8
0
  6
CENTER
 62
     4
 10
-1021.06714398081
 20
-21.67639416635423
 30
0.0
  0
VERTEX
  5
79E
  8
0
  6
CENTER
 62
     4
 10
-1021.169184556206
 20
-23.22345290294129
 30
0.0
  0
VERTEX
  5
79F
  8
0
  6
CENTER
 62
     4
 10
-1021.255545040532
 20
-24.77150511201198
 30
0.0
  0
VERTEX
  5
7A0
  8
0
  6
CENTER
 62
     4
 10
-1021.326216205771
 20
-26.32038537705608
 30
0.0
  0
VERTEX
  5
7A1
  8
0
  6
CENTER
 62
     4
 10
-1021.381190500385
 20
-27.86992819308181
 30
0.0
  0
VERTEX
  5
7A2
  8
0
  6
CENTER
 62
     4
 10
-1021.420462050117
 20
-29.41996798430073
 30
0.0
  0
VERTEX
  5
7A3
  8
0
  6
CENTER
 62
     4
 10
-1021.444026658621
 20
-30.97033912182034
 30
0.0
  0
VERTEX
  5
7A4
  8
0
  6
CENTER
 62
     4
 10
-1021.451881807909
 20
-32.52087594134224
 30
0.0
  0
SEQEND
  5
7AC
  8
0
  6
CENTER
 62
     4
  0
CIRCLE
  5
562
  8
LAYER0006
  6
CONTINUOUS
 62
     3
 10
-1076.451881807909
 20
651.3815516518697
 30
0.0
 40
16.0
  0
CIRCLE
  5
563
  8
LAYER0006
  6
CONTINUOUS
 62
     3
 10
173.0481181920909
 20
651.3815516518697
 30
0.0
 40
16.0
  0
DIMENSION
  5
564
  8
0
  6
CONTINUOUS
  2
*D1
 10
-948.9518818079091
 20
-682.241759919153
 30
0.0
 11
-1021.451881807909
 21
-682.241759919153
 31
0.0
 70
   160
  3
DC_ROTATED
 13
-1093.951881807909
 23
-555.2208759414888
 33
0.0
 14
-948.9518818079091
 24
-555.2208759414888
 34
0.0
1001
ACAD
1000
DSTYLE
1002
{
1070
     7
1000
OPEN30
1070
     6
1000
OPEN30
1070
   274
1070
     4
1070
    41
1040
24.00180816650391
1070
    79
1070
     2
1070
   176
1070
     4
1070
   177
1070
     9
1070
   178
1070
     4
1070
   271
1070
     1
1070
    44
1040
5.0
1070
    42
1040
8.0
1070
   147
1040
2.5
1070
   173
1070
     1
1070
    77
1070
     3
1070
    73
1070
     0
1070
   172
1070
     1
1070
    74
1070
     0
1070
   283
1070
     0
1070
   340
1005
103
1070
   140
1040
24.0
1070
   284
1070
     8
1070
   288
1070
     1
1070
    78
1070
     8
1070
    90
1070
     1
1002
}
  0
DIMENSION
  5
566
  8
0
  6
CONTINUOUS
  2
*D2
 10
142.3481181920938
 20
286.317885752452
 30
0.0
 11
-503.7018818079073
 21
286.317885752452
 31
0.0
 70
   160
  1
<>{}{ ±2}
  3
DC_ROTATED
 13
-1045.751881807908
 23
-32.52087594148844
 33
0.0
 14
142.3481181920938
 24
-32.52087594148844
 34
0.0
1001
ACAD
1000
DSTYLE
1002
{
1070
     7
1000
OPEN30
1070
     6
1000
OPEN30
1070
   274
1070
     4
1070
    41
1040
24.00180816650391
1070
    79
1070
     2
1070
   176
1070
     4
1070
   177
1070
     9
1070
   178
1070
    30
1070
   271
1070
     1
1070
    44
1040
8.0
1070
    42
1040
8.0
1070
   147
1040
8.0
1070
   173
1070
     1
1070
    77
1070
     3
1070
    73
1070
     0
1070
    48
1040
2.0
1070
   172
1070
     1
1070
    74
1070
     0
1070
   283
1070
     0
1070
    47
1040
2.0
1070
   340
1005
103
1070
   140
1040
40.0
1070
   284
1070
     8
1070
   288
1070
     1
1070
    78
1070
     8
1070
    90
1070
     1
1002
}
  0
DIMENSION
  5
567
  8
0
  6
CONTINUOUS
  2
*D3
 10
292.0436467416871
 20
141.7791240585115
 30
0.0
 11
292.0436467416871
 21
-240.7208759414887
 31
0.0
 70
   160
  1
<>{}{ ±1}
  3
DC_ROTATED
 13
211.9419818318961
 23
-558.2208759414888
 33
0.0
 14
-34.9518818079091
 24
141.7791240585115
 34
0.0
 50
90.0
1001
ACAD
1000
DSTYLE
1002
{
1070
     7
1000
OPEN30
1070
     6
1000
OPEN30
1070
   274
1070
     4
1070
    41
1040
24.00180816650391
1070
    79
1070
     2
1070
   176
1070
     4
1070
   177
1070
     9
1070
   178
1070
    30
1070
   271
1070
     1
1070
    44
1040
5.0
1070
    42
1040
8.0
1070
   147
1040
5.0
1070
   173
1070
     1
1070
    77
1070
     3
1070
    73
1070
     0
1070
    48
1040
1.0
1070
   172
1070
     1
1070
    74
1070
     0
1070
   283
1070
     0
1070
    47
1040
1.0
1070
   340
1005
103
1070
   140
1040
40.0
1070
   284
1070
     8
1070
   288
1070
     1
1070
    78
1070
     8
1070
    90
1070
     1
1002
}
  0
INSERT
  5
568
  8
0
  6
CONTINUOUS
  2
DC_GROUP_1
 10
0.0
 20
0.0
 30
0.0
  0
INSERT
  5
569
  8
0
  6
CONTINUOUS
  2
DC_GROUP_3
 10
0.0
 20
0.0
 30
0.0
  0
DIMENSION
  5
56A
  8
0
  6
CONTINUOUS
  2
*D8
 10
642.1986647752681
 20
-699.3519898125386
 30
0.0
 11
597.1986647752681
 21
-699.3519898125386
 31
0.0
 70
   160
  3
DC_ROTATED
 13
552.1986647752681
 23
-555.2208759414888
 33
0.0
 14
642.1986647752681
 24
-555.2208759414888
 34
0.0
1001
ACAD
1000
DSTYLE
1002
{
1070
     7
1000
OPEN30
1070
     6
1000
OPEN30
1070
   274
1070
     4
1070
    41
1040
24.00180816650391
1070
    79
1070
     2
1070
   176
1070
     4
1070
   177
1070
     9
1070
   178
1070
     4
1070
   271
1070
     1
1070
    44
1040
5.0
1070
    42
1040
8.0
1070
   147
1040
5.0
1070
   173
1070
     1
1070
    77
1070
     3
1070
    73
1070
     0
1070
   172
1070
     1
1070
    74
1070
     0
1070
   283
1070
     0
1070
   340
1005
103
1070
   140
1040
24.0
1070
   284
1070
     8
1070
   288
1070
     1
1070
    78
1070
     8
1070
    90
1070
     1
1002
}
  0
INSERT
  5
56B
  8
0
  6
CONTINUOUS
  2
DC_GROUP_5
 10
0.0
 20
0.0
 30
0.0
  0
INSERT
  5
56C
  8
0
  6
CONTINUOUS
  2
DC_GROUP_7
 10
0.0
 20
0.0
 30
0.0
  0
INSERT
  5
56D
  8
0
  6
CONTINUOUS
  2
DC_GROUP_9
 10
0.0
 20
0.0
 30
0.0
  0
DIMENSION
  5
56E
  8
0
  6
CONTINUOUS
  2
*D17
 10
190.5481181920909
 20
552.8162469132991
 30
0.0
 11
-451.7018818079091
 21
552.8162469132991
 31
0.0
 70
   160
  3
DC_ROTATED
 13
-1093.951881807909
 23
618.6990932863511
 33
0.0
 14
190.5481181920909
 24
618.6990932863515
 34
0.0
1001
ACAD
1000
DSTYLE
1002
{
1070
     7
1000
OPEN30
1070
     6
1000
OPEN30
1070
   274
1070
     4
1070
    41
1040
24.00180816650391
1070
    79
1070
     2
1070
   176
1070
     4
1070
   177
1070
     9
1070
   178
1070
     4
1070
   271
1070
     1
1070
    44
1040
5.0
1070
    42
1040
8.0
1070
   147
1040
8.0
1070
   173
1070
     1
1070
    77
1070
     3
1070
    73
1070
     0
1070
   172
1070
     1
1070
    74
1070
     0
1070
   283
1070
     0
1070
   340
1005
103
1070
   140
1040
24.0
1070
   284
1070
     8
1070
   288
1070
     1
1070
    78
1070
     8
1070
    90
1070
     1
1002
}
  0
INSERT
  5
56F
  8
0
  6
CONTINUOUS
  2
DC_GROUP_11
 10
0.0
 20
0.0
 30
0.0
  0
INSERT
  5
570
  8
0
  6
CONTINUOUS
  2
DC_GROUP_12
 10
0.0
 20
0.0
 30
0.0
  0
DIMENSION
  5
571
  8
LAYER0001
  6
CONTINUOUS
  2
*D15
 10
-31.9518818079091
 20
-32.52087594148844
 30
0.0
 11
-74.96336056009307
 21
0.4620770128354188
 31
0.0
 70
   164
  1
R125.7
  3
DC_RADIAL06
 15
41.57824411606548
 25
69.42916369364089
 35
0.0
 40
0.0
1001
ACAD
1000
DSTYLE
1002
{
1070
     7
1000
OPEN30
1070
     6
1000
OPEN30
1070
   274
1070
     4
1070
    41
1040
24.00180816650391
1070
    79
1070
     2
1070
   176
1070
     4
1070
   177
1070
     9
1070
   178
1070
     4
1070
   271
1070
     1
1070
    44
1040
5.0
1070
    42
1040
8.0
1070
   147
1040
8.0
1070
   173
1070
     1
1070
    77
1070
     2
1070
   283
1070
     0
1070
   340
1005
103
1070
   140
1040
28.0
1070
   284
1070
     8
1070
   288
1070
     1
1070
    78
1070
     8
1070
    90
1070
     1
1002
}
  0
INSERT
  5
573
  8
LAYER0001
  6
CONTINUOUS
  2
DA_IMAGEDIMGROUP_1
 10
0.0
 20
0.0
 30
0.0
  0
DIMENSION
  5
574
  8
LAYER0001
  6
CONTINUOUS
  2
*D19
 10
-1145.600035445143
 20
696.3815516518695
 30
0.0
 11
-1145.600035445143
 21
651.3815516518697
 31
0.0
 70
   160
  3
DC_ROTATED
 13
-1079.696879806307
 23
606.3815516518697
 33
0.0
 14
-1079.696879806307
 24
696.3815516518695
 34
0.0
 50
90.0
1001
ACAD
1000
DSTYLE
1002
{
1070
     7
1000
OPEN30
1070
     6
1000
OPEN30
1070
   274
1070
     4
1070
    41
1040
24.00180816650391
1070
    79
1070
     2
1070
   176
1070
     4
1070
   177
1070
     4
1070
   178
1070
     4
1070
   271
1070
     1
1070
    44
1040
5.0
1070
    42
1040
8.0
1070
   147
1040
5.0
1070
   173
1070
     1
1070
    77
1070
     3
1070
    73
1070
     0
1070
   172
1070
     1
1070
    74
1070
     0
1070
   283
1070
     0
1070
   340
1005
103
1070
   140
1040
28.0
1070
   284
1070
     8
1070
   288
1070
     1
1070
    78
1070
     8
1070
    90
1070
     1
1002
}
  0
DIMENSION
  5
575
  8
LAYER0001
  6
CONTINUOUS
  2
*D20
 10
-948.9518818079091
 20
738.3533924741313
 30
0.0
 11
-1021.451881807909
 21
738.3533924741313
 31
0.0
 70
   160
  3
DC_ROTATED
 13
-1093.951881807909
 23
684.0640100173879
 33
0.0
 14
-948.9518818079091
 24
684.0640100173879
 34
0.0
1001
ACAD
1000
DSTYLE
1002
{
1070
     7
1000
OPEN30
1070
     6
1000
OPEN30
1070
   274
1070
     4
1070
    41
1040
24.00180816650391
1070
    79
1070
     2
1070
   176
1070
     4
1070
   177
1070
     4
1070
   178
1070
     4
1070
   271
1070
     1
1070
    44
1040
5.0
1070
    42
1040
8.0
1070
   147
1040
5.0
1070
   173
1070
     1
1070
    77
1070
     3
1070
    73
1070
     0
1070
   172
1070
     1
1070
    74
1070
     0
1070
   283
1070
     0
1070
   340
1005
103
1070
   140
1040
28.0
1070
   284
1070
     8
1070
   288
1070
     1
1070
    78
1070
     8
1070
    90
1070
     1
1002
}
  0
INSERT
  5
576
  8
LAYER0013
  6
CONTINUOUS
  2
DC_GROUP_13
 10
0.0
 20
0.0
 30
0.0
  0
INSERT
  5
577
  8
LAYER0013
  6
CONTINUOUS
  2
DC_GROUP_14
 10
0.0
 20
0.0
 30
0.0
  0
INSERT
  5
578
  8
LAYER0013
  6
CONTINUOUS
  2
DC_GROUP_15
 10
0.0
 20
0.0
 30
0.0
  0
VIEWPORT
  5
B1
 67
     1
  8
0
 10
57.20724548061571
 20
-10.33333333335122
 30
0.0
 40
9415.243472883745
 41
6730.000000000002
 68
     1
 69
     1
1001
ACAD
1000
MVIEW
1002
{
1070
    16
1010
0.0
1020
0.0
1030
0.0
1020
0.0
1030
0.0
1010
0.0
1020
0.0
1030
1.0
1020
0.0
1030
1.0
1040
0.0
1040
6730.000000000002
1040
57.20724548061571
1040
-10.33333333335122
1040
50.0
1040
0.0
1040
0.0
1070
     0
1070
   100
1070
     0
1070
     3
1070
     0
1070
     0
1070
     0
1070
     0
1040
0.0
1040
0.0
1040
0.0
1040
0.5
1040
0.5
1040
0.0
1040
0.0
1070
     0
1002
{
1002
}
1002
}
  0
ENDSEC
  0
EOF
